osu file format v9

[General]
AudioFilename: ED.mp3
AudioLeadIn: 1000
PreviewTime: 57598
Countdown: 0
SampleSet: Soft
StackLeniency: 0.7
Mode: 0
LetterboxInBreaks: 0

[Editor]
Bookmarks: 56692
DistanceSpacing: 0.8
BeatDivisor: 2
GridSize: 8

[Metadata]
Title:Kimi no Shiranai Monogatari (TV Size)
Artist:supercell
Creator:TTTTTTTTTTTT
Version:Easy
Source:Bakemonogatari
Tags:lks pokie senjougahara hitagi h-boy

[Difficulty]
HPDrainRate:2
CircleSize:3
OverallDifficulty:2
ApproachRate:3
SliderMultiplier:1
SliderTickRate:1

[Events]
//Background and Video events
0,0,"bg.png"
//Break Periods
//Storyboard Layer 0 (Background)
//Storyboard Layer 1 (Fail)
//Storyboard Layer 2 (Pass)
//Storyboard Layer 3 (Foreground)
//Storyboard Sound Samples
//Background Colour Transformations
3,100,163,162,255

[TimingPoints]
1450,363.636363636364,4,2,0,71,1,0
13329,-100,4,2,1,90,0,0
16067,-100,4,2,1,80,0,0
27520,-100,4,2,1,50,0,0
30601,-100,4,1,0,40,0,0
31874,-100,4,2,0,40,0,0
32056,-100,4,1,0,41,0,0
34783,-100,4,2,0,41,0,0
34965,-100,4,1,0,41,0,0
56722,-100,4,1,1,51,0,1
80238,-100,4,1,1,27,0,1
80783,-100,4,1,1,29,0,1
81067,-100,4,1,1,38,0,1
81510,-100,4,1,1,20,0,1
81692,-100,4,1,1,46,0,1
82067,-100,4,1,1,51,0,1
82431,-100,4,1,1,60,0,1
82794,-100,4,1,1,65,0,1
82976,-100,4,1,1,41,0,1
83076,-100,4,1,1,50,0,1
85813,-100,4,1,1,50,0,0

[Colours]
Combo1 : 128,0,255
Combo2 : 253,172,247
Combo3 : 128,0,128
SliderBorder : 255,255,255

[HitObjects]
257,195,1450,1,4
200,344,2177,2,0,B|-23:344,1,200
88,216,3631,5,2
177,90,4359,2,0,B|385:90,1,200
472,216,5813,6,0,B|504:232|496:264|488:288|464:288|440:288|416:272|400:256|440:208,2,150,2|0|0
432,144,7268,5,4
288,80,7995,2,0,B|232:40|152:120|88:72,2,200,0|2|0
256,232,10177,5,4
256,312,10540,2,0,B|256:384,1,50
176,352,11086,6,0,B|144:320|112:360|72:352,1,100
32,288,11813,2,0,B|0:256|40:232|16:192,1,100,0|4
24,112,12540,1,4
144,88,13086,5,4
224,88,13450,2,0,B|312:40|344:136|432:80,1,200,0|0
456,160,14540,2,0,B|496:224|472:320,2,150
256,192,15995,12,0,18177
256,192,18904,5,0
416,192,19631,1,0
336,328,20359,2,0,B|288:296|240:368|184:312,1,150,2|0
112,312,21268,1,0
40,216,21813,5,0
192,176,22540,1,0
72,72,23268,2,0,B|120:40|160:96|216:32,1,150,2|0
288,40,24177,1,0
368,128,24722,5,0
224,200,25450,1,0
360,280,26177,1,2
216,352,26904,1,0
256,192,27631,12,0,29813
256,192,30540,5,4
256,32,31268,1,0
112,112,31995,1,4
192,136,32359,2,0,B|248:192|152:224|208:296,1,150
296,344,33450,5,4
416,240,34177,1,0
264,192,34904,1,4
328,144,35268,2,0,B|257:93|186:147,1,150
80,232,36359,6,0,B|40:280|96:312|72:336,1,100
0,352,37086,1,8
160,328,37813,2,0,B|144:288|184:272|152:224,1,100
224,184,38540,1,8
384,184,39268,6,0,B|488:184,2,100,0|0|8
224,184,40722,2,0,B|184:152|160:208|120:168,2,100,0|0|8
304,320,42177,1,4
392,184,42904,6,0,B|320:104,1,100,0|0
268,53,43631,1,8
192,192,44359,1,8
352,192,45086,5,4
272,336,45813,2,0,B|384:336,1,100,8|0
296,192,46904,1,2
224,336,47631,1,8
144,336,47995,2,0,B|16:344|24:240|32:192,1,200,0|2
56,136,49086,1,8
200,56,49813,2,0,B|272:32|304:96|408:64,1,200,2|0
456,120,50904,5,4
368,256,51631,1,8
208,256,52359,1,8
128,232,52722,1,8
64,184,53086,2,0,B|160:136|216:192|256:128,1,200,8|4
408,136,54540,5,8
328,136,54904,1,0
248,136,55268,2,6,B|176:128|112:136|80:200|104:272|184:280|272:248|232:168|152:104|144:80|112:80,1,400
200,48,57086,5,8
352,104,57813,1,8
416,152,58177,1,0
344,184,58540,2,0,B|328:292,1,100,8|0
256,320,59268,2,0,B|192:288|128:368|48:320,1,200
152,192,60722,5,0
232,192,61086,2,0,B|312:136|368:224|432:168,1,200,8|0
296,80,62540,2,8,B|88:80,1,200
120,240,63995,1,0
280,272,64722,5,0
328,336,65086,1,4
360,264,65449,2,0,B|400:216|288:136|368:72,1,200,0|4
200,72,66904,6,0,B|112:48|40:88|48:168,1,200,0|8
192,224,68359,1,4
304,336,69086,1,2
352,272,69449,6,0,B|472:272,2,100
192,280,70904,1,8
144,216,71268,2,0,B|32:216,2,100
256,104,72722,6,0,B|328:64|384:152|472:96,1,200
472,184,73813,1,0
432,256,74177,1,4
272,240,74904,1,8
176,112,75631,6,0,B|280:78|394:122,1,200,4|0
256,224,77086,2,0,B|360:258|474:214,1,200,4|0
320,128,78540,6,0,B|208:128,1,100
152,88,79268,1,0
224,48,79631,2,0,B|336:48,1,100
392,88,80359,2,0,B|568:72|552:208|520:264|448:256|400:256|392:256,2,350,4|0|4
272,296,83995,5,4
192,296,84359,2,4,B|32:296,1,150
24,216,85268,2,4,B|120:184|120:96,1,150
