osu file format v6

[General]
AudioFilename: Kimi no Shiranai Monogatari.mp3
AudioLeadIn: 1004
PreviewTime: 54281
Countdown: 0
SampleSet: Normal
StackLeniency: 0.7
Mode: 0
LetterboxInBreaks: 1

[Editor]
Bookmarks: 64372
DistanceSpacing: 1
BeatDivisor: 4
GridSize: 8

[Metadata]
Title:Kimi no Shiranai Monogatari (TV Size)
Artist:supercell
Creator:Mystearica
Version:Insane
Source:
Tags:Bakemonogatari Anime J-Pop

[Difficulty]
HPDrainRate:7
CircleSize:5
OverallDifficulty:7
SliderMultiplier:1.6
SliderTickRate:0.5

[Events]
//Background and Video events
0,0,"bg.jpg"
//Break Periods
//Storyboard Layer 0 (Background)
//Storyboard Layer 1 (Fail)
//Storyboard Layer 2 (Pass)
//Storyboard Layer 3 (Foreground)
//Storyboard Sound Samples
//Background Colour Transformations
3,100,0,0,0

[TimingPoints]
1100,363.636363636364,4,1,1,60,1,0
4918,-100,4,1,1,40,0,0
5281,-100,4,1,1,70,0,0
5736,-100,4,1,1,50,0,0
6645,-100,4,1,1,60,0,0
16281,-100,4,1,1,30,0,0
16645,-100,4,1,1,40,0,0
17009,-100,4,1,1,50,0,0
17372,-100,4,1,1,60,0,0
17736,-100,4,1,1,70,0,0
18100,-100,4,1,1,80,0,0
18463,-100,4,2,1,80,0,0
20736,-100,4,2,1,60,0,0
21100,-100,4,2,1,80,0,0
23918,-100,4,2,1,60,0,0
24190,-200,4,2,1,80,0,0
30009,-100,4,1,1,40,0,0
30463,-100,4,1,1,50,0,0
54463,-100,4,1,1,60,0,0
56372,-200,4,1,1,80,0,1
57009,-200,4,1,1,0,0,1
57190,-100,4,1,1,80,0,1
67918,-200,4,1,1,80,0,1
68827,-100,4,1,1,80,0,1
75190,-100,4,1,1,0,0,1
77645,-100,4,1,1,80,0,1
78009,-200,4,1,1,80,0,1
79827,-100,4,1,1,20,0,1
80281,-100,4,1,1,30,0,1
80645,-100,4,1,1,40,0,1
81009,-100,4,1,1,50,0,1
81372,-100,4,1,1,60,0,1
81736,-100,4,1,1,70,0,1
82100,-100,4,1,1,80,0,1
85554,-100,4,2,1,0,0,1
87100,-100,4,2,1,0,0,0

[Colours]
Combo1 : 253,169,157
Combo2 : 147,210,244
Combo3 : 244,162,222
Combo4 : 233,240,136

[HitObjects]
256,112,1100,5,0
256,112,1463,2,0,B|256:280,1,160
256,272,2190,1,0
112,192,2554,5,0
112,192,2918,1,0
400,192,3281,5,0
400,192,3645,1,0
256,328,4009,5,0
288,256,4190,1,0
240,192,4372,1,0
208,120,4554,1,0
256,56,4736,1,0
256,56,5100,1,4
432,56,5463,6,0,B|400:144|312:176,1,160
326,170,5918,1,0
326,170,6009,1,0
248,168,6190,1,0
168,168,6372,1,0
168,168,6463,1,0
168,168,6554,1,4
256,272,6918,5,0
256,272,7281,2,0,B|256:104,1,160
256,112,8009,1,0
400,192,8372,5,0
112,192,8736,1,0
256,304,9100,5,0
256,304,9190,1,0
256,304,9281,1,0
256,304,9463,1,0
256,304,9645,5,0
224,232,9827,1,0
272,168,10009,1,0
224,104,10190,1,0
272,40,10372,1,4
424,80,10736,5,0
464,152,10918,1,0
416,216,11100,1,0
88,304,11463,5,0
48,232,11645,1,0
96,168,11827,1,0
256,192,12190,5,0
256,192,12736,1,4
256,192,13100,1,0
160,64,13463,6,0,B|88:152,1,80
128,224,13826,2,0,B|200:272,1,80
208,176,14190,2,0,B|272:96,1,80
344,72,14553,2,0,B|432:120,1,80
344,176,14917,2,0,B|280:256,1,80
256,328,15281,5,0
256,296,15463,1,0
256,264,15644,1,0
256,232,15826,1,0
256,200,16008,1,0
224,56,16372,6,0,B|168:136,1,80
288,56,16736,2,0,B|344:136,1,80
216,152,17100,6,0,B|144:216,1,80
296,152,17463,2,0,B|368:216,1,80
216,240,17827,6,0,B|128:288,1,80
296,240,18190,2,0,B|384:288,1,80
256,328,18554,5,0
176,328,18736,1,0
128,264,18918,1,0
88,192,19100,1,0
168,192,19281,1,0
248,192,19463,1,0
328,192,19645,1,0
288,264,19827,1,0
208,264,20009,2,0,B|208:80,1,160,0|0
208,104,20554,1,0
208,104,20918,1,2
411,53,21281,6,0,B|323:109,1,80
344,96,21645,2,0,B|411:173,1,80,0|0
396,156,22009,2,0,B|315:213,1,80
331,202,22372,2,0,B|395:269,1,80,0|0
386,259,22736,2,0,B|299:317,1,80
319,303,23100,2,0,B|240:248,1,80,0|0
254,257,23463,2,0,B|184:312,1,80
190,306,23827,2,0,B|112:240,1,80,0|2
112,56,24372,6,0,B|56:112|96:208,3,160
408,312,27100,5,0
408,312,27281,2,0,B|464:208|408:112,1,200
360,64,28372,5,0
360,64,28554,2,0,B|256:160|368:296,1,240
354,278,29827,1,0
424,80,30190,6,0,B|400:168|288:192,1,160,4|0
328,104,30736,1,0
256,136,30918,1,0
208,200,31100,1,0
192,280,31281,1,0
192,280,31463,1,0
168,200,31645,1,0
120,136,31827,1,0
48,96,32009,1,0
40,176,32190,2,0,B|64:264|176:288,1,160,0|0
256,112,32918,5,0
192,72,33100,1,0
120,112,33281,1,0
152,184,33463,1,0
208,240,33645,1,0
256,304,33827,1,0
304,240,34009,1,0
360,184,34190,1,0
392,112,34372,1,0
320,72,34554,1,0
256,112,34736,1,0
256,112,34918,1,0
256,112,35100,2,0,B|256:280,1,160
392,72,36008,5,0
392,72,36371,1,0
136,72,36735,5,0
136,72,37098,1,0
304,136,37462,5,0
208,136,37826,1,0
160,200,38189,5,0
368,200,38553,1,0
216,272,38917,5,0
312,272,39281,1,0
392,312,39644,5,0
392,312,40007,1,0
136,312,40371,5,0
136,312,40734,1,0
256,344,41098,5,0
256,312,41462,1,0
256,280,41827,5,0
288,264,42009,1,0
320,248,42190,1,0
344,232,42372,1,0
376,216,42554,1,0
352,200,42736,1,0
320,184,42918,1,0
288,168,43100,1,0
256,152,43281,1,0
224,136,43463,1,0
248,120,43645,1,0
280,104,43827,1,0
304,88,44009,1,0
336,72,44190,1,0
368,56,44372,1,0
368,56,44554,1,0
368,56,44736,1,4
448,192,45100,6,0,B|448:288|360:320,1,160
224,248,45827,6,0,B|224:152|312:120,1,160
64,192,46554,6,0,B|64:96|152:64,2,160
216,152,47645,6,0,B|248:240|344:264,1,160
312,160,48372,1,0
312,160,48736,1,0
408,160,49100,1,0
408,160,49463,1,0
456,240,49827,5,0
408,304,50009,1,0
328,312,50190,1,0
176,264,50554,6,0,B|88:200,1,80
148,195,50918,2,0,B|122:90,1,80
160,141,51281,2,0,B|191:36,1,80
198,100,51645,2,0,B|277:25,1,80
252,84,52009,2,0,B|357:58,1,80
306,96,52372,2,0,B|411:127,1,80
347,134,52736,2,0,B|422:213,1,80
363,188,53100,2,0,B|389:293,1,80
351,242,53463,2,0,B|320:347,1,80
280,256,53827,5,0
248,248,53918,1,0
224,264,54009,1,0
192,280,54100,1,0
160,272,54190,1,0
160,272,54372,1,0
112,56,54554,5,0
56,112,54736,1,0
136,128,54918,2,0,B|200:184|288:184,1,160
288,104,55463,1,0
288,104,55645,1,0
360,128,55827,1,0
374,156,55918,1,0
380,188,56009,1,0
374,219,56100,1,0
359,247,56190,1,0
312,312,56372,2,0,B|248:352|216:280|144:328,1,160,4|0
64,192,57463,6,0,B|120:264|208:272,1,160
176,176,58190,1,0
176,176,58372,1,0
272,152,58736,2,0,B|216:80|128:72,1,160
64,96,59281,5,0
48,176,59463,1,0
128,152,59645,1,0
40,256,59827,1,0
184,208,60009,1,0
424,144,60372,6,0,B|368:72|280:64,1,160
312,160,61099,1,0
312,160,61281,1,0
216,184,61645,2,0,B|272:256|360:264,1,160
424,240,62190,5,0
440,160,62372,1,0
360,184,62554,1,0
448,80,62736,1,0
304,128,62918,1,0
360,64,63100,5,0
288,40,63281,1,0
208,40,63463,1,0
136,64,63645,1,0
64,104,63827,1,0
64,104,63918,1,0
64,104,64009,1,0
344,192,64372,5,0
168,192,64736,1,0
256,56,65100,2,0,B|256:320,1,240
256,296,65827,1,0
256,296,66190,1,0
376,192,66554,5,0
376,192,66736,1,0
296,192,66918,1,0
296,192,67100,1,0
216,192,67281,1,0
216,192,67463,1,0
136,192,67645,1,0
136,192,67736,1,0
136,192,67827,1,0
176,272,68009,6,0,B|368:272,1,160
168,192,69100,5,0
344,192,69464,1,0
256,328,69828,2,0,B|256:64,1,240
256,88,70555,1,0
256,88,70918,1,0
256,88,71100,2,0,B|368:56,1,80
256,88,71463,2,0,B|144:56,1,80
72,184,72009,5,0
120,248,72190,1,0
192,272,72372,1,0
208,112,72736,1,0
280,88,72918,1,0
352,128,73100,1,0
328,288,73463,1,0
408,288,73645,1,0
464,232,73827,1,0
328,168,74190,6,0,B|224:168,1,80
192,224,74554,2,0,B|296:224,1,80
256,96,74918,5,0
256,96,75100,1,0
256,192,75281,12,0,77463
136,96,77827,5,0
136,96,78190,2,0,B|176:176|280:208,2,160
448,328,80009,5,0
376,288,80190,1,0
296,264,80372,1,0
216,264,80554,1,0
136,288,80736,1,0
64,320,80918,1,0
88,224,81100,5,0
176,184,81281,1,0
272,184,81463,1,0
368,184,81645,1,0
448,240,81827,1,0
440,160,82009,5,0
376,112,82190,1,0
304,88,82372,1,0
224,88,82554,1,0
144,112,82736,1,0
80,160,82918,1,0
144,216,83100,1,0
224,240,83281,1,0
304,240,83463,1,0
384,216,83645,5,0
256,120,84009,1,0
128,216,84372,1,0
128,216,84554,1,0
256,192,84918,5,4
256,192,85281,1,0
256,192,85463,1,4
256,192,85645,12,0,87100
