osu file format v7

[General]
AudioFilename: Kimi no Shiranai Monogatari.mp3
AudioLeadIn: 1015
PreviewTime: 54162
Countdown: 1
SampleSet: Soft
StackLeniency: 0.7
Mode: 0
LetterboxInBreaks: 1
SkinPreference:Default

[Editor]
Bookmarks: -1019
DistanceSpacing: 1
BeatDivisor: 4
GridSize: 8

[Metadata]
Title:Kimi no Shiranai Monogatari (TV Size)
Artist:supercell
Creator:Ichigo-Sora
Version:Normal
Source:Bakemonogatari
Tags:ending animask nagi youngdow

[Difficulty]
HPDrainRate:6
CircleSize:4
OverallDifficulty:5
SliderMultiplier:1
SliderTickRate:1

[Events]
//Background and Video events
0,0,"edhitagi.jpg"
//Break Periods
//Storyboard Layer 0 (Background)
Sprite,Background,TopLeft,"effect.jpg",0,0 L,56352,40 F,0,0,726,1,0
//Storyboard Layer 1 (Fail)
//Storyboard Layer 2 (Pass)
//Storyboard Layer 3 (Foreground)
Sprite,Foreground,Centre,"white.jpg",320,240 F,0,12716,12807,0,0.8089598 F,0,12807,13080,0.8089598,0
Sprite,Foreground,Centre,"white.jpg",320,240 F,0,54898,54989,0,0.61952 F,0,54989,55170,0.61952,0 F,0,55170,56170,0 F,0,56170,56261,0,0.9378135 F,0,56261,56443,0.9378135,0.38144 F,0,56443,56716,0.38144,0
Sprite,Foreground,TopLeft,"lyric\04.png",320,240 M,0,30049,,2,32 F,0,30049,30170,0,1 F,0,30170,32716,1 F,0,32716,32837,1,0
Sprite,Foreground,TopLeft,"lyric\07.png",320,240 F,0,44231,44352,0,1 M,0,44261,,2,32 F,0,44352,49807,1 F,0,49807,49928,1,0
Sprite,Foreground,TopLeft,"lyric\12.png",320,240 M,0,71867,,2,32 F,0,71867,71989,1 F,0,71989,77443,1 F,0,77443,77564,1,0
Sprite,Foreground,TopLeft,"lyric\13.png",320,240 M,0,77686,,2,32 F,0,77686,77807,0,1 F,0,77807,87261,1,0.9917355 F,0,87261,87989,0.9917355,0
Sprite,Foreground,TopLeft,"lyric\03.png",320,240 M,0,24231,,2,32 F,0,24231,24352,0,1 F,0,24352,29807,1 F,0,29807,29928,1,0
Sprite,Foreground,TopLeft,"lyric\10a.png",320,240 M,0,64231,,2,32 F,0,64231,64352,0,1 F,0,64352,68716,1 F,0,68716,68837,1,0
Sprite,Foreground,TopLeft,"lyric\11.png",320,240 M,0,68958,,2,32 F,0,68958,69080,0,1 F,0,69080,71625,1,0.942623 F,0,71625,71746,0.942623,0
Sprite,Foreground,TopLeft,"lyric\08.png",320,240 M,0,50534,,2,32 S,0,50534,,0.8259201 F,0,50534,50655,0,1 F,0,50655,56837,1 F,0,56837,57322,1 F,0,57322,57443,1,0
Sprite,Foreground,TopLeft,"lyric\01.png",320,240 M,0,18443,,2,32 F,0,18443,18534,0,1 F,0,18534,21080,1 F,0,21080,21201,1,0
Sprite,Foreground,TopLeft,"lyric\05.png",320,240 M,0,32716,,2,32 F,0,32716,32837,0,1 F,0,32837,35625,1 F,0,35625,35746,1,0
Sprite,Foreground,TopLeft,"lyric\09.png",320,240 M,0,57443,,2,32 F,0,57443,57564,0,1 F,0,57564,64231,1 F,0,64231,64352,1,0
Sprite,Foreground,TopLeft,"lyric\06.png",320,240 M,0,35867,,2,32 F,0,35867,35989,0,1 F,0,35989,43867,1 F,0,43867,43989,1,0
Sprite,Foreground,TopLeft,"lyric\02.png",320,240 M,0,21080,,2,32 F,0,21080,21201,0,1 F,0,21201,23989,1 F,0,23989,24110,1,0
//Storyboard Sound Samples
//Storyboard Sound Samples
//Background Colour Transformations
3,100,0,0,0

[TimingPoints]
1080,363.636363636364,4,2,2,100,1,0
16977,-100,4,1,2,11,0,0
17341,-100,4,1,2,29,0,0
17614,-100,4,1,2,46,0,0
17887,-100,4,1,2,64,0,0
18159,-100,4,1,2,79,0,0
18250,-100,4,2,2,100,0,0
41887,-100,4,1,2,10,0,0
42250,-100,4,1,2,20,0,0
42438,-100,4,1,2,29,0,0
42796,-100,4,1,2,39,0,0
43068,-100,4,1,2,49,0,0
43341,-100,4,1,2,61,0,0
43614,-100,4,1,2,70,0,0
43796,-100,4,1,2,79,0,0
44432,-100,4,2,2,100,0,0
48068,-100,4,2,2,80,0,0
48250,-100,4,2,2,100,0,0
49523,-100,4,2,2,81,0,0
49705,-100,4,2,2,100,0,0
54614,-100,4,1,2,21,0,0
55068,-100,4,1,2,44,0,0
55432,-100,4,1,2,62,0,0
55887,-100,4,1,2,80,0,0
56170,-100,4,1,2,80,0,1
79261,-100,4,1,2,19,0,1
80261,-100,4,1,2,33,0,1
80989,-100,4,1,2,49,0,1
81719,-100,4,1,2,59,0,1
82443,-100,4,1,2,81,0,1
85705,-100,4,1,2,70,0,1
85887,-100,4,1,2,60,0,1
86159,-100,4,1,2,50,0,1
86432,-100,4,1,2,41,0,1
86705,-100,4,1,2,30,0,1
86977,-100,4,1,2,20,0,1
87341,-100,4,1,2,10,0,1
87887,-100,4,1,2,0,0,1
88736,-100,4,2,2,0,0,0

[Colours]
Combo1 : 128,128,192
Combo2 : 255,0,128
Combo3 : 0,128,255
Combo4 : 164,0,82

[HitObjects]
80,88,1079,1,4
184,88,1443,1,0
288,88,1807,1,2
448,192,2534,6,0,B|392:240|344:176,3,100,0|0|2|0
280,256,3989,5,0
184,256,4352,1,0
88,256,4716,1,2
160,80,5443,5,2
264,80,5807,1,2
216,168,6170,1,2
320,168,6534,1,2
376,80,6898,5,4
424,168,7261,1,0
376,248,7625,1,0
272,248,7989,1,0
272,248,8352,2,0,B|224:208|168:256,2,100,0|0|2
160,96,9807,6,0,B|160:256,1,150,4|4
264,248,10716,2,0,B|384:248,1,100,0|0
456,208,11443,2,0,B|456:104,1,100,0|2
456,208,12170,1,4
336,104,12716,6,0,B|248:48|192:352|96:240,1,300,4|0
120,160,14170,1,2
224,56,14716,1,2
328,160,15261,1,2
312,256,15625,2,0,B|312:200|120:312|128:216,1,200,2|0
40,192,16716,5,0
88,192,16898,1,0
184,192,17261,2,0,B|256:192,7,50,0|0|0|0|0|0|0|4
400,80,19261,5,0
256,216,19989,1,0
144,312,20534,1,0
144,208,20898,1,0
144,208,21261,6,0,B|144:136,1,50,0|0
144,56,21807,1,0
224,112,22170,1,0
224,216,22534,1,0
224,216,22716,1,0
224,216,22898,1,0
256,176,23080,1,0
288,136,23261,1,0
312,96,23443,2,0,B|424:96,1,100,0|2
312,200,24352,6,0,B|360:264|296:304,3,100
232,240,25807,2,0,B|184:176|248:136,2,100,0|0|2
64,128,27261,2,0,B|256:40|456:128,1,400
56,56,30170,5,4
160,56,30534,1,0
256,56,30898,1,0
456,112,31625,5,0
456,216,31989,1,0
456,312,32352,1,2
264,256,33080,6,0,B|152:256,3,100
88,192,34534,1,0
88,88,34898,1,0
136,88,35080,1,0
232,88,35443,1,0
384,88,35989,6,0,B|384:296,1,200
184,288,37443,2,0,B|184:80,1,200
40,232,38898,6,0,B|248:232,1,200
408,128,40352,2,0,B|192:128,1,200
256,320,41807,5,4
256,224,42170,2,0,B|256:152,11,50
376,88,44716,5,4
176,88,45443,1,8
80,264,46170,1,0
280,264,46898,1,8
440,144,47625,5,0
336,144,47989,1,0
232,144,48352,1,8
128,144,48716,1,0
336,144,49443,1,0
296,56,49807,1,8
96,40,50534,6,0,B|24:192|120:336,1,300,4|0
184,256,51989,2,0,B|280:312|376:256,1,200
256,192,53443,12,0,54898
56,56,55443,5,0
128,120,55807,1,0
200,192,56170,2,0,B|264:184|312:336|432:312,1,250
440,224,57443,5,0
440,120,57807,1,0
352,80,58170,1,0
304,80,58352,1,0
200,80,58716,1,0
136,160,59079,2,0,B|408:160,1,250
464,104,60352,6,0,B|464:224,1,100
400,280,61079,1,0
352,296,61261,2,0,B|240:296,1,100
104,296,62170,2,0,B|104:240|288:160|240:24,1,300
344,48,63625,1,0
448,48,63989,1,0
424,152,64352,6,4,B|352:240,1,100
264,240,65079,2,0,B|328:160,1,100,4|0
360,120,65625,1,2
392,80,65807,1,2
232,80,66352,5,0
184,80,66534,1,0
48,136,67079,1,0
48,184,67261,1,0
152,184,67625,1,0
200,184,67807,2,0,B|464:184,1,250
400,272,69079,5,0
320,320,69443,1,0
240,272,69807,1,0
240,224,69989,1,0
240,128,70352,1,0
152,176,70716,2,0,B|88:112|16:176,1,150
80,256,71625,1,2
184,256,71989,5,0
232,256,72170,1,0
280,256,72352,2,0,B|384:256,1,100
408,216,72898,1,0
408,120,73261,2,0,B|248:120,1,150
160,120,74170,5,0
56,120,74534,1,2
56,224,74898,2,0,B|176:224,1,100
256,224,75625,1,0
304,224,75807,1,0
352,224,75989,1,0
448,224,76352,2,0,B|448:336,1,100
344,328,77080,1,0
248,328,77443,1,8
144,328,77807,6,0,B|40:328,1,100
248,328,78898,2,0,B|248:216,2,100,0|0|4
344,304,79989,5,0
432,248,80352,1,0
432,144,80716,1,2
368,64,81079,1,0
272,40,81443,1,0
176,64,81807,1,0
112,144,82170,1,2
136,240,82534,1,0
224,296,82898,1,0
320,296,83261,1,4
352,200,83625,6,0,B|248:200,1,100
152,200,84352,2,0,B|152:144,1,50
248,112,84898,1,0
256,192,85443,12,0,88716
