osu file format v7

[General]
AudioFilename: Kimi no Shiranai Monogatari.mp3
AudioLeadIn: 1000
PreviewTime: 54162
Countdown: 1
SampleSet: Soft
StackLeniency: 0.7
Mode: 0
LetterboxInBreaks: 1

[Editor]
DistanceSpacing: 0.800000011920929
BeatDivisor: 4
GridSize: 8

[Metadata]
Title:Kimi no Shiranai Monogatari (TV Size)
Artist:supercell
Creator:Ichigo-Sora
Version:Hard
Source:Bakemonogatari
Tags:tv size ending animask nagi youngdow

[Difficulty]
HPDrainRate:6
CircleSize:5
OverallDifficulty:6
SliderMultiplier:1.4
SliderTickRate:1

[Events]
//Background and Video events
0,0,"edhitagi.jpg"
//Break Periods
//Storyboard Layer 0 (Background)
//Storyboard Layer 1 (Fail)
//Storyboard Layer 2 (Pass)
//Storyboard Layer 3 (Foreground)
//Storyboard Sound Samples
//Background Colour Transformations
3,100,0,0,0

[TimingPoints]
1080,363.636363636364,4,2,2,100,1,0
18443,-100,4,2,2,81,0,0
30080,-100,4,2,2,100,0,0
41887,-100,4,1,2,20,0,0
42305,-100,4,1,2,30,0,0
42705,-100,4,1,2,39,0,0
42977,-100,4,1,2,50,0,0
43341,-100,4,1,2,60,0,0
43705,-100,4,1,2,70,0,0
44432,-100,4,2,2,100,0,0
50250,-100,4,1,2,30,0,0
51705,-100,4,1,2,51,0,0
53159,-100,4,1,2,59,0,0
54250,-100,4,1,2,10,0,0
54977,-100,4,1,2,31,0,0
55523,-100,4,1,2,55,0,0
56170,-100,4,1,2,55,0,1
85614,-100,4,1,2,79,0,0
85887,-100,4,1,2,79,0,0
86159,-100,4,1,2,70,0,0
86432,-100,4,1,2,59,0,0
86705,-100,4,1,2,44,0,0
86977,-100,4,1,2,38,0,0
87250,-100,4,1,2,29,0,0
87523,-100,4,1,2,18,0,0
87796,-100,4,1,2,9,0,0
88068,-100,4,1,2,0,0,0
88736,-100,4,2,0,0,0,0

[Colours]
Combo1 : 128,128,192
Combo2 : 255,0,128
Combo3 : 0,128,255
Combo4 : 164,0,82

[HitObjects]
32,192,1079,1,0
144,192,1443,1,0
144,304,1807,1,2
256,304,2170,1,0
256,192,2534,5,0
256,80,2898,1,0
368,80,3261,1,2
368,192,3625,1,0
256,192,3989,5,0
152,152,4352,1,0
48,192,4716,1,2
152,232,5080,1,0
256,280,5443,5,2
360,320,5807,1,2
464,280,6170,1,2
360,240,6534,1,2
368,128,6898,5,4
288,56,7261,1,0
264,168,7625,1,2
192,80,7989,1,0
160,184,8352,5,0
80,104,8716,1,0
56,216,9079,1,2
144,280,9443,1,0
232,216,9807,6,0,L|232:312,2,70
280,184,10352,1,0
376,248,10716,1,0
336,280,10898,1,0
296,240,11079,1,2
304,128,11443,1,0
264,88,11625,1,0
224,128,11807,1,4
224,240,12170,1,4
64,192,12716,1,4
72,192,14170,5,2
72,24,14716,1,2
224,104,15261,1,2
336,104,15625,1,2
0,72,16716,5,0
32,24,16898,1,0
112,96,17261,1,0
144,48,17443,1,0
160,104,17625,1,0
192,56,17807,1,0
208,112,17989,1,0
240,64,18170,1,0
312,152,18534,5,0
312,152,18716,1,0
312,152,18898,1,0
368,152,19079,1,0
408,192,19261,1,0
368,232,19443,1,0
408,272,19625,1,2
368,312,19807,1,0
416,344,19989,1,0
320,288,20352,1,0
272,280,20534,2,0,B|296:200|96:240|120:152,1,210,0|0
168,144,21261,5,0
120,112,21443,1,0
72,144,21625,1,0
120,168,21807,1,0
120,224,21989,1,0
120,280,22170,1,0
120,336,22352,1,0
168,312,22534,1,0
216,288,22716,1,0
264,264,22898,1,0
304,232,23080,2,0,B|344:200|304:144,1,70
288,120,23443,1,2
376,48,23807,1,2
456,200,24352,6,0,B|424:136|176:280|200:168,1,280
128,96,25443,1,0
16,96,25807,2,0,B|56:104|-24:200|32:224,1,140
144,224,26534,1,2
312,224,27080,1,0
256,224,27261,6,0,B|168:152|456:136|400:24,1,280
464,40,28170,1,0
464,96,28352,1,0
464,152,28534,2,0,B|448:24|200:240|152:64,1,350
256,288,30170,6,0,B|352:152,1,140
248,112,30898,1,0
192,112,31080,1,0
144,144,31261,1,0
128,256,31625,2,0,B|64:152,2,105
240,256,32534,1,0
176,160,32898,5,0
120,160,33080,1,0
88,208,33261,1,0
56,256,33443,1,0
168,264,33807,1,0
280,264,34170,1,0
392,264,34534,1,0
448,264,34716,1,0
464,208,34898,1,0
480,152,35080,1,0
480,40,35443,1,2
304,32,35989,6,0,B|304:320,1,280
88,272,37443,2,0,B|400:272,1,280
216,104,38898,2,0,B|56:104,2,140,0|0|0
280,192,39989,1,0
344,280,40352,2,0,B|496:280,2,140
120,280,41807,1,0
192,192,42170,5,0
232,152,42352,1,0
224,96,42534,1,0
184,64,42716,1,0
136,64,42898,1,0
96,104,43079,1,0
104,160,43261,1,0
152,192,43443,1,0
168,136,43625,1,0
168,136,43807,1,0
168,136,43989,1,0
168,136,44170,1,0
168,136,44352,1,0
280,128,44716,5,4
328,224,45079,1,0
280,320,45443,1,2
216,224,45807,1,0
440,192,46534,5,0
368,112,46898,1,2
288,192,47261,1,0
368,272,47625,2,0,B|336:216|408:208|352:136,1,140
248,96,48352,1,0
136,96,48716,1,2
24,288,49443,1,0
136,288,49807,1,2
336,192,50534,5,0
232,152,50898,2,0,B|232:64,1,70,2|0
176,80,51261,2,0,B|176:168,1,70,2|2
176,208,51625,1,2
96,288,51989,1,0
208,280,52352,2,0,B|288:280,1,70,2|0
304,232,52716,2,0,B|384:232,1,70,2|2
400,184,53079,1,2
400,296,53443,1,4
144,240,54534,5,2
88,248,54716,1,2
64,200,54898,1,2
128,112,55261,1,2
184,104,55443,1,2
256,192,55807,1,2
256,192,56170,12,0,57079
64,96,57443,5,0
64,208,57807,1,0
176,208,58170,1,0
176,208,58352,1,0
176,320,58716,1,0
176,208,59079,2,0,B|224:128|440:120|520:224,1,350
392,240,60352,5,0
280,240,60716,1,0
192,168,61079,1,0
192,112,61261,1,0
80,112,61625,1,0
72,280,62170,5,0
128,280,62352,1,0
184,280,62534,1,0
240,280,62716,1,0
240,224,62898,2,0,B|400:224,3,140
384,112,64352,5,4
328,208,64716,1,0
440,208,65079,1,4
384,48,65625,1,2
384,104,65807,1,2
256,208,66352,5,0
200,208,66534,1,0
40,160,67079,1,0
96,160,67261,1,0
200,120,67625,1,0
144,120,67807,1,0
144,64,67989,2,0,L|304:64,2,140,4|0|0
88,232,69079,5,0
32,328,69443,1,0
144,328,69807,1,0
120,280,69989,1,0
56,184,70352,1,0
56,72,70716,2,2,B|128:-40|376:400|488:240,1,490
384,184,72352,5,0
296,112,72716,1,0
256,80,72898,1,0
144,80,73261,1,0
32,80,73625,2,0,B|32:176,1,70
48,200,73989,1,0
96,232,74170,1,0
152,232,74352,1,0
200,200,74534,1,2
312,200,74898,5,0
216,144,75261,2,0,B|296:-8|472:80,1,280
456,184,76352,1,0
368,256,76716,2,0,B|296:312|224:224,2,140,0|0|2
312,160,77807,5,0
368,256,78170,2,0,B|384:176|176:128|232:24,1,280
120,56,79261,1,0
152,160,79625,5,2
264,160,79989,1,0
376,160,80352,1,2
480,200,80716,5,0
440,240,80898,1,0
392,272,81079,1,2
336,280,81261,1,0
280,264,81443,1,0
232,232,81625,1,0
192,192,81807,1,2
168,144,81989,1,0
168,88,82170,1,0
192,40,82352,1,0
224,80,82534,5,2
216,136,82716,1,0
240,184,82898,1,0
288,216,83079,1,0
344,224,83261,2,4,B|424:248|464:144,1,140,4|0
456,48,83989,5,0
344,48,84352,1,0
344,104,84534,1,0
232,104,84898,1,0
256,192,85443,12,0,88534
