osu file format v12

[General]
AudioFilename: Kimi no Shiranai Monogatari.ogg
AudioLeadIn: 2
PreviewTime: 54031
Countdown: 0
SampleSet: Soft
StackLeniency: 0.7
Mode: 3
LetterboxInBreaks: 0
SpecialStyle: 0
WidescreenStoryboard: 0

[Editor]
DistanceSpacing: 0.8
BeatDivisor: 4
GridSize: 8

[Metadata]
Title:Kimi no Shiranai Monogatari (TV Size)
TitleUnicode:Kimi no Shiranai Monogatari (TV Size)
Artist:supercell
ArtistUnicode:supercell
Creator:-DanteMayCry-
Version:7K Insane
Source:Bakemonogatari
Tags:Supercell YoCheck Simple_Star
BeatmapID:331467
BeatmapSetID:120379

[Difficulty]
HPDrainRate:8
CircleSize:7
OverallDifficulty:8
ApproachRate:10
SliderMultiplier:1.4
SliderTickRate:1

[Events]
//Background and Video events
0,0,"background.jpg",0,0
//Break Periods
//Storyboard Layer 0 (Background)
//Storyboard Layer 1 (Fail)
//Storyboard Layer 2 (Pass)
//Storyboard Layer 3 (Foreground)
//Storyboard Sound Samples
//Background Colour Transformations
3,100,163,162,255

[TimingPoints]
577,363.6364,4,2,0,35,1,0
55849,-100,4,2,0,35,0,1
84940,-100,4,2,0,35,0,0

[HitObjects]
36,192,577,128,0,2031:0:0:0:0:
475,192,577,128,0,940:0:0:0:0:
402,192,577,1,0,0:0:0:0:
109,192,940,128,0,1304:0:0:0:0:
182,192,940,1,0,0:0:0:0:
256,192,1031,1,0,0:0:0:0:
329,192,1122,1,0,0:0:0:0:
475,192,1304,128,0,1667:0:0:0:0:
402,192,1304,1,0,0:0:0:0:
329,192,1395,1,0,0:0:0:0:
256,192,1486,1,0,0:0:0:0:
109,192,1667,128,0,2031:0:0:0:0:
182,192,1667,1,0,0:0:0:0:
402,192,1758,1,0,0:0:0:0:
329,192,1849,1,0,0:0:0:0:
256,192,2031,1,0,0:0:0:0:
475,192,2031,128,0,3486:0:0:0:0:
182,192,2031,128,0,2395:0:0:0:0:
402,192,2122,1,0,0:0:0:0:
329,192,2213,1,0,0:0:0:0:
256,192,2395,128,0,2758:0:0:0:0:
402,192,2395,1,0,0:0:0:0:
36,192,2486,1,0,0:0:0:0:
109,192,2577,1,0,0:0:0:0:
402,192,2758,1,0,0:0:0:0:
182,192,2758,128,0,3122:0:0:0:0:
109,192,2849,1,0,0:0:0:0:
36,192,2940,1,0,0:0:0:0:
256,192,3122,1,0,0:0:0:0:
109,192,3122,128,0,3486:0:0:0:0:
329,192,3213,1,0,0:0:0:0:
402,192,3304,1,0,0:0:0:0:
182,192,3486,1,0,0:0:0:0:
36,192,3486,128,0,4940:0:0:0:0:
402,192,3486,128,0,3849:0:0:0:0:
256,192,3577,1,0,0:0:0:0:
329,192,3667,1,0,0:0:0:0:
109,192,3849,1,0,0:0:0:0:
329,192,3849,128,0,4213:0:0:0:0:
182,192,3940,1,0,0:0:0:0:
256,192,4031,1,0,0:0:0:0:
256,192,4213,128,0,4577:0:0:0:0:
182,192,4213,1,0,0:0:0:0:
475,192,4304,1,0,0:0:0:0:
402,192,4395,1,0,0:0:0:0:
182,192,4577,128,0,4940:0:0:0:0:
329,192,4577,1,0,0:0:0:0:
475,192,4667,1,0,0:0:0:0:
402,192,4758,1,0,0:0:0:0:
475,192,4940,128,0,5304:0:0:0:0:
402,192,4940,128,0,6395:0:0:0:0:
329,192,4940,1,0,0:0:0:0:
256,192,5213,1,0,0:0:0:0:
329,192,5304,1,0,0:0:0:0:
36,192,5304,128,0,5667:0:0:0:0:
182,192,5395,1,0,0:0:0:0:
256,192,5486,1,0,0:0:0:0:
329,192,5667,128,0,6031:0:0:0:0:
109,192,5667,1,0,0:0:0:0:
36,192,5849,1,0,0:0:0:0:
109,192,5940,1,0,0:0:0:0:
182,192,6031,128,0,6395:0:0:0:0:
475,192,6395,1,0,0:0:0:0:
256,192,6395,128,0,7849:0:0:0:0:
36,192,6395,128,0,6758:0:0:0:0:
109,192,6577,1,0,0:0:0:0:
402,192,6758,128,0,7122:0:0:0:0:
182,192,6758,1,0,0:0:0:0:
329,192,6940,1,0,0:0:0:0:
182,192,7122,128,0,7486:0:0:0:0:
109,192,7122,1,0,0:0:0:0:
475,192,7122,1,0,0:0:0:0:
329,192,7304,1,0,0:0:0:0:
475,192,7486,128,0,7849:0:0:0:0:
36,192,7486,1,0,0:0:0:0:
402,192,7577,1,0,0:0:0:0:
329,192,7667,1,0,0:0:0:0:
182,192,7849,1,0,0:0:0:0:
329,192,7849,128,0,8213:0:0:0:0:
36,192,7849,128,0,9304:0:0:0:0:
402,192,8031,1,0,0:0:0:0:
109,192,8213,128,0,8577:0:0:0:0:
256,192,8213,1,0,0:0:0:0:
475,192,8304,1,0,0:0:0:0:
402,192,8395,1,0,0:0:0:0:
182,192,8577,1,0,0:0:0:0:
475,192,8577,128,0,8940:0:0:0:0:
256,192,8667,1,0,0:0:0:0:
329,192,8758,1,0,0:0:0:0:
109,192,8940,128,0,9304:0:0:0:0:
182,192,8940,1,0,0:0:0:0:
256,192,9031,1,0,0:0:0:0:
475,192,9304,128,0,10577:0:0:0:0:
109,192,9486,1,0,0:0:0:0:
256,192,9577,1,0,0:0:0:0:
402,192,9667,1,0,0:0:0:0:
36,192,9849,128,0,10213:0:0:0:0:
109,192,10213,1,0,0:0:0:0:
256,192,10213,1,0,0:0:0:0:
182,192,10395,1,0,0:0:0:0:
329,192,10395,1,0,0:0:0:0:
256,192,10577,1,0,0:0:0:0:
402,192,10577,128,0,10940:0:0:0:0:
36,192,10577,128,0,11304:0:0:0:0:
109,192,10577,1,0,0:0:0:0:
329,192,10940,1,0,0:0:0:0:
256,192,11031,1,0,0:0:0:0:
182,192,11122,1,0,0:0:0:0:
109,192,11122,1,0,0:0:0:0:
475,192,11304,1,0,0:0:0:0:
329,192,11304,1,0,0:0:0:0:
402,192,11667,1,0,0:0:0:0:
256,192,11667,1,0,0:0:0:0:
109,192,11667,1,0,0:0:0:0:
475,192,12213,1,0,0:0:0:0:
36,192,12213,1,0,0:0:0:0:
256,192,12213,128,0,13667:0:0:0:0:
109,192,12395,1,0,0:0:0:0:
182,192,12577,1,0,0:0:0:0:
402,192,12577,1,0,0:0:0:0:
36,192,12758,1,0,0:0:0:0:
182,192,12940,1,0,0:0:0:0:
329,192,13122,1,0,0:0:0:0:
475,192,13304,1,0,0:0:0:0:
109,192,13304,1,0,0:0:0:0:
182,192,13486,1,0,0:0:0:0:
329,192,13667,1,0,0:0:0:0:
36,192,13667,1,0,0:0:0:0:
475,192,13667,128,0,15122:0:0:0:0:
109,192,13849,1,0,0:0:0:0:
182,192,14031,1,0,0:0:0:0:
402,192,14031,1,0,0:0:0:0:
256,192,14213,1,0,0:0:0:0:
109,192,14213,128,0,14758:0:0:0:0:
329,192,14213,1,0,0:0:0:0:
36,192,14395,1,0,0:0:0:0:
329,192,14577,1,0,0:0:0:0:
402,192,14758,1,0,0:0:0:0:
256,192,14758,128,0,15122:0:0:0:0:
182,192,14758,1,0,0:0:0:0:
36,192,14940,1,0,0:0:0:0:
109,192,15122,1,0,0:0:0:0:
329,192,15122,1,0,0:0:0:0:
402,192,15122,128,0,16577:0:0:0:0:
182,192,15304,1,0,0:0:0:0:
256,192,15486,1,0,0:0:0:0:
36,192,15486,1,0,0:0:0:0:
109,192,15577,1,0,0:0:0:0:
182,192,15667,1,0,0:0:0:0:
475,192,15849,1,0,0:0:0:0:
329,192,16031,1,0,0:0:0:0:
36,192,16213,1,0,0:0:0:0:
182,192,16213,1,0,0:0:0:0:
256,192,16395,1,0,0:0:0:0:
109,192,16395,1,0,0:0:0:0:
109,192,16758,1,0,0:0:0:0:
256,192,16758,1,0,0:0:0:0:
402,192,16758,1,0,0:0:0:0:
402,192,16940,1,0,0:0:0:0:
109,192,16940,1,0,0:0:0:0:
256,192,16940,1,0,0:0:0:0:
109,192,17122,1,0,0:0:0:0:
256,192,17122,1,0,0:0:0:0:
402,192,17122,1,0,0:0:0:0:
36,192,17304,1,0,0:0:0:0:
256,192,17304,1,0,0:0:0:0:
475,192,17304,1,0,0:0:0:0:
475,192,17486,1,0,0:0:0:0:
36,192,17486,1,0,0:0:0:0:
256,192,17486,1,0,0:0:0:0:
475,192,17667,1,0,0:0:0:0:
256,192,17667,1,0,0:0:0:0:
36,192,17667,1,0,0:0:0:0:
109,192,17849,1,0,0:0:0:0:
256,192,17849,1,0,0:0:0:0:
402,192,17849,1,0,0:0:0:0:
182,192,18031,1,0,0:0:0:0:
36,192,18031,128,0,19486:0:0:0:0:
256,192,18213,1,0,0:0:0:0:
475,192,18395,1,0,0:0:0:0:
329,192,18577,1,0,0:0:0:0:
109,192,18758,1,0,0:0:0:0:
256,192,18940,1,0,0:0:0:0:
402,192,19122,1,0,0:0:0:0:
109,192,19304,1,0,0:0:0:0:
182,192,19486,128,0,19849:0:0:0:0:
475,192,19486,128,0,20940:0:0:0:0:
36,192,19667,1,0,0:0:0:0:
256,192,19849,128,0,20031:0:0:0:0:
109,192,19849,1,0,0:0:0:0:
329,192,20031,128,0,20395:0:0:0:0:
182,192,20031,1,0,0:0:0:0:
256,192,20213,1,0,0:0:0:0:
402,192,20395,128,0,20577:0:0:0:0:
182,192,20395,1,0,0:0:0:0:
109,192,20577,1,0,0:0:0:0:
36,192,20758,1,0,0:0:0:0:
256,192,20940,1,0,0:0:0:0:
182,192,20940,128,0,22395:0:0:0:0:
329,192,20940,1,0,0:0:0:0:
109,192,21122,1,0,0:0:0:0:
36,192,21304,1,0,0:0:0:0:
329,192,21486,1,0,0:0:0:0:
402,192,21667,1,0,0:0:0:0:
475,192,21849,1,0,0:0:0:0:
36,192,22031,1,0,0:0:0:0:
402,192,22213,1,0,0:0:0:0:
475,192,22395,1,0,0:0:0:0:
109,192,22395,128,0,23849:0:0:0:0:
256,192,22395,128,0,22577:0:0:0:0:
329,192,22577,128,0,22758:0:0:0:0:
36,192,22758,1,0,0:0:0:0:
402,192,22758,128,0,22940:0:0:0:0:
475,192,22940,128,0,23304:0:0:0:0:
256,192,23304,1,0,0:0:0:0:
402,192,23304,128,0,23486:0:0:0:0:
329,192,23486,1,0,0:0:0:0:
402,192,23667,1,0,0:0:0:0:
182,192,23849,1,0,0:0:0:0:
475,192,23849,1,0,0:0:0:0:
36,192,23849,128,0,25304:0:0:0:0:
256,192,23849,128,0,24577:0:0:0:0:
402,192,24031,1,0,0:0:0:0:
329,192,24213,1,0,0:0:0:0:
402,192,24395,1,0,0:0:0:0:
329,192,24577,128,0,25304:0:0:0:0:
475,192,24577,1,0,0:0:0:0:
402,192,24758,1,0,0:0:0:0:
182,192,24940,1,0,0:0:0:0:
109,192,25122,1,0,0:0:0:0:
402,192,25304,128,0,26031:0:0:0:0:
256,192,25304,128,0,26758:0:0:0:0:
475,192,25304,1,0,0:0:0:0:
182,192,25486,1,0,0:0:0:0:
36,192,25667,1,0,0:0:0:0:
182,192,25849,1,0,0:0:0:0:
475,192,26031,128,0,26213:0:0:0:0:
36,192,26031,1,0,0:0:0:0:
109,192,26213,1,0,0:0:0:0:
182,192,26395,1,0,0:0:0:0:
475,192,26577,1,0,0:0:0:0:
329,192,26758,1,0,0:0:0:0:
109,192,26758,1,0,0:0:0:0:
36,192,26758,128,0,28213:0:0:0:0:
402,192,26758,128,0,27667:0:0:0:0:
182,192,26940,1,0,0:0:0:0:
329,192,27122,1,0,0:0:0:0:
109,192,27304,1,0,0:0:0:0:
256,192,27486,1,0,0:0:0:0:
329,192,27667,128,0,27849:0:0:0:0:
182,192,27667,1,0,0:0:0:0:
256,192,27849,128,0,28031:0:0:0:0:
109,192,27849,1,0,0:0:0:0:
182,192,28031,128,0,28940:0:0:0:0:
475,192,28031,1,0,0:0:0:0:
329,192,28213,128,0,29667:0:0:0:0:
109,192,28213,1,0,0:0:0:0:
402,192,28395,1,0,0:0:0:0:
475,192,28577,1,0,0:0:0:0:
402,192,28758,1,0,0:0:0:0:
256,192,28940,1,0,0:0:0:0:
36,192,29122,1,0,0:0:0:0:
109,192,29304,1,0,0:0:0:0:
182,192,29486,1,0,0:0:0:0:
402,192,29667,128,0,30031:0:0:0:0:
256,192,29667,1,0,0:0:0:0:
475,192,29667,1,0,0:0:0:0:
36,192,29667,1,0,0:0:0:0:
109,192,29849,1,0,0:0:0:0:
475,192,30031,128,0,30395:0:0:0:0:
182,192,30031,1,0,0:0:0:0:
329,192,30031,1,0,0:0:0:0:
36,192,30213,1,0,0:0:0:0:
402,192,30395,128,0,30758:0:0:0:0:
109,192,30395,1,0,0:0:0:0:
256,192,30395,1,0,0:0:0:0:
182,192,30577,1,0,0:0:0:0:
256,192,30758,128,0,31122:0:0:0:0:
36,192,30758,1,0,0:0:0:0:
329,192,30758,1,0,0:0:0:0:
182,192,30940,1,0,0:0:0:0:
109,192,31122,1,0,0:0:0:0:
36,192,31122,128,0,31486:0:0:0:0:
402,192,31122,1,0,0:0:0:0:
182,192,31304,1,0,0:0:0:0:
475,192,31486,128,0,31849:0:0:0:0:
256,192,31486,1,0,0:0:0:0:
402,192,31486,1,0,0:0:0:0:
109,192,31667,1,0,0:0:0:0:
182,192,31849,128,0,32213:0:0:0:0:
256,192,31849,1,0,0:0:0:0:
402,192,31849,1,0,0:0:0:0:
329,192,32031,1,0,0:0:0:0:
402,192,32213,128,0,32577:0:0:0:0:
109,192,32213,1,0,0:0:0:0:
36,192,32213,1,0,0:0:0:0:
256,192,32395,1,0,0:0:0:0:
329,192,32577,1,0,0:0:0:0:
475,192,32577,1,0,0:0:0:0:
36,192,32577,128,0,32940:0:0:0:0:
109,192,32758,1,0,0:0:0:0:
256,192,32940,128,0,33304:0:0:0:0:
182,192,32940,1,0,0:0:0:0:
402,192,32940,1,0,0:0:0:0:
329,192,33122,1,0,0:0:0:0:
475,192,33304,128,0,33667:0:0:0:0:
36,192,33304,1,0,0:0:0:0:
109,192,33304,1,0,0:0:0:0:
402,192,33486,1,0,0:0:0:0:
109,192,33667,128,0,34031:0:0:0:0:
182,192,33667,1,0,0:0:0:0:
256,192,33667,1,0,0:0:0:0:
329,192,33849,1,0,0:0:0:0:
36,192,34031,1,0,0:0:0:0:
256,192,34031,1,0,0:0:0:0:
402,192,34031,128,0,34395:0:0:0:0:
182,192,34213,1,0,0:0:0:0:
36,192,34395,1,0,0:0:0:0:
109,192,34395,1,0,0:0:0:0:
475,192,34395,128,0,34758:0:0:0:0:
256,192,34577,1,0,0:0:0:0:
182,192,34758,128,0,35122:0:0:0:0:
329,192,34758,1,0,0:0:0:0:
36,192,34758,1,0,0:0:0:0:
256,192,34940,1,0,0:0:0:0:
109,192,35122,128,0,35486:0:0:0:0:
402,192,35122,1,0,0:0:0:0:
36,192,35122,1,0,0:0:0:0:
329,192,35304,1,0,0:0:0:0:
256,192,35486,1,0,0:0:0:0:
475,192,35486,1,0,0:0:0:0:
402,192,35486,128,0,36213:0:0:0:0:
36,192,35667,1,0,0:0:0:0:
182,192,35849,1,0,0:0:0:0:
329,192,35849,1,0,0:0:0:0:
109,192,36031,1,0,0:0:0:0:
182,192,36213,1,0,0:0:0:0:
256,192,36213,1,0,0:0:0:0:
329,192,36213,128,0,36940:0:0:0:0:
36,192,36395,1,0,0:0:0:0:
182,192,36577,1,0,0:0:0:0:
475,192,36577,1,0,0:0:0:0:
36,192,36758,1,0,0:0:0:0:
182,192,36940,1,0,0:0:0:0:
475,192,36940,1,0,0:0:0:0:
256,192,36940,128,0,37304:0:0:0:0:
402,192,37122,1,0,0:0:0:0:
329,192,37304,1,0,0:0:0:0:
36,192,37304,1,0,0:0:0:0:
109,192,37486,1,0,0:0:0:0:
329,192,37667,1,0,0:0:0:0:
475,192,37667,1,0,0:0:0:0:
182,192,37667,128,0,38395:0:0:0:0:
402,192,37849,1,0,0:0:0:0:
256,192,38031,1,0,0:0:0:0:
36,192,38031,1,0,0:0:0:0:
109,192,38213,1,0,0:0:0:0:
256,192,38395,128,0,39122:0:0:0:0:
329,192,38395,1,0,0:0:0:0:
475,192,38395,1,0,0:0:0:0:
402,192,38577,1,0,0:0:0:0:
109,192,38758,1,0,0:0:0:0:
36,192,38758,1,0,0:0:0:0:
475,192,38940,1,0,0:0:0:0:
402,192,39122,1,0,0:0:0:0:
182,192,39122,1,0,0:0:0:0:
329,192,39122,128,0,39849:0:0:0:0:
36,192,39304,1,0,0:0:0:0:
256,192,39486,1,0,0:0:0:0:
109,192,39486,1,0,0:0:0:0:
402,192,39667,1,0,0:0:0:0:
182,192,39849,1,0,0:0:0:0:
36,192,39849,1,0,0:0:0:0:
475,192,39849,128,0,40577:0:0:0:0:
256,192,40031,1,0,0:0:0:0:
329,192,40213,1,0,0:0:0:0:
109,192,40213,1,0,0:0:0:0:
182,192,40395,1,0,0:0:0:0:
402,192,40577,128,0,41304:0:0:0:0:
256,192,40577,1,0,0:0:0:0:
36,192,40577,1,0,0:0:0:0:
329,192,40758,1,0,0:0:0:0:
256,192,40940,1,0,0:0:0:0:
109,192,40940,1,0,0:0:0:0:
182,192,41122,1,0,0:0:0:0:
256,192,41304,1,0,0:0:0:0:
475,192,41304,1,0,0:0:0:0:
329,192,41304,128,0,43122:0:0:0:0:
256,192,41667,1,0,0:0:0:0:
475,192,41667,1,0,0:0:0:0:
109,192,41849,1,0,0:0:0:0:
402,192,41849,1,0,0:0:0:0:
256,192,42031,1,0,0:0:0:0:
475,192,42031,1,0,0:0:0:0:
109,192,42213,1,0,0:0:0:0:
402,192,42213,1,0,0:0:0:0:
256,192,42395,1,0,0:0:0:0:
475,192,42395,1,0,0:0:0:0:
109,192,42577,1,0,0:0:0:0:
402,192,42577,1,0,0:0:0:0:
256,192,42758,1,0,0:0:0:0:
475,192,42758,1,0,0:0:0:0:
109,192,42940,1,0,0:0:0:0:
402,192,42940,1,0,0:0:0:0:
256,192,43122,1,0,0:0:0:0:
475,192,43122,1,0,0:0:0:0:
109,192,43304,1,0,0:0:0:0:
402,192,43304,1,0,0:0:0:0:
256,192,43486,1,0,0:0:0:0:
475,192,43486,1,0,0:0:0:0:
109,192,43667,1,0,0:0:0:0:
402,192,43667,1,0,0:0:0:0:
256,192,43849,1,0,0:0:0:0:
475,192,43849,1,0,0:0:0:0:
109,192,44031,1,0,0:0:0:0:
256,192,44031,1,0,0:0:0:0:
256,192,44213,1,0,0:0:0:0:
402,192,44213,1,0,0:0:0:0:
475,192,44213,128,0,45667:0:0:0:0:
36,192,44213,1,0,0:0:0:0:
109,192,44395,1,0,0:0:0:0:
329,192,44577,1,0,0:0:0:0:
182,192,44577,1,0,0:0:0:0:
402,192,44758,1,0,0:0:0:0:
329,192,44940,1,0,0:0:0:0:
256,192,44940,1,0,0:0:0:0:
36,192,45122,1,0,0:0:0:0:
109,192,45304,1,0,0:0:0:0:
182,192,45304,1,0,0:0:0:0:
402,192,45486,1,0,0:0:0:0:
329,192,45577,1,0,0:0:0:0:
256,192,45667,1,0,0:0:0:0:
109,192,45667,128,0,47122:0:0:0:0:
182,192,45667,1,0,0:0:0:0:
36,192,45849,1,0,0:0:0:0:
182,192,46031,1,0,0:0:0:0:
329,192,46031,1,0,0:0:0:0:
475,192,46213,1,0,0:0:0:0:
402,192,46395,1,0,0:0:0:0:
256,192,46395,1,0,0:0:0:0:
36,192,46577,1,0,0:0:0:0:
182,192,46758,1,0,0:0:0:0:
475,192,46758,1,0,0:0:0:0:
329,192,46940,1,0,0:0:0:0:
402,192,47031,1,0,0:0:0:0:
256,192,47122,1,0,0:0:0:0:
36,192,47122,128,0,48577:0:0:0:0:
475,192,47122,1,0,0:0:0:0:
329,192,47304,1,0,0:0:0:0:
182,192,47486,1,0,0:0:0:0:
475,192,47486,1,0,0:0:0:0:
402,192,47667,1,0,0:0:0:0:
182,192,47849,1,0,0:0:0:0:
109,192,47849,1,0,0:0:0:0:
329,192,48031,1,0,0:0:0:0:
256,192,48213,1,0,0:0:0:0:
475,192,48213,1,0,0:0:0:0:
109,192,48395,1,0,0:0:0:0:
182,192,48486,1,0,0:0:0:0:
256,192,48577,1,0,0:0:0:0:
402,192,48577,1,0,0:0:0:0:
329,192,48577,128,0,50031:0:0:0:0:
109,192,48758,1,0,0:0:0:0:
182,192,48940,1,0,0:0:0:0:
475,192,48940,1,0,0:0:0:0:
36,192,49122,1,0,0:0:0:0:
109,192,49213,1,0,0:0:0:0:
256,192,49304,1,0,0:0:0:0:
402,192,49304,1,0,0:0:0:0:
182,192,49486,1,0,0:0:0:0:
36,192,49486,1,0,0:0:0:0:
109,192,49667,1,0,0:0:0:0:
475,192,49667,1,0,0:0:0:0:
36,192,49849,1,0,0:0:0:0:
109,192,50031,1,0,0:0:0:0:
182,192,50031,1,0,0:0:0:0:
256,192,50031,128,0,51486:0:0:0:0:
475,192,50213,1,0,0:0:0:0:
402,192,50395,1,0,0:0:0:0:
36,192,50395,1,0,0:0:0:0:
182,192,50577,1,0,0:0:0:0:
36,192,50758,1,0,0:0:0:0:
329,192,50758,1,0,0:0:0:0:
475,192,50940,1,0,0:0:0:0:
182,192,51122,1,0,0:0:0:0:
109,192,51122,1,0,0:0:0:0:
329,192,51304,1,0,0:0:0:0:
402,192,51486,1,0,0:0:0:0:
36,192,51486,1,0,0:0:0:0:
475,192,51486,128,0,52213:0:0:0:0:
109,192,51667,1,0,0:0:0:0:
256,192,51849,1,0,0:0:0:0:
329,192,51849,1,0,0:0:0:0:
182,192,52031,1,0,0:0:0:0:
402,192,52213,128,0,52940:0:0:0:0:
36,192,52213,1,0,0:0:0:0:
329,192,52213,1,0,0:0:0:0:
109,192,52577,1,0,0:0:0:0:
256,192,52577,1,0,0:0:0:0:
36,192,52940,1,0,0:0:0:0:
329,192,52940,128,0,53667:0:0:0:0:
475,192,52940,1,0,0:0:0:0:
182,192,53122,1,0,0:0:0:0:
256,192,53122,1,0,0:0:0:0:
36,192,53304,1,0,0:0:0:0:
256,192,53486,1,0,0:0:0:0:
182,192,53577,1,0,0:0:0:0:
36,192,53667,1,0,0:0:0:0:
109,192,53667,1,0,0:0:0:0:
475,192,53849,1,0,0:0:0:0:
256,192,53849,1,0,0:0:0:0:
402,192,54031,1,0,0:0:0:0:
182,192,54031,1,0,0:0:0:0:
329,192,54213,1,0,0:0:0:0:
109,192,54213,1,0,0:0:0:0:
475,192,54395,1,0,0:0:0:0:
256,192,54395,1,0,0:0:0:0:
36,192,54395,1,0,0:0:0:0:
402,192,55849,1,0,0:0:0:0:
109,192,55849,1,0,0:0:0:0:
36,192,55849,128,0,56395:0:0:0:0:
475,192,55849,128,0,58758:0:0:0:0:
329,192,56031,1,0,0:0:0:0:
182,192,56031,1,0,0:0:0:0:
402,192,56213,1,0,0:0:0:0:
109,192,56213,1,0,0:0:0:0:
256,192,56213,1,0,0:0:0:0:
182,192,56395,1,0,0:0:0:0:
256,192,56576,1,0,0:0:0:0:
402,192,56576,1,0,0:0:0:0:
329,192,56758,1,0,0:0:0:0:
182,192,56758,1,0,0:0:0:0:
402,192,56940,1,0,0:0:0:0:
109,192,56940,1,0,0:0:0:0:
256,192,56940,1,0,0:0:0:0:
36,192,57122,1,0,0:0:0:0:
109,192,57304,1,0,0:0:0:0:
402,192,57304,128,0,57667:0:0:0:0:
329,192,57304,1,0,0:0:0:0:
256,192,57486,1,0,0:0:0:0:
36,192,57486,1,0,0:0:0:0:
329,192,57667,128,0,57849:0:0:0:0:
182,192,57667,1,0,0:0:0:0:
109,192,57667,1,0,0:0:0:0:
36,192,57667,1,0,0:0:0:0:
256,192,57849,128,0,58213:0:0:0:0:
36,192,57849,1,0,0:0:0:0:
182,192,58031,1,0,0:0:0:0:
36,192,58213,128,0,58576:0:0:0:0:
109,192,58213,1,0,0:0:0:0:
329,192,58213,1,0,0:0:0:0:
182,192,58395,1,0,0:0:0:0:
402,192,58395,1,0,0:0:0:0:
329,192,58395,1,0,0:0:0:0:
109,192,58576,128,0,58758:0:0:0:0:
256,192,58576,1,0,0:0:0:0:
182,192,58758,128,0,59304:0:0:0:0:
402,192,58758,128,0,61667:0:0:0:0:
329,192,58758,1,0,0:0:0:0:
36,192,58940,1,0,0:0:0:0:
256,192,58940,1,0,0:0:0:0:
109,192,59122,1,0,0:0:0:0:
329,192,59122,1,0,0:0:0:0:
475,192,59122,1,0,0:0:0:0:
256,192,59304,1,0,0:0:0:0:
329,192,59486,1,0,0:0:0:0:
36,192,59486,1,0,0:0:0:0:
182,192,59667,1,0,0:0:0:0:
109,192,59667,1,0,0:0:0:0:
329,192,59849,1,0,0:0:0:0:
475,192,59849,128,0,60213:0:0:0:0:
36,192,59849,1,0,0:0:0:0:
256,192,59849,1,0,0:0:0:0:
109,192,60031,1,0,0:0:0:0:
36,192,60213,128,0,60576:0:0:0:0:
329,192,60213,1,0,0:0:0:0:
182,192,60213,1,0,0:0:0:0:
109,192,60395,1,0,0:0:0:0:
256,192,60395,1,0,0:0:0:0:
329,192,60576,128,0,60758:0:0:0:0:
475,192,60576,1,0,0:0:0:0:
182,192,60576,1,0,0:0:0:0:
256,192,60576,1,0,0:0:0:0:
109,192,60758,128,0,61122:0:0:0:0:
182,192,60758,1,0,0:0:0:0:
256,192,60940,1,0,0:0:0:0:
36,192,60940,1,0,0:0:0:0:
475,192,61122,128,0,61667:0:0:0:0:
329,192,61122,1,0,0:0:0:0:
182,192,61122,1,0,0:0:0:0:
36,192,61304,1,0,0:0:0:0:
182,192,61304,1,0,0:0:0:0:
329,192,61304,1,0,0:0:0:0:
109,192,61486,1,0,0:0:0:0:
256,192,61667,128,0,63122:0:0:0:0:
182,192,61667,1,0,0:0:0:0:
109,192,61667,128,0,63849:0:0:0:0:
329,192,61667,1,0,0:0:0:0:
36,192,61849,1,0,0:0:0:0:
182,192,62031,1,0,0:0:0:0:
329,192,62031,1,0,0:0:0:0:
36,192,62213,1,0,0:0:0:0:
182,192,62395,1,0,0:0:0:0:
36,192,62576,1,0,0:0:0:0:
182,192,62758,1,0,0:0:0:0:
329,192,62758,1,0,0:0:0:0:
36,192,62940,1,0,0:0:0:0:
475,192,63122,1,0,0:0:0:0:
402,192,63122,1,0,0:0:0:0:
475,192,63304,1,0,0:0:0:0:
475,192,63486,1,0,0:0:0:0:
182,192,63486,1,0,0:0:0:0:
329,192,63486,1,0,0:0:0:0:
256,192,63667,1,0,0:0:0:0:
329,192,63849,1,0,0:0:0:0:
402,192,63849,128,0,64213:0:0:0:0:
36,192,63849,1,0,0:0:0:0:
329,192,64213,128,0,64577:0:0:0:0:
182,192,64213,1,0,0:0:0:0:
475,192,64213,1,0,0:0:0:0:
109,192,64213,1,0,0:0:0:0:
256,192,64577,128,0,65122:0:0:0:0:
36,192,64577,1,0,0:0:0:0:
182,192,64577,1,0,0:0:0:0:
475,192,64577,128,0,65304:0:0:0:0:
109,192,64758,1,0,0:0:0:0:
402,192,64758,1,0,0:0:0:0:
182,192,64940,1,0,0:0:0:0:
329,192,64940,1,0,0:0:0:0:
36,192,64940,1,0,0:0:0:0:
402,192,65122,1,0,0:0:0:0:
329,192,65213,1,0,0:0:0:0:
36,192,65304,1,0,0:0:0:0:
402,192,65304,128,0,65486:0:0:0:0:
109,192,65304,128,0,66031:0:0:0:0:
182,192,65304,1,0,0:0:0:0:
256,192,65304,1,0,0:0:0:0:
36,192,65486,1,0,0:0:0:0:
256,192,65486,1,0,0:0:0:0:
182,192,65667,1,0,0:0:0:0:
329,192,65667,1,0,0:0:0:0:
475,192,65667,1,0,0:0:0:0:
402,192,65849,1,0,0:0:0:0:
256,192,66031,128,0,66577:0:0:0:0:
329,192,66031,1,0,0:0:0:0:
475,192,66031,128,0,66758:0:0:0:0:
182,192,66031,1,0,0:0:0:0:
36,192,66213,1,0,0:0:0:0:
402,192,66213,1,0,0:0:0:0:
109,192,66395,1,0,0:0:0:0:
402,192,66395,1,0,0:0:0:0:
182,192,66395,1,0,0:0:0:0:
182,192,66577,128,0,66758:0:0:0:0:
329,192,66577,1,0,0:0:0:0:
36,192,66758,128,0,67122:0:0:0:0:
109,192,66758,1,0,0:0:0:0:
402,192,66758,128,0,67486:0:0:0:0:
329,192,66849,1,0,0:0:0:0:
256,192,66940,1,0,0:0:0:0:
109,192,66940,1,0,0:0:0:0:
109,192,67122,128,0,67304:0:0:0:0:
182,192,67122,1,0,0:0:0:0:
475,192,67122,1,0,0:0:0:0:
256,192,67213,1,0,0:0:0:0:
329,192,67304,1,0,0:0:0:0:
475,192,67304,128,0,68031:0:0:0:0:
182,192,67486,1,0,0:0:0:0:
109,192,67486,128,0,68940:0:0:0:0:
256,192,67667,1,0,0:0:0:0:
36,192,67667,1,0,0:0:0:0:
402,192,67849,1,0,0:0:0:0:
329,192,67849,1,0,0:0:0:0:
182,192,67849,1,0,0:0:0:0:
36,192,68031,1,0,0:0:0:0:
182,192,68213,1,0,0:0:0:0:
402,192,68213,1,0,0:0:0:0:
256,192,68395,1,0,0:0:0:0:
475,192,68395,1,0,0:0:0:0:
329,192,68577,1,0,0:0:0:0:
36,192,68577,1,0,0:0:0:0:
475,192,68577,128,0,68940:0:0:0:0:
402,192,68577,1,0,0:0:0:0:
182,192,68758,1,0,0:0:0:0:
329,192,68940,1,0,0:0:0:0:
36,192,68940,128,0,70395:0:0:0:0:
256,192,68940,128,0,69304:0:0:0:0:
402,192,68940,1,0,0:0:0:0:
182,192,69122,1,0,0:0:0:0:
109,192,69122,1,0,0:0:0:0:
329,192,69304,128,0,69486:0:0:0:0:
475,192,69304,1,0,0:0:0:0:
402,192,69304,1,0,0:0:0:0:
109,192,69486,128,0,69849:0:0:0:0:
182,192,69486,1,0,0:0:0:0:
402,192,69486,1,0,0:0:0:0:
256,192,69667,1,0,0:0:0:0:
182,192,69849,128,0,70213:0:0:0:0:
329,192,69849,1,0,0:0:0:0:
475,192,69849,1,0,0:0:0:0:
402,192,70031,1,0,0:0:0:0:
475,192,70031,1,0,0:0:0:0:
256,192,70031,1,0,0:0:0:0:
256,192,70213,128,0,70940:0:0:0:0:
329,192,70213,1,0,0:0:0:0:
475,192,70395,128,0,71849:0:0:0:0:
109,192,70395,1,0,0:0:0:0:
402,192,70395,1,0,0:0:0:0:
182,192,70577,1,0,0:0:0:0:
329,192,70577,1,0,0:0:0:0:
36,192,70758,1,0,0:0:0:0:
402,192,70758,1,0,0:0:0:0:
109,192,70758,1,0,0:0:0:0:
182,192,70940,1,0,0:0:0:0:
329,192,71122,1,0,0:0:0:0:
36,192,71122,1,0,0:0:0:0:
182,192,71304,1,0,0:0:0:0:
256,192,71304,1,0,0:0:0:0:
36,192,71486,1,0,0:0:0:0:
402,192,71486,1,0,0:0:0:0:
329,192,71486,1,0,0:0:0:0:
109,192,71667,1,0,0:0:0:0:
182,192,71849,1,0,0:0:0:0:
256,192,71849,128,0,73304:0:0:0:0:
329,192,71849,128,0,72213:0:0:0:0:
36,192,72031,1,0,0:0:0:0:
475,192,72031,1,0,0:0:0:0:
402,192,72213,128,0,72395:0:0:0:0:
109,192,72213,1,0,0:0:0:0:
182,192,72213,1,0,0:0:0:0:
475,192,72395,128,0,72758:0:0:0:0:
36,192,72395,1,0,0:0:0:0:
109,192,72395,1,0,0:0:0:0:
182,192,72577,1,0,0:0:0:0:
329,192,72577,1,0,0:0:0:0:
402,192,72758,128,0,73122:0:0:0:0:
109,192,72758,1,0,0:0:0:0:
36,192,72758,1,0,0:0:0:0:
182,192,72940,1,0,0:0:0:0:
109,192,72940,1,0,0:0:0:0:
329,192,73122,128,0,73849:0:0:0:0:
36,192,73122,1,0,0:0:0:0:
182,192,73304,128,0,74758:0:0:0:0:
475,192,73304,1,0,0:0:0:0:
109,192,73486,1,0,0:0:0:0:
402,192,73667,1,0,0:0:0:0:
109,192,73849,1,0,0:0:0:0:
256,192,74031,1,0,0:0:0:0:
36,192,74031,1,0,0:0:0:0:
109,192,74213,1,0,0:0:0:0:
402,192,74395,1,0,0:0:0:0:
475,192,74758,1,0,0:0:0:0:
36,192,74758,128,0,75849:0:0:0:0:
256,192,74758,128,0,76213:0:0:0:0:
402,192,74940,1,0,0:0:0:0:
329,192,75122,1,0,0:0:0:0:
109,192,75304,1,0,0:0:0:0:
182,192,75486,1,0,0:0:0:0:
475,192,75486,1,0,0:0:0:0:
109,192,75667,1,0,0:0:0:0:
402,192,75849,128,0,76031:0:0:0:0:
329,192,75849,1,0,0:0:0:0:
475,192,76031,128,0,76758:0:0:0:0:
329,192,76213,128,0,77667:0:0:0:0:
182,192,76213,1,0,0:0:0:0:
36,192,76213,1,0,0:0:0:0:
109,192,76395,1,0,0:0:0:0:
182,192,76577,1,0,0:0:0:0:
256,192,76758,1,0,0:0:0:0:
109,192,76940,1,0,0:0:0:0:
36,192,76940,1,0,0:0:0:0:
182,192,77122,1,0,0:0:0:0:
256,192,77304,1,0,0:0:0:0:
402,192,77304,128,0,77667:0:0:0:0:
36,192,77667,128,0,79122:0:0:0:0:
475,192,77667,128,0,78577:0:0:0:0:
109,192,77667,1,0,0:0:0:0:
182,192,77849,1,0,0:0:0:0:
402,192,78031,1,0,0:0:0:0:
329,192,78213,1,0,0:0:0:0:
256,192,78395,1,0,0:0:0:0:
182,192,78395,1,0,0:0:0:0:
109,192,78577,1,0,0:0:0:0:
402,192,78758,1,0,0:0:0:0:
182,192,78758,1,0,0:0:0:0:
329,192,78940,128,0,82395:0:0:0:0:
475,192,78940,1,0,0:0:0:0:
109,192,78940,1,0,0:0:0:0:
182,192,79031,1,0,0:0:0:0:
256,192,79031,1,0,0:0:0:0:
402,192,79122,1,0,0:0:0:0:
475,192,79122,1,0,0:0:0:0:
36,192,79486,1,0,0:0:0:0:
475,192,79486,1,0,0:0:0:0:
256,192,79667,1,0,0:0:0:0:
109,192,79667,1,0,0:0:0:0:
36,192,79849,1,0,0:0:0:0:
475,192,79849,1,0,0:0:0:0:
256,192,80031,1,0,0:0:0:0:
109,192,80031,1,0,0:0:0:0:
182,192,80213,1,0,0:0:0:0:
402,192,80213,1,0,0:0:0:0:
475,192,80395,1,0,0:0:0:0:
36,192,80395,1,0,0:0:0:0:
182,192,80577,1,0,0:0:0:0:
402,192,80577,1,0,0:0:0:0:
475,192,80758,1,0,0:0:0:0:
36,192,80758,1,0,0:0:0:0:
109,192,80940,1,0,0:0:0:0:
256,192,80940,1,0,0:0:0:0:
475,192,81122,1,0,0:0:0:0:
36,192,81122,1,0,0:0:0:0:
109,192,81304,1,0,0:0:0:0:
256,192,81304,1,0,0:0:0:0:
402,192,81486,1,0,0:0:0:0:
182,192,81486,1,0,0:0:0:0:
36,192,81667,1,0,0:0:0:0:
475,192,81667,1,0,0:0:0:0:
402,192,81849,1,0,0:0:0:0:
182,192,81849,1,0,0:0:0:0:
109,192,82031,1,0,0:0:0:0:
475,192,82031,1,0,0:0:0:0:
182,192,82213,1,0,0:0:0:0:
256,192,82395,1,0,0:0:0:0:
36,192,82577,1,0,0:0:0:0:
475,192,82577,1,0,0:0:0:0:
182,192,82577,1,0,0:0:0:0:
329,192,82577,1,0,0:0:0:0:
402,192,82758,1,0,0:0:0:0:
329,192,82940,1,0,0:0:0:0:
256,192,83122,1,0,0:0:0:0:
36,192,83122,128,0,83486:0:0:0:0:
109,192,83122,1,0,0:0:0:0:
182,192,83122,1,0,0:0:0:0:
329,192,83304,1,0,0:0:0:0:
109,192,83486,128,0,83849:0:0:0:0:
182,192,83486,1,0,0:0:0:0:
402,192,83486,1,0,0:0:0:0:
256,192,83486,1,0,0:0:0:0:
475,192,83667,1,0,0:0:0:0:
329,192,83667,1,0,0:0:0:0:
182,192,83849,128,0,84031:0:0:0:0:
256,192,83849,1,0,0:0:0:0:
475,192,84031,128,0,84395:0:0:0:0:
402,192,84031,1,0,0:0:0:0:
329,192,84031,1,0,0:0:0:0:
402,192,84395,128,0,84758:0:0:0:0:
329,192,84395,1,0,0:0:0:0:
109,192,84395,1,0,0:0:0:0:
329,192,84758,128,0,86395:0:0:0:0:
182,192,84940,1,0,0:0:0:0:
256,192,84940,128,0,87849:0:0:0:0:
36,192,84940,1,0,0:0:0:0:
