osu file format v12

[General]
AudioFilename: Kimi no Shiranai Monogatari.ogg
AudioLeadIn: 2
PreviewTime: 54031
Countdown: 0
SampleSet: Soft
StackLeniency: 0.7
Mode: 3
LetterboxInBreaks: 0
SpecialStyle: 0
WidescreenStoryboard: 1

[Editor]
DistanceSpacing: 0.8
BeatDivisor: 4
GridSize: 8

[Metadata]
Title:Kimi no Shiranai Monogatari (TV Size)
TitleUnicode:Kimi no Shiranai Monogatari (TV Size)
Artist:supercell
ArtistUnicode:supercell
Creator:-DanteMayCry-
Version:5K Normal
Source:Bakemonogatari
Tags:Supercell YoCheck Simple_Star
BeatmapID:338069
BeatmapSetID:120379

[Difficulty]
HPDrainRate:7
CircleSize:5
OverallDifficulty:8
ApproachRate:10
SliderMultiplier:1.4
SliderTickRate:1

[Events]
//Background and Video events
0,0,"background.jpg",0,0
//Break Periods
//Storyboard Layer 0 (Background)
//Storyboard Layer 1 (Fail)
//Storyboard Layer 2 (Pass)
//Storyboard Layer 3 (Foreground)
//Storyboard Sound Samples
//Background Colour Transformations
3,100,163,162,255

[TimingPoints]
577,363.6364,4,2,0,35,1,0
55849,-100,4,2,0,35,0,1
84940,-100,4,2,0,35,0,0

[HitObjects]
51,192,577,1,0,0:0:0:0:
358,192,577,1,0,0:0:0:0:
256,192,940,1,0,0:0:0:0:
460,192,1304,1,0,0:0:0:0:
51,192,1667,1,0,0:0:0:0:
153,192,1667,1,0,0:0:0:0:
358,192,2031,1,0,0:0:0:0:
256,192,2395,1,0,0:0:0:0:
153,192,2758,1,0,0:0:0:0:
51,192,3122,1,0,0:0:0:0:
460,192,3122,1,0,0:0:0:0:
153,192,3486,1,0,0:0:0:0:
358,192,3486,1,0,0:0:0:0:
256,192,3849,1,0,0:0:0:0:
51,192,4213,1,0,0:0:0:0:
460,192,4577,1,0,0:0:0:0:
51,192,4940,1,0,0:0:0:0:
358,192,4940,1,0,0:0:0:0:
460,192,5304,1,0,0:0:0:0:
153,192,5304,1,0,0:0:0:0:
256,192,5667,1,0,0:0:0:0:
51,192,5667,1,0,0:0:0:0:
358,192,6031,1,0,0:0:0:0:
153,192,6031,1,0,0:0:0:0:
460,192,6395,1,0,0:0:0:0:
256,192,6395,1,0,0:0:0:0:
51,192,6758,1,0,0:0:0:0:
460,192,7122,1,0,0:0:0:0:
153,192,7486,1,0,0:0:0:0:
51,192,7849,1,0,0:0:0:0:
256,192,7849,1,0,0:0:0:0:
460,192,8213,1,0,0:0:0:0:
153,192,8577,1,0,0:0:0:0:
358,192,8577,1,0,0:0:0:0:
51,192,8940,1,0,0:0:0:0:
460,192,8940,1,0,0:0:0:0:
358,192,9304,1,0,0:0:0:0:
153,192,9304,1,0,0:0:0:0:
256,192,9849,1,0,0:0:0:0:
460,192,9849,1,0,0:0:0:0:
51,192,10213,1,0,0:0:0:0:
153,192,10395,1,0,0:0:0:0:
256,192,10577,1,0,0:0:0:0:
460,192,10577,1,0,0:0:0:0:
358,192,10940,1,0,0:0:0:0:
51,192,11122,1,0,0:0:0:0:
256,192,11304,1,0,0:0:0:0:
460,192,11304,1,0,0:0:0:0:
153,192,11667,1,0,0:0:0:0:
358,192,11667,1,0,0:0:0:0:
256,192,12213,1,0,0:0:0:0:
460,192,12213,1,0,0:0:0:0:
51,192,12213,1,0,0:0:0:0:
358,192,12577,1,0,0:0:0:0:
460,192,12940,1,0,0:0:0:0:
153,192,13304,1,0,0:0:0:0:
51,192,13667,1,0,0:0:0:0:
358,192,13667,1,0,0:0:0:0:
153,192,14213,1,0,0:0:0:0:
460,192,14213,1,0,0:0:0:0:
256,192,14758,1,0,0:0:0:0:
358,192,14758,1,0,0:0:0:0:
51,192,15122,1,0,0:0:0:0:
153,192,15122,1,0,0:0:0:0:
256,192,16213,1,0,0:0:0:0:
51,192,16395,1,0,0:0:0:0:
460,192,16395,1,0,0:0:0:0:
460,192,16758,1,0,0:0:0:0:
358,192,16940,1,0,0:0:0:0:
256,192,17122,1,0,0:0:0:0:
51,192,17304,1,0,0:0:0:0:
153,192,17486,1,0,0:0:0:0:
256,192,17667,1,0,0:0:0:0:
358,192,17849,1,0,0:0:0:0:
460,192,18031,1,0,0:0:0:0:
51,192,18213,1,0,0:0:0:0:
256,192,18395,1,0,0:0:0:0:
153,192,18577,1,0,0:0:0:0:
358,192,18758,1,0,0:0:0:0:
460,192,18940,1,0,0:0:0:0:
256,192,19122,1,0,0:0:0:0:
153,192,19304,1,0,0:0:0:0:
460,192,19486,1,0,0:0:0:0:
358,192,19486,1,0,0:0:0:0:
51,192,19849,1,0,0:0:0:0:
256,192,20031,1,0,0:0:0:0:
460,192,20395,1,0,0:0:0:0:
153,192,20758,1,0,0:0:0:0:
358,192,20940,1,0,0:0:0:0:
51,192,21122,1,0,0:0:0:0:
460,192,21304,1,0,0:0:0:0:
256,192,21486,1,0,0:0:0:0:
153,192,21667,1,0,0:0:0:0:
358,192,21849,1,0,0:0:0:0:
256,192,22031,1,0,0:0:0:0:
460,192,22213,1,0,0:0:0:0:
358,192,22395,1,0,0:0:0:0:
51,192,22577,1,0,0:0:0:0:
153,192,22758,1,0,0:0:0:0:
256,192,22940,1,0,0:0:0:0:
256,192,23304,1,0,0:0:0:0:
460,192,23849,1,0,0:0:0:0:
358,192,23849,1,0,0:0:0:0:
51,192,24213,1,0,0:0:0:0:
256,192,24577,1,0,0:0:0:0:
153,192,24758,1,0,0:0:0:0:
358,192,24940,1,0,0:0:0:0:
51,192,25304,1,0,0:0:0:0:
256,192,25304,1,0,0:0:0:0:
460,192,25667,1,0,0:0:0:0:
51,192,26031,1,0,0:0:0:0:
153,192,26213,1,0,0:0:0:0:
256,192,26395,1,0,0:0:0:0:
460,192,26758,1,0,0:0:0:0:
51,192,26758,1,0,0:0:0:0:
358,192,26940,1,0,0:0:0:0:
256,192,27122,1,0,0:0:0:0:
460,192,27486,1,0,0:0:0:0:
51,192,27667,1,0,0:0:0:0:
256,192,27849,1,0,0:0:0:0:
460,192,28213,1,0,0:0:0:0:
51,192,28395,1,0,0:0:0:0:
153,192,28577,1,0,0:0:0:0:
358,192,28758,1,0,0:0:0:0:
256,192,28940,1,0,0:0:0:0:
153,192,29122,1,0,0:0:0:0:
358,192,29304,1,0,0:0:0:0:
460,192,29486,1,0,0:0:0:0:
51,192,29667,1,0,0:0:0:0:
153,192,29667,1,0,0:0:0:0:
358,192,30031,1,0,0:0:0:0:
51,192,30395,1,0,0:0:0:0:
460,192,30577,1,0,0:0:0:0:
153,192,30758,1,0,0:0:0:0:
358,192,31122,1,0,0:0:0:0:
51,192,31304,1,0,0:0:0:0:
460,192,31486,1,0,0:0:0:0:
256,192,31849,1,0,0:0:0:0:
51,192,32031,1,0,0:0:0:0:
256,192,32213,1,0,0:0:0:0:
460,192,32577,1,0,0:0:0:0:
153,192,32758,1,0,0:0:0:0:
460,192,32940,1,0,0:0:0:0:
256,192,33304,1,0,0:0:0:0:
51,192,33486,1,0,0:0:0:0:
358,192,33667,1,0,0:0:0:0:
153,192,34031,1,0,0:0:0:0:
460,192,34213,1,0,0:0:0:0:
256,192,34395,1,0,0:0:0:0:
51,192,34758,1,0,0:0:0:0:
256,192,34940,1,0,0:0:0:0:
460,192,35122,1,0,0:0:0:0:
51,192,35486,1,0,0:0:0:0:
153,192,35486,1,0,0:0:0:0:
358,192,35667,1,0,0:0:0:0:
460,192,35849,1,0,0:0:0:0:
51,192,36213,1,0,0:0:0:0:
256,192,36213,1,0,0:0:0:0:
153,192,36395,1,0,0:0:0:0:
460,192,36577,1,0,0:0:0:0:
358,192,36940,1,0,0:0:0:0:
256,192,36940,1,0,0:0:0:0:
153,192,37122,1,0,0:0:0:0:
51,192,37304,1,0,0:0:0:0:
460,192,37667,1,0,0:0:0:0:
358,192,37667,1,0,0:0:0:0:
153,192,37849,1,0,0:0:0:0:
256,192,38031,1,0,0:0:0:0:
51,192,38395,1,0,0:0:0:0:
460,192,38395,1,0,0:0:0:0:
256,192,38577,1,0,0:0:0:0:
153,192,38758,1,0,0:0:0:0:
358,192,39122,1,0,0:0:0:0:
460,192,39122,1,0,0:0:0:0:
51,192,39304,1,0,0:0:0:0:
153,192,39486,1,0,0:0:0:0:
460,192,39849,1,0,0:0:0:0:
256,192,39849,1,0,0:0:0:0:
153,192,40031,1,0,0:0:0:0:
51,192,40213,1,0,0:0:0:0:
153,192,40577,1,0,0:0:0:0:
460,192,40577,1,0,0:0:0:0:
358,192,40758,1,0,0:0:0:0:
51,192,40940,1,0,0:0:0:0:
153,192,41304,1,0,0:0:0:0:
256,192,41304,1,0,0:0:0:0:
358,192,41667,1,0,0:0:0:0:
256,192,41849,1,0,0:0:0:0:
51,192,42031,1,0,0:0:0:0:
153,192,42213,1,0,0:0:0:0:
460,192,42395,1,0,0:0:0:0:
51,192,42577,1,0,0:0:0:0:
460,192,42758,1,0,0:0:0:0:
153,192,42940,1,0,0:0:0:0:
358,192,43122,1,0,0:0:0:0:
153,192,43304,1,0,0:0:0:0:
460,192,43486,1,0,0:0:0:0:
51,192,43667,1,0,0:0:0:0:
256,192,43849,1,0,0:0:0:0:
256,192,44031,1,0,0:0:0:0:
153,192,44213,1,0,0:0:0:0:
358,192,44213,1,0,0:0:0:0:
51,192,44577,1,0,0:0:0:0:
358,192,44940,1,0,0:0:0:0:
460,192,44940,1,0,0:0:0:0:
153,192,45304,1,0,0:0:0:0:
51,192,45667,1,0,0:0:0:0:
256,192,45667,1,0,0:0:0:0:
460,192,46031,1,0,0:0:0:0:
153,192,46031,1,0,0:0:0:0:
51,192,46395,1,0,0:0:0:0:
358,192,46395,1,0,0:0:0:0:
460,192,46758,1,0,0:0:0:0:
153,192,47122,1,0,0:0:0:0:
358,192,47486,1,0,0:0:0:0:
51,192,47849,1,0,0:0:0:0:
460,192,47849,1,0,0:0:0:0:
256,192,48213,1,0,0:0:0:0:
153,192,48577,1,0,0:0:0:0:
460,192,48940,1,0,0:0:0:0:
51,192,49304,1,0,0:0:0:0:
153,192,49667,1,0,0:0:0:0:
256,192,50031,1,0,0:0:0:0:
460,192,50031,1,0,0:0:0:0:
358,192,50395,1,0,0:0:0:0:
256,192,50758,1,0,0:0:0:0:
51,192,51122,1,0,0:0:0:0:
153,192,51486,1,0,0:0:0:0:
460,192,51849,1,0,0:0:0:0:
358,192,52213,1,0,0:0:0:0:
51,192,52213,1,0,0:0:0:0:
256,192,52577,1,0,0:0:0:0:
460,192,52940,1,0,0:0:0:0:
153,192,52940,1,0,0:0:0:0:
358,192,53122,1,0,0:0:0:0:
51,192,53122,1,0,0:0:0:0:
153,192,53486,1,0,0:0:0:0:
256,192,53577,1,0,0:0:0:0:
358,192,53667,1,0,0:0:0:0:
460,192,53667,1,0,0:0:0:0:
51,192,53849,1,0,0:0:0:0:
153,192,53849,1,0,0:0:0:0:
460,192,54395,1,0,0:0:0:0:
358,192,54395,1,0,0:0:0:0:
51,192,55849,1,0,0:0:0:0:
460,192,55849,1,0,0:0:0:0:
256,192,56031,1,0,0:0:0:0:
153,192,56213,1,0,0:0:0:0:
358,192,56213,1,0,0:0:0:0:
51,192,56576,1,0,0:0:0:0:
460,192,56758,1,0,0:0:0:0:
153,192,56940,1,0,0:0:0:0:
256,192,56940,1,0,0:0:0:0:
460,192,57304,1,0,0:0:0:0:
51,192,57667,1,0,0:0:0:0:
358,192,57667,1,0,0:0:0:0:
153,192,57849,1,0,0:0:0:0:
460,192,58213,1,0,0:0:0:0:
358,192,58395,1,0,0:0:0:0:
51,192,58395,1,0,0:0:0:0:
153,192,58758,1,0,0:0:0:0:
460,192,58940,1,0,0:0:0:0:
358,192,59122,1,0,0:0:0:0:
256,192,59122,1,0,0:0:0:0:
51,192,59486,1,0,0:0:0:0:
460,192,59667,1,0,0:0:0:0:
153,192,59849,1,0,0:0:0:0:
358,192,59849,1,0,0:0:0:0:
256,192,60213,1,0,0:0:0:0:
460,192,60395,1,0,0:0:0:0:
51,192,60576,1,0,0:0:0:0:
153,192,60576,1,0,0:0:0:0:
256,192,60940,1,0,0:0:0:0:
256,192,61122,1,0,0:0:0:0:
460,192,61122,1,0,0:0:0:0:
358,192,61304,1,0,0:0:0:0:
51,192,61304,1,0,0:0:0:0:
153,192,61667,1,0,0:0:0:0:
256,192,61849,1,0,0:0:0:0:
358,192,62031,1,0,0:0:0:0:
460,192,62031,1,0,0:0:0:0:
51,192,62395,1,0,0:0:0:0:
460,192,62576,1,0,0:0:0:0:
256,192,62758,1,0,0:0:0:0:
153,192,62758,1,0,0:0:0:0:
358,192,63122,1,0,0:0:0:0:
51,192,63304,1,0,0:0:0:0:
460,192,63486,1,0,0:0:0:0:
153,192,63486,1,0,0:0:0:0:
358,192,63849,1,0,0:0:0:0:
153,192,63849,1,0,0:0:0:0:
153,192,64213,1,0,0:0:0:0:
256,192,64213,1,0,0:0:0:0:
460,192,64577,1,0,0:0:0:0:
51,192,64577,1,0,0:0:0:0:
153,192,64940,1,0,0:0:0:0:
358,192,64940,1,0,0:0:0:0:
256,192,65304,1,0,0:0:0:0:
460,192,65304,1,0,0:0:0:0:
358,192,65667,1,0,0:0:0:0:
153,192,65667,1,0,0:0:0:0:
51,192,65849,1,0,0:0:0:0:
460,192,66031,1,0,0:0:0:0:
256,192,66031,1,0,0:0:0:0:
51,192,66395,1,0,0:0:0:0:
358,192,66395,1,0,0:0:0:0:
153,192,66577,1,0,0:0:0:0:
256,192,66758,1,0,0:0:0:0:
460,192,66758,1,0,0:0:0:0:
358,192,67122,1,0,0:0:0:0:
256,192,67304,1,0,0:0:0:0:
153,192,67486,1,0,0:0:0:0:
51,192,67486,1,0,0:0:0:0:
460,192,67849,1,0,0:0:0:0:
358,192,67849,1,0,0:0:0:0:
51,192,68213,1,0,0:0:0:0:
256,192,68395,1,0,0:0:0:0:
460,192,68577,1,0,0:0:0:0:
51,192,68577,1,0,0:0:0:0:
153,192,68940,1,0,0:0:0:0:
358,192,69122,1,0,0:0:0:0:
51,192,69304,1,0,0:0:0:0:
256,192,69304,1,0,0:0:0:0:
358,192,69486,1,0,0:0:0:0:
153,192,69667,1,0,0:0:0:0:
256,192,69849,1,0,0:0:0:0:
153,192,70031,1,0,0:0:0:0:
460,192,70031,1,0,0:0:0:0:
51,192,70395,1,0,0:0:0:0:
358,192,70577,1,0,0:0:0:0:
153,192,70758,1,0,0:0:0:0:
256,192,70758,1,0,0:0:0:0:
460,192,71122,1,0,0:0:0:0:
51,192,71304,1,0,0:0:0:0:
153,192,71486,1,0,0:0:0:0:
358,192,71486,1,0,0:0:0:0:
460,192,71849,1,0,0:0:0:0:
256,192,72031,1,0,0:0:0:0:
51,192,72213,1,0,0:0:0:0:
153,192,72213,1,0,0:0:0:0:
358,192,72395,1,0,0:0:0:0:
460,192,72577,1,0,0:0:0:0:
460,192,72758,1,0,0:0:0:0:
256,192,72758,1,0,0:0:0:0:
256,192,72940,1,0,0:0:0:0:
51,192,72940,1,0,0:0:0:0:
460,192,73304,1,0,0:0:0:0:
358,192,73304,1,0,0:0:0:0:
51,192,74031,1,0,0:0:0:0:
153,192,74031,1,0,0:0:0:0:
256,192,74395,1,0,0:0:0:0:
460,192,74758,1,0,0:0:0:0:
358,192,74758,1,0,0:0:0:0:
51,192,75486,1,0,0:0:0:0:
256,192,75486,1,0,0:0:0:0:
358,192,75849,1,0,0:0:0:0:
256,192,76213,1,0,0:0:0:0:
460,192,76213,1,0,0:0:0:0:
256,192,76940,1,0,0:0:0:0:
51,192,76940,1,0,0:0:0:0:
153,192,77304,1,0,0:0:0:0:
460,192,77667,1,0,0:0:0:0:
358,192,77667,1,0,0:0:0:0:
51,192,78395,1,0,0:0:0:0:
153,192,78395,1,0,0:0:0:0:
256,192,78758,1,0,0:0:0:0:
460,192,78758,1,0,0:0:0:0:
51,192,78940,1,0,0:0:0:0:
153,192,79122,1,0,0:0:0:0:
358,192,79122,1,0,0:0:0:0:
460,192,79304,1,0,0:0:0:0:
256,192,79486,1,0,0:0:0:0:
51,192,79667,1,0,0:0:0:0:
256,192,79849,1,0,0:0:0:0:
460,192,80031,1,0,0:0:0:0:
153,192,80213,1,0,0:0:0:0:
460,192,80395,1,0,0:0:0:0:
51,192,80577,1,0,0:0:0:0:
358,192,80758,1,0,0:0:0:0:
51,192,80940,1,0,0:0:0:0:
256,192,81122,1,0,0:0:0:0:
460,192,81304,1,0,0:0:0:0:
51,192,81486,1,0,0:0:0:0:
256,192,81667,1,0,0:0:0:0:
460,192,81849,1,0,0:0:0:0:
51,192,82031,1,0,0:0:0:0:
153,192,82031,1,0,0:0:0:0:
358,192,82213,1,0,0:0:0:0:
153,192,82395,1,0,0:0:0:0:
460,192,82577,1,0,0:0:0:0:
256,192,82577,1,0,0:0:0:0:
358,192,82758,1,0,0:0:0:0:
51,192,82940,1,0,0:0:0:0:
153,192,83122,1,0,0:0:0:0:
460,192,83122,1,0,0:0:0:0:
256,192,83486,1,0,0:0:0:0:
358,192,83486,1,0,0:0:0:0:
153,192,83667,1,0,0:0:0:0:
460,192,83849,1,0,0:0:0:0:
51,192,84031,1,0,0:0:0:0:
358,192,84031,1,0,0:0:0:0:
153,192,84395,1,0,0:0:0:0:
358,192,84395,1,0,0:0:0:0:
460,192,84940,1,0,0:0:0:0:
51,192,84940,1,0,0:0:0:0:
256,192,84940,128,0,88213:0:0:0:0:
