osu file format v12

[General]
AudioFilename: Kimi no Shiranai Monogatari.ogg
AudioLeadIn: 2
PreviewTime: 54031
Countdown: 0
SampleSet: Soft
StackLeniency: 0.7
Mode: 3
LetterboxInBreaks: 0
SpecialStyle: 0
WidescreenStoryboard: 1

[Editor]
DistanceSpacing: 0.8
BeatDivisor: 2
GridSize: 8

[Metadata]
Title:Kimi no Shiranai Monogatari (TV Size)
TitleUnicode:Kimi no Shiranai Monogatari (TV Size)
Artist:supercell
ArtistUnicode:supercell
Creator:-DanteMayCry-
Version:4K Easy
Source:Bakemonogatari
Tags:Supercell YoCheck Simple_Star
BeatmapID:331465
BeatmapSetID:120379

[Difficulty]
HPDrainRate:7
CircleSize:4
OverallDifficulty:7
ApproachRate:10
SliderMultiplier:1.4
SliderTickRate:1

[Events]
//Background and Video events
0,0,"background.jpg",0,0
//Break Periods
//Storyboard Layer 0 (Background)
//Storyboard Layer 1 (Fail)
//Storyboard Layer 2 (Pass)
//Storyboard Layer 3 (Foreground)
//Storyboard Sound Samples
//Background Colour Transformations
3,100,163,162,255

[TimingPoints]
577,363.6364,4,2,0,35,1,0
55849,-100,4,2,0,35,0,1
84940,-100,4,2,0,35,0,0

[HitObjects]
64,192,577,1,0,0:0:0:0:
320,192,940,1,0,0:0:0:0:
64,192,1304,1,0,0:0:0:0:
448,192,1667,1,0,0:0:0:0:
192,192,2031,1,0,0:0:0:0:
64,192,2031,1,0,0:0:0:0:
320,192,2395,1,0,0:0:0:0:
448,192,2758,1,0,0:0:0:0:
64,192,3122,1,0,0:0:0:0:
192,192,3486,1,0,0:0:0:0:
448,192,3486,1,0,0:0:0:0:
320,192,3849,1,0,0:0:0:0:
448,192,4213,1,0,0:0:0:0:
192,192,4577,1,0,0:0:0:0:
64,192,4940,1,0,0:0:0:0:
448,192,5304,1,0,0:0:0:0:
320,192,5667,1,0,0:0:0:0:
64,192,6031,1,0,0:0:0:0:
192,192,6395,1,0,0:0:0:0:
448,192,6395,1,0,0:0:0:0:
64,192,6758,1,0,0:0:0:0:
448,192,7122,1,0,0:0:0:0:
320,192,7486,1,0,0:0:0:0:
192,192,7849,1,0,0:0:0:0:
64,192,7849,1,0,0:0:0:0:
320,192,8213,1,0,0:0:0:0:
448,192,8577,1,0,0:0:0:0:
192,192,8940,1,0,0:0:0:0:
64,192,9304,1,0,0:0:0:0:
448,192,9304,1,0,0:0:0:0:
192,192,9849,1,0,0:0:0:0:
320,192,9849,1,0,0:0:0:0:
448,192,10213,1,0,0:0:0:0:
320,192,10395,1,0,0:0:0:0:
192,192,10577,1,0,0:0:0:0:
64,192,10940,1,0,0:0:0:0:
192,192,11122,1,0,0:0:0:0:
320,192,11304,1,0,0:0:0:0:
448,192,11304,1,0,0:0:0:0:
192,192,11667,1,0,0:0:0:0:
64,192,11667,1,0,0:0:0:0:
192,192,12213,1,0,0:0:0:0:
320,192,12213,1,0,0:0:0:0:
64,192,12577,1,0,0:0:0:0:
192,192,12940,1,0,0:0:0:0:
448,192,13304,1,0,0:0:0:0:
64,192,13667,1,0,0:0:0:0:
192,192,13667,1,0,0:0:0:0:
320,192,14213,1,0,0:0:0:0:
448,192,14213,1,0,0:0:0:0:
64,192,14758,1,0,0:0:0:0:
192,192,14758,1,0,0:0:0:0:
448,192,15122,1,0,0:0:0:0:
320,192,15122,1,0,0:0:0:0:
448,192,16213,1,0,0:0:0:0:
64,192,16395,1,0,0:0:0:0:
448,192,16758,1,0,0:0:0:0:
192,192,16940,1,0,0:0:0:0:
448,192,17122,1,0,0:0:0:0:
64,192,17304,1,0,0:0:0:0:
320,192,17486,1,0,0:0:0:0:
192,192,17667,1,0,0:0:0:0:
448,192,17849,1,0,0:0:0:0:
320,192,18031,1,0,0:0:0:0:
64,192,18031,1,0,0:0:0:0:
192,192,18395,1,0,0:0:0:0:
320,192,18758,1,0,0:0:0:0:
448,192,19122,1,0,0:0:0:0:
64,192,19486,1,0,0:0:0:0:
320,192,19849,1,0,0:0:0:0:
64,192,20213,1,0,0:0:0:0:
448,192,20577,1,0,0:0:0:0:
320,192,20940,1,0,0:0:0:0:
64,192,21304,1,0,0:0:0:0:
320,192,21667,1,0,0:0:0:0:
64,192,22031,1,0,0:0:0:0:
320,192,22395,1,0,0:0:0:0:
192,192,22758,1,0,0:0:0:0:
448,192,23122,1,0,0:0:0:0:
64,192,23304,1,0,0:0:0:0:
192,192,23486,1,0,0:0:0:0:
320,192,23667,1,0,0:0:0:0:
448,192,23849,128,0,24577:0:0:0:0:
64,192,24577,128,0,25304:0:0:0:0:
448,192,25304,128,0,26031:0:0:0:0:
192,192,26031,1,0,0:0:0:0:
64,192,26577,1,0,0:0:0:0:
448,192,26758,128,0,27849:0:0:0:0:
320,192,26758,1,0,0:0:0:0:
320,192,27849,1,0,0:0:0:0:
192,192,28031,1,0,0:0:0:0:
64,192,28213,1,0,0:0:0:0:
448,192,28577,1,0,0:0:0:0:
192,192,28940,1,0,0:0:0:0:
448,192,29304,1,0,0:0:0:0:
64,192,29667,1,0,0:0:0:0:
320,192,29667,1,0,0:0:0:0:
448,192,30031,1,0,0:0:0:0:
64,192,30395,1,0,0:0:0:0:
320,192,30758,1,0,0:0:0:0:
448,192,31122,1,0,0:0:0:0:
64,192,31486,1,0,0:0:0:0:
192,192,31849,1,0,0:0:0:0:
448,192,32213,1,0,0:0:0:0:
64,192,32577,1,0,0:0:0:0:
192,192,32940,1,0,0:0:0:0:
320,192,33304,1,0,0:0:0:0:
448,192,33667,1,0,0:0:0:0:
192,192,34031,1,0,0:0:0:0:
64,192,34395,1,0,0:0:0:0:
448,192,34758,1,0,0:0:0:0:
320,192,35122,1,0,0:0:0:0:
64,192,35486,1,0,0:0:0:0:
192,192,35849,1,0,0:0:0:0:
320,192,36213,1,0,0:0:0:0:
448,192,36577,1,0,0:0:0:0:
192,192,36940,1,0,0:0:0:0:
64,192,37304,1,0,0:0:0:0:
320,192,37667,1,0,0:0:0:0:
448,192,38031,1,0,0:0:0:0:
64,192,38395,1,0,0:0:0:0:
320,192,38758,1,0,0:0:0:0:
448,192,39122,1,0,0:0:0:0:
64,192,39486,1,0,0:0:0:0:
448,192,39849,1,0,0:0:0:0:
64,192,40213,1,0,0:0:0:0:
448,192,40577,1,0,0:0:0:0:
192,192,40940,1,0,0:0:0:0:
448,192,41304,1,0,0:0:0:0:
320,192,41304,1,0,0:0:0:0:
64,192,41667,1,0,0:0:0:0:
448,192,41849,1,0,0:0:0:0:
64,192,42031,1,0,0:0:0:0:
448,192,42213,1,0,0:0:0:0:
192,192,42395,1,0,0:0:0:0:
320,192,42577,1,0,0:0:0:0:
192,192,42758,1,0,0:0:0:0:
320,192,42940,1,0,0:0:0:0:
64,192,43122,1,0,0:0:0:0:
448,192,43304,1,0,0:0:0:0:
64,192,43486,1,0,0:0:0:0:
448,192,43667,1,0,0:0:0:0:
192,192,43849,1,0,0:0:0:0:
320,192,44031,1,0,0:0:0:0:
192,192,44213,1,0,0:0:0:0:
64,192,44213,1,0,0:0:0:0:
448,192,44577,1,0,0:0:0:0:
320,192,44940,1,0,0:0:0:0:
192,192,44940,1,0,0:0:0:0:
64,192,45304,1,0,0:0:0:0:
448,192,45667,1,0,0:0:0:0:
64,192,46031,1,0,0:0:0:0:
192,192,46395,1,0,0:0:0:0:
448,192,46758,1,0,0:0:0:0:
64,192,47122,1,0,0:0:0:0:
320,192,47486,1,0,0:0:0:0:
448,192,47849,1,0,0:0:0:0:
192,192,48213,1,0,0:0:0:0:
64,192,48577,1,0,0:0:0:0:
448,192,48940,1,0,0:0:0:0:
64,192,49304,1,0,0:0:0:0:
320,192,49667,1,0,0:0:0:0:
448,192,50031,1,0,0:0:0:0:
192,192,50031,1,0,0:0:0:0:
64,192,50395,1,0,0:0:0:0:
64,192,50758,1,0,0:0:0:0:
320,192,51122,1,0,0:0:0:0:
320,192,51486,1,0,0:0:0:0:
192,192,51849,1,0,0:0:0:0:
192,192,52213,1,0,0:0:0:0:
448,192,52577,1,0,0:0:0:0:
448,192,52940,1,0,0:0:0:0:
64,192,53122,1,0,0:0:0:0:
192,192,53486,1,0,0:0:0:0:
320,192,53667,1,0,0:0:0:0:
448,192,53849,1,0,0:0:0:0:
64,192,54395,1,0,0:0:0:0:
448,192,54395,1,0,0:0:0:0:
448,192,55849,1,0,0:0:0:0:
320,192,56031,1,0,0:0:0:0:
192,192,56213,1,0,0:0:0:0:
64,192,56213,1,0,0:0:0:0:
192,192,56577,1,0,0:0:0:0:
64,192,56758,1,0,0:0:0:0:
448,192,56940,1,0,0:0:0:0:
320,192,56940,1,0,0:0:0:0:
64,192,57304,1,0,0:0:0:0:
448,192,57667,1,0,0:0:0:0:
192,192,57667,1,0,0:0:0:0:
320,192,57849,1,0,0:0:0:0:
64,192,58213,1,0,0:0:0:0:
448,192,58577,128,0,59304:0:0:0:0:
64,192,59486,1,0,0:0:0:0:
192,192,59667,1,0,0:0:0:0:
320,192,59849,1,0,0:0:0:0:
448,192,59849,1,0,0:0:0:0:
64,192,60213,1,0,0:0:0:0:
192,192,60577,1,0,0:0:0:0:
320,192,60577,1,0,0:0:0:0:
448,192,60758,1,0,0:0:0:0:
320,192,61122,1,0,0:0:0:0:
192,192,61486,128,0,63122:0:0:0:0:
448,192,62031,1,0,0:0:0:0:
448,192,62758,1,0,0:0:0:0:
448,192,63304,1,0,0:0:0:0:
320,192,63486,1,0,0:0:0:0:
64,192,63486,1,0,0:0:0:0:
192,192,63849,1,0,0:0:0:0:
320,192,64213,1,0,0:0:0:0:
448,192,64213,1,0,0:0:0:0:
64,192,64577,1,0,0:0:0:0:
448,192,64940,1,0,0:0:0:0:
64,192,65122,1,0,0:0:0:0:
192,192,65304,1,0,0:0:0:0:
448,192,65849,1,0,0:0:0:0:
320,192,66031,1,0,0:0:0:0:
64,192,66031,128,0,66577:0:0:0:0:
192,192,66577,1,0,0:0:0:0:
448,192,66758,1,0,0:0:0:0:
64,192,67122,1,0,0:0:0:0:
320,192,67304,1,0,0:0:0:0:
448,192,67304,128,0,68031:0:0:0:0:
64,192,67849,1,0,0:0:0:0:
320,192,67849,1,0,0:0:0:0:
192,192,68213,1,0,0:0:0:0:
64,192,68577,1,0,0:0:0:0:
320,192,68577,1,0,0:0:0:0:
448,192,68940,1,0,0:0:0:0:
448,192,69304,1,0,0:0:0:0:
192,192,69304,1,0,0:0:0:0:
64,192,69486,1,0,0:0:0:0:
320,192,69849,1,0,0:0:0:0:
192,192,70213,128,0,70940:0:0:0:0:
448,192,70758,1,0,0:0:0:0:
64,192,71122,1,0,0:0:0:0:
192,192,71304,1,0,0:0:0:0:
448,192,71486,1,0,0:0:0:0:
320,192,71486,1,0,0:0:0:0:
64,192,71667,1,0,0:0:0:0:
192,192,71849,1,0,0:0:0:0:
448,192,72213,1,0,0:0:0:0:
320,192,72213,1,0,0:0:0:0:
192,192,72395,1,0,0:0:0:0:
64,192,72758,1,0,0:0:0:0:
448,192,72758,1,0,0:0:0:0:
320,192,73122,128,0,73849:0:0:0:0:
64,192,74031,1,0,0:0:0:0:
192,192,74031,1,0,0:0:0:0:
448,192,74395,1,0,0:0:0:0:
192,192,74758,128,0,75849:0:0:0:0:
448,192,75486,1,0,0:0:0:0:
64,192,76031,128,0,76940:0:0:0:0:
448,192,76940,1,0,0:0:0:0:
192,192,77304,1,0,0:0:0:0:
320,192,77667,128,0,78577:0:0:0:0:
448,192,78395,1,0,0:0:0:0:
64,192,78758,1,0,0:0:0:0:
192,192,78940,1,0,0:0:0:0:
320,192,79122,1,0,0:0:0:0:
448,192,79122,128,0,82395:0:0:0:0:
64,192,79486,1,0,0:0:0:0:
192,192,79849,1,0,0:0:0:0:
320,192,80213,1,0,0:0:0:0:
64,192,80577,1,0,0:0:0:0:
320,192,80940,1,0,0:0:0:0:
64,192,81304,1,0,0:0:0:0:
320,192,81667,1,0,0:0:0:0:
192,192,82031,1,0,0:0:0:0:
64,192,82395,1,0,0:0:0:0:
192,192,82577,1,0,0:0:0:0:
320,192,82577,1,0,0:0:0:0:
448,192,83122,1,0,0:0:0:0:
64,192,83122,1,0,0:0:0:0:
192,192,83486,1,0,0:0:0:0:
320,192,83486,1,0,0:0:0:0:
64,192,83849,1,0,0:0:0:0:
448,192,84031,1,0,0:0:0:0:
192,192,84031,1,0,0:0:0:0:
64,192,84395,1,0,0:0:0:0:
320,192,84395,1,0,0:0:0:0:
448,192,84940,128,0,88213:0:0:0:0:
