osu file format v14

[General]
AudioFilename: Kimi no Shiranai Monogatari.mp3
AudioLeadIn: 0
PreviewTime: 65830
Countdown: 0
SampleSet: Soft
StackLeniency: 0.7
Mode: 0
LetterboxInBreaks: 0
WidescreenStoryboard: 0

[Editor]
DistanceSpacing: 0.9
BeatDivisor: 4
GridSize: 32
TimelineZoom: 2

[Metadata]
Title:Kimi no Shiranai Monogatari
TitleUnicode:君の知らない物語
Artist:supercell
ArtistUnicode:supercell
Creator:SoGa
Version:Easy
Source:化物語
Tags:Bakemonogatari Senjougahara hitagi senjou gahara The story you don't know Moecho IamKwan Kwan Mei ryo nagi yanaginagi
BeatmapID:615593
BeatmapSetID:270407

[Difficulty]
HPDrainRate:3
CircleSize:3
OverallDifficulty:3
ApproachRate:3
SliderMultiplier:0.999999999999999
SliderTickRate:1

[Events]
//Background and Video events
0,0,"Senjougahara%20(34).jpg",0,0
//Break Periods
//Storyboard Layer 0 (Background)
//Storyboard Layer 1 (Fail)
//Storyboard Layer 2 (Pass)
//Storyboard Layer 3 (Foreground)
//Storyboard Sound Samples

[TimingPoints]
740,363.636363636364,4,2,1,50,1,0
12376,-100,4,2,1,70,0,0
30194,-100,4,2,1,50,0,0
63285,-100,4,2,1,75,0,0
67649,-100,4,2,1,80,0,1
96740,-100,4,2,1,40,0,0
98194,-100,4,2,1,20,0,0

[Colours]
Combo1 : 255,17,65
Combo2 : 91,118,255
Combo3 : 0,255,102
Combo4 : 255,102,204
Combo5 : 222,10,185

[HitObjects]
312,65,740,6,0,B|387:50|387:50|426:52,2,99.9999999999999,2|0|2,0:0|0:0|0:0,0:0:0:0:
352,145,1830,2,0,B|433:141|433:141|459:148,2,99.9999999999999,2|0|2,0:0|0:0|0:0,0:0:0:0:
393,225,2921,2,0,B|468:230|468:230|494:236,1,99.9999999999999,2|0,0:0|0:0,0:0:0:0:
470,323,3649,5,0,0:0:0:0:
390,364,4012,2,0,P|336:375|283:356,1,99.9999999999999,2|0,0:0|0:0,0:0:0:0:
228,300,4740,2,0,P|188:267|130:255,2,99.9999999999999,2|0|2,0:0|0:0|0:0,0:0:0:0:
164,363,5830,2,0,B|110:365|60:338,1,99.9999999999999
0,271,6558,6,0,P|7:219|34:172,1,99.9999999999999,2|0,0:0|0:0,0:0:0:0:
119,185,7285,2,0,P|169:190|221:181,1,99.9999999999999,2|0,0:0|0:0,0:0:0:0:
297,139,8012,2,0,P|319:186|313:252,1,99.9999999999999,2|0,0:0|0:0,0:0:0:0:
297,321,8740,2,0,B|249:323|217:294|217:294|238:203|213:177,1,200,2|4,0:0|0:0,0:0:0:0:
93,52,10194,6,0,B|167:56|192:32|192:32|214:54|293:52,1,200,2|2,0:0|0:0,0:0:0:0:
357,104,11285,2,0,P|407:112|468:93,2,99.9999999999999,8|2|8,0:0|0:0|0:0,0:0:0:0:
282,153,12376,5,4,0:0:0:0:
207,204,12740,2,0,P|153:195|103:210,2,99.9999999999999,8|2|8,0:0|0:0|0:0,0:0:0:0:
280,255,13830,1,4,0:0:0:0:
351,310,14194,2,0,P|406:317|455:303,2,99.9999999999999,8|2|8,0:0|0:0|0:0,0:0:0:0:
281,367,15285,5,4,0:0:0:0:
212,308,15649,2,0,P|159:298|104:310,2,99.9999999999999,8|2|8,0:0|0:0|0:0,0:0:0:0:
281,367,16740,2,0,B|340:370|340:370|385:352,1,99.9999999999999,4|0,0:0|0:0,0:0:0:0:
457,311,17467,2,0,B|480:262|455:215,1,99.9999999999999,2|0,0:0|0:0,0:0:0:0:
369,182,18194,5,4,0:0:0:0:
416,107,18558,2,0,B|487:89|487:89|526:94,2,99.9999999999999,8|2|8,0:0|0:0|0:0,0:0:0:0:
326,96,19649,1,4,0:0:0:0:
253,148,20012,2,0,B|204:119|204:51,2,99.9999999999999,8|2|8,0:0|0:0|0:0,0:0:0:0:
289,231,21103,6,0,B|193:241|166:253|166:253|140:269,1,150,4|8,0:0|0:0,0:0:0:0:
86,334,22012,2,0,P|88:363|101:391,2,50,2|8|2,0:0|0:0|0:0,0:0:0:0:
59,247,22740,1,2,0:0:0:0:
114,176,23103,2,0,P|161:157|219:147,1,99.9999999999999,8|4,3:0|0:0,0:0:0:0:
346,112,24012,6,0,B|401:130|415:155|415:155|374:212|380:280,1,200,4|2,0:0|0:0,0:0:0:0:
454,313,25103,1,0,0:0:0:0:
374,355,25467,2,0,B|299:374|215:356,2,150,4|2|0,0:0|0:0|0:0,0:0:0:0:
454,313,26921,1,0,0:0:0:0:
395,244,27285,2,0,P|346:235|297:246,2,99.9999999999999
506,167,28558,6,0,P|417:60|300:149,1,300,2|2,0:0|0:0,0:0:0:0:
307,269,30194,6,0,P|245:264|205:232,1,99.9999999999999,2|0,0:0|0:0,0:0:0:0:
182,159,30921,1,2,0:0:0:0:
99,201,31285,2,0,B|63:125|126:114|103:53,2,150,2|0|0,0:0|0:0|0:0,0:0:0:0:
163,263,32740,5,2,0:0:0:0:
232,319,33103,2,0,B|264:357|285:361|285:361|334:347|374:369,2,150,0|2|0,0:0|0:0|0:0,0:0:0:0:
294,255,34558,2,0,P|356:263|399:284,2,99.9999999999999,2|0|2,0:0|0:0|0:0,0:0:0:0:
270,168,35649,6,0,B|331:146|442:200|442:200|478:180,1,200,2|0,0:0|0:0,0:0:0:0:
384,26,37103,2,0,B|344:69|312:81|312:81|250:37|182:59,1,200,2|0,0:0|0:0,0:0:0:0:
69,166,38558,6,0,B|105:191|132:287|132:287|159:209|237:155,1,300,2|0,0:0|0:0,0:0:0:0:
318,165,40012,2,0,P|371:154|419:165,1,99.9999999999999,2|0,0:0|0:0,0:0:0:0:
466,237,40740,2,0,P|428:249|359:237,1,99.9999999999999,2|0,0:0|0:0,0:0:0:0:
279,246,41467,6,0,P|281:298|243:342,1,99.9999999999999,4|8,0:0|0:0,0:0:0:0:
163,334,42194,2,0,P|135:293|137:244,1,99.9999999999999,2|8,0:0|0:0,0:0:0:0:
139,154,42921,2,0,P|145:100|175:57,1,99.9999999999999,2|8,0:0|0:0,0:0:0:0:
258,47,43649,2,0,L|328:36,2,50,2|0|8,0:0|0:0|0:0,0:0:0:0:
243,137,44376,6,0,L|342:123,1,99.9999999999999,4|8,0:0|0:0,0:0:0:0:
431,110,45103,1,2,0:0:0:0:
485,181,45467,1,8,0:0:0:0:
396,197,45830,2,0,P|382:243|388:303,1,99.9999999999999,2|8,0:0|0:0,0:0:0:0:
449,357,46558,2,0,P|482:356|515:350,2,50,2|0|8,0:0|0:0|0:0,0:0:0:0:
360,375,47285,6,0,B|313:386|278:375|278:375|256:318|276:253,1,200,4|2,0:0|0:0,0:0:0:0:
275,79,48740,2,0,B|230:122|213:188|213:188|174:145|121:158,1,200,4|2,0:0|0:0,0:0:0:0:
51,305,50194,2,0,B|99:346|143:334|143:334|201:308|247:344,1,200,4|2,0:0|0:0,0:0:0:0:
417,352,51649,2,0,B|442:288|427:259|427:259|360:228|366:173,1,200,4|2,0:0|0:0,0:0:0:0:
254,41,53103,6,0,B|193:41|146:87|146:87|118:172|43:185|43:185|0:187,2,300,4|8|0,0:0|0:0|0:0,0:0:0:0:
336,77,55649,1,8,0:0:0:0:
259,123,56012,6,0,P|214:156|197:202,1,99.9999999999999,4|8,0:0|0:0,0:0:0:0:
207,285,56740,2,0,B|239:308|239:308|283:309|319:300,1,99.9999999999999,2|8,0:0|0:0,0:0:0:0:
352,231,57467,1,2,0:0:0:0:
416,167,57830,2,0,P|482:157|522:161,2,99.9999999999999,8|2|8,0:0|0:0|0:0,0:0:0:0:
352,231,58921,6,0,P|288:235|237:214,1,99.9999999999999,4|8,0:0|0:0,0:0:0:0:
192,159,59649,1,2,0:0:0:0:
151,79,60012,2,0,P|52:95|13:178,1,200,8|8,0:0|0:0,0:0:0:0:
40,264,61103,1,2,0:0:0:0:
194,356,61830,6,0,L|311:356,1,99.9999999999999,4|8,0:0|0:0,0:0:0:0:
378,323,62558,1,2,0:0:0:0:
447,264,62921,1,8,0:0:0:0:
380,202,63285,2,0,B|341:135|421:71|421:71|396:19,2,200,4|2|4,0:0|0:0|0:0,0:0:0:0:
256,192,65830,12,4,67649,0:0:0:0:
476,98,69103,6,0,L|372:110,1,99.9999999999999,4|8,0:0|0:0,0:0:0:0:
288,127,69830,1,2,0:0:0:0:
199,141,70194,1,8,0:0:0:0:
115,173,70558,2,0,P|82:131|84:81,2,99.9999999999999,2|8|2,0:0|0:0|0:0,0:0:0:0:
184,230,71649,1,8,0:0:0:0:
273,226,72012,6,0,B|325:217|376:232,2,99.9999999999999,4|8|2,0:0|0:0|0:0,0:0:0:0:
183,230,73103,1,8,0:0:0:0:
106,278,73467,2,0,B|101:333|130:380,2,99.9999999999999,4|8|2,0:0|0:0|0:0,0:0:0:0:
95,188,74558,2,0,P|114:141|158:110,1,99.9999999999999,8|2,0:0|0:0,0:0:0:0:
239,87,75285,5,8,0:0:0:0:
329,85,75649,2,0,P|384:77|430:88,2,99.9999999999999,2|8|2,0:0|0:0|0:0,0:0:0:0:
198,208,77103,2,0,P|270:273|369:256,1,200,8|2,0:0|0:0,0:0:0:0:
426,88,78558,1,2,0:0:0:0:
338,66,78921,1,8,0:0:0:0:
249,51,79285,6,0,B|201:35|162:47|162:47|120:99|51:98,1,200,4|2,0:0|0:0,0:0:0:0:
20,174,80376,1,8,0:0:0:0:
9,263,80740,1,4,0:0:0:0:
59,338,81103,2,0,P|97:369|148:372,2,99.9999999999999,8|2|8,0:0|0:0|0:0,0:0:0:0:
98,257,82194,6,0,B|171:254|194:233|194:233|213:255|299:254,1,200,4|2,0:0|0:0,0:0:0:0:
379,266,83285,2,0,P|382:309|346:371,2,99.9999999999999,8|4|8,0:0|0:0|0:0,0:0:0:0:
378,175,84376,2,0,B|379:127|379:127|376:78|337:85,1,99.9999999999999,2|8,0:0|0:0,0:0:0:0:
270,53,85103,6,0,P|164:86|108:158,1,200,4|8,0:0|3:0,0:0:0:0:
188,315,86558,2,0,B|282:308|282:308|321:236|387:233,1,200,4|8,0:0|3:0,0:0:0:0:
494,120,88012,2,0,B|487:72|453:36|453:36|394:72|338:61,1,200,4|8,0:0|3:0,0:0:0:0:
173,72,89467,2,0,B|120:82|85:112|85:112|83:180|37:230,1,200,4|8,0:0|3:0,0:0:0:0:
66,297,90558,2,0,P|114:277|143:233,1,99.9999999999999,8|2,0:0|0:0,0:0:0:0:
256,192,91285,12,4,93830,0:0:0:0:
155,153,95285,6,0,B|208:133|208:133|319:153,1,150,4|2,0:0|0:0,0:0:0:0:
385,178,96194,1,2,0:0:0:0:
256,192,96740,12,4,98194,0:0:0:0:
