osu file format v6

[General]
AudioFilename: Kimi no Shiranai Monogatari.mp3
AudioLeadIn: 0
PreviewTime: 42636
Countdown: 1
SampleSet: Soft
StackLeniency: 0.7
Mode: 0
LetterboxInBreaks: 1

[Editor]
Bookmarks: 42272,112454
DistanceSpacing: 1
BeatDivisor: 4
GridSize: 8

[Metadata]
Title:Kimi no Shiranai Monogatari
Artist:supercell
Creator:Ex Boy
Version:Ex Normal
Source:Bakemonogatari
Tags:

[Difficulty]
HPDrainRate:0
CircleSize:4
OverallDifficulty:3
SliderMultiplier:1.2
SliderTickRate:1

[Events]
//Background and Video events
0,0,"BG.jpg"
//Break Periods
//Storyboard Layer 0 (Background)
//Storyboard Layer 1 (Fail)
//Storyboard Layer 2 (Pass)
//Storyboard Layer 3 (Foreground)
//Storyboard Sound Samples
//Background Colour Transformations
3,100,163,162,255

[TimingPoints]
13182,363.636363636364,4,2,0,100,1,0

[Colours]
Combo1 : 200,38,38
Combo2 : 158,62,255
Combo3 : 0,0,0

[HitObjects]
63,66,42636,1,2
130,165,43000,1,0
195,65,43363,1,2
261,164,43727,1,0
334,68,44091,2,0,B|463:68,1,120,2|0
381,163,44818,2,0,B|507:163,1,120,2|0
480,281,45545,5,2
382,350,45909,1,0
285,279,46272,1,2
187,349,46636,1,0
88,279,47000,1,2
183,206,47363,2,0,B|107:188|96:96,1,120,0|2
85,68,47909,1,0
239,159,48454,6,0,B|368:159,1,120,2|0
357,37,49182,2,0,B|357:165,1,120,2|0
477,158,49909,2,0,B|355:158,1,120,2|0
357,278,50636,2,0,B|357:151,1,120,2|0
241,192,51363,2,0,B|109:192,2,120,2|0|2
301,192,52272,1,0
361,193,52454,1,0
421,194,52636,2,0,B|415:125|342:97,3,120
182,47,54272,5,8
155,100,54454,1,0
107,136,54636,1,0
91,194,54818,2,8,B|28:224,2,60,8|0|8
140,216,55363,1,0
152,274,55545,1,0
107,313,55727,1,8
144,359,55909,1,0
204,359,56091,2,0,B|283:359,1,60
384,359,56636,1,0
481,288,57000,5,0
481,227,57182,2,0,B|481:143,3,60,8|0|0|0
481,106,57909,1,8
462,48,58091,1,0
406,26,58272,1,0
370,74,58454,2,0,B|330:63|296:112,2,60,0|8|0
397,127,59000,1,0
338,138,59182,2,0,B|343:173|301:204,2,60,0|8|0
159,116,60091,6,0,B|303:116,1,120,8|0
158,116,60818,2,0,B|157:244,1,120,8|0
96,133,61545,2,0,B|95:261,1,120,8|0
35,155,62272,2,0,B|34:283,1,120,8|0
35,155,63000,6,0,B|167:155,1,120,8|0
54,89,63727,2,0,B|186:89,1,120,8|0
72,24,64454,2,0,B|204:24,1,120,8|0
91,89,65182,2,0,B|223:89,1,120,8|0
255,200,65909,2,8,B|212:242|132:162|171:86|311:86|408:148|388:231|338:289|276:341|155:309|106:248|84:179|95:20|246:8|366:57|380:138|379:196|353:239,1,780,8|0
348,276,68454,5,8
239,327,68818,1,0
129,276,69182,1,8
241,234,69545,2,0,B|242:106,2,120,0|8|0
353,191,70636,5,8
473,194,71000,1,0
412,90,71363,1,8
352,194,71727,1,0
283,95,72091,1,8
163,92,72454,1,0
57,34,72818,2,0,B|57:225,1,180,8|0
57,274,73545,1,8
141,358,73909,2,0,B|281:358,1,120,0|8
256,192,74636,12,0,75727
336,136,76091,6,0,B|271:95|216:96|152:138,1,180,8|0
167,188,76818,2,0,B|228:223|292:224|344:189,1,180,8|0
395,173,77545,2,0,B|130:173,1,240,8|8
34,176,78636,5,0
34,176,78818,1,0
34,176,79000,1,8
103,273,79363,1,0
103,273,79545,1,0
211,324,79909,1,0
330,324,80272,2,0,B|372:286|401:254|375:205|293:182|274:131|368:63,1,300
241,42,81545,5,8
164,134,81909,1,0
241,225,82272,1,8
165,318,82636,1,0
241,225,83000,1,8
354,192,83363,2,0,B|320:168|408:112|328:64,2,120,0|8|0
354,192,84454,5,8
233,192,84818,2,0,B|101:192,1,120,0|8
52,192,85363,1,0
113,88,85727,1,0
233,90,86091,2,2,B|311:90|349:24,5,120
480,194,88454,5,8
410,291,88818,1,0
340,192,89182,2,0,B|268:307,1,120,8|0
276,293,89727,1,0
276,293,89909,1,8
96,291,90454,5,0
96,291,90636,2,0,B|96:152,1,120,8|0
35,172,91182,1,0
35,172,91363,2,0,B|32:94|114:70,1,120,8|0
154,77,91909,2,0,B|298:77,2,120
334,78,93182,5,8
453,78,93545,1,0
394,182,93909,1,8
394,182,94091,1,0
398,301,94454,1,0
290,353,94818,2,0,B|238:294|299:238,2,120
117,300,96091,5,8
117,300,96272,1,0
117,300,96454,1,0
29,217,96818,1,8
29,217,97000,1,0
29,97,97363,1,0
123,22,97727,2,0,B|180:59|180:109|112:149|83:176|148:236,1,240,8|0
318,193,99000,5,8
437,192,99363,2,0,B|422:302|345:363|193:312,1,300
159,296,100454,1,8
112,257,100636,2,0,B|49:219|73:137,2,120
127,77,101909,5,8
246,75,102272,2,0,B|316:61|407:59|460:128|450:225,1,300
432,276,103363,1,8
371,277,103545,2,0,L|318:346,2,60
310,276,104091,2,0,L|257:345,2,60,8|0|0
249,275,104636,2,0,L|196:344,2,60,0|8|0
188,272,105182,2,0,L|135:341,2,60,0|0|8
228,227,105727,2,0,L|282:163,2,60
167,227,106272,2,0,L|223:164,2,60,8|0|0
106,226,106818,2,0,L|162:163,2,60,0|8|0
44,56,107727,5,8
159,21,108091,2,0,B|236:19|262:81,1,120,0|8
263,133,108636,1,0
197,233,109000,1,0
256,192,109363,12,0,112454
