osu file format v6

[General]
AudioFilename: Kimi no Shiranai Monogatari.mp3
AudioLeadIn: 0
PreviewTime: 42636
Countdown: 1
SampleSet: Soft
StackLeniency: 0.7
Mode: 0
LetterboxInBreaks: 1

[Editor]
DistanceSpacing: 1
BeatDivisor: 4
GridSize: 8

[Metadata]
Title:Kimi no Shiranai Monogatari
Artist:supercell
Creator:Ex Boy
Version:Ex Hard
Source:Bakemonogatari
Tags:

[Difficulty]
HPDrainRate:5
CircleSize:5
OverallDifficulty:7
SliderMultiplier:1.4
SliderTickRate:1

[Events]
//Background and Video events
0,0,"BG.jpg"
//Break Periods
2,28291,41736
2,110836,113372
//Storyboard Layer 0 (Background)
//Storyboard Layer 1 (Fail)
//Storyboard Layer 2 (Pass)
//Storyboard Layer 3 (Foreground)
Sprite,Foreground,Centre,"turn left.png",320,240 M,0,174091,174454,245,174 M,0,174454,176454,245,174
//Storyboard Sound Samples
//Background Colour Transformations
3,100,163,162,255

[TimingPoints]
13182,363.636363636364,4,2,1,100,1,0
52636,-200,4,2,1,100,0,0
53909,-100,4,2,1,100,0,0
66272,-100,4,1,0,69,0,0
68272,-100,4,2,1,100,0,0
76091,-200,4,2,1,100,0,0
76636,-100,4,2,1,100,0,0
76818,-200,4,2,1,100,0,0
77363,-100,4,2,1,100,0,0
83182,-50,4,2,1,100,0,0
84091,-100,4,2,1,100,0,0
91909,-50,4,2,1,100,0,0
92818,-100,4,2,1,100,0,0
104091,-100,4,1,0,75,0,0
107727,-100,4,2,1,100,0,0
114272,-100,4,1,0,74,0,0
115363,-100,4,2,1,100,0,0
124091,-200,4,2,1,100,0,0
124818,-100,4,2,1,100,0,0
138636,-50,4,2,1,100,0,0
139545,-100,4,2,1,100,0,0
139909,-100,4,1,0,78,0,0
141363,-100,4,2,1,100,0,0
145545,-200,4,2,1,100,0,0
146091,-100,4,2,1,100,0,0
146272,-200,4,2,1,100,0,0
146636,-100,4,2,1,100,0,0
164818,-50,4,2,1,100,0,0
165545,-100,4,2,1,100,0,0
167545,-200,4,2,1,100,0,0
168272,-100,4,2,1,100,0,0
170454,-200,4,2,1,100,0,0
171182,-100,4,2,1,100,0,0
171727,-200,4,2,1,100,0,0
172091,-100,4,2,1,100,0,0
173363,-200,4,2,1,100,0,0
174091,-100,4,2,1,100,0,0
176818,-100,4,1,0,79,0,0
180454,-100,4,2,1,100,0,0
190818,-100,4,1,0,100,0,0
191545,-100,4,2,1,100,0,0
195363,-200,4,2,1,100,0,0
196454,-100,4,2,1,100,0,0
200091,-200,4,2,1,100,0,0
200818,-100,4,2,1,100,0,0
211363,-100,4,1,0,70,0,0
215000,-100,4,2,1,100,0,0
225182,-100,4,1,0,81,0,0
226272,-100,4,2,1,100,0,0

[Colours]
Combo1 : 200,38,38
Combo2 : 158,62,255
Combo3 : 0,0,0

[HitObjects]
62,65,13545,1,0
130,81,13727,1,0
181,128,13909,1,0
230,178,14091,2,0,B|261:143|244:95,1,70,0|0
200,62,14454,1,0
268,49,14636,1,0
250,116,14818,2,0,B|305:129|329:77,3,70,0|0|0|0
347,38,15545,2,0,B|393:62|379:113,1,70
382,93,15909,2,0,B|365:141|420:177,1,70
451,114,16272,5,0
468,181,16454,1,0
415,227,16636,1,0
466,274,16818,2,0,B|485:305,2,35
400,298,17182,2,0,B|358:288|349:248,1,70
360,184,17545,1,0
289,184,17727,1,0
248,127,17909,2,0,B|288:99,2,35
206,70,18272,2,0,B|206:146,1,70,0|0
208,280,18818,1,0
293,46,19363,6,0,B|381:48|404:129,1,140
488,228,20091,2,0,B|485:307|394:334,1,140
270,296,20818,2,0,B|210:297|171:267|159:212,1,140
256,123,21545,1,0
256,123,22272,2,0,B|203:208|318:231|255:322,1,210,0|0
211,265,23000,2,0,B|185:221|169:181|168:129|191:99|208:75|229:59,1,210,0|0
277,38,23727,2,0,B|327:39|348:83,1,70,0|0
381,122,24091,2,0,B|414:144|391:205,1,70
375,251,24454,2,0,B|355:286|314:300,1,70,0|0
304,228,24818,1,0
206,127,25182,1,0
256,192,25363,12,0,28091
256,33,42636,5,2
221,93,42818,1,0
291,93,43000,1,0
255,153,43182,1,0
255,222,43363,2,0,B|226:254|284:261|247:309,1,70,2|0
214,341,43727,2,0,B|176:362|132:330,1,70
89,299,44091,2,0,B|64:229|129:246|85:162,1,140,2|0
86,95,44636,1,0
226,94,45000,1,0
355,41,45363,5,0
413,79,45545,1,2
447,140,45727,1,0
447,210,45909,2,0,B|414:242|464:258|440:295,1,70
395,321,46272,1,2
325,316,46454,1,0
262,284,46636,1,0
210,236,46818,1,0
173,100,47182,1,0
173,100,47363,1,0
102,101,47545,1,0
242,103,47909,1,0
463,234,48454,6,0,B|463:277|445:323|374:338,1,140,2|0
39,126,49182,2,0,B|43:75|77:37|136:40,1,140,2|0
468,137,49909,2,0,B|462:91|422:46|363:44,1,140,2|0
38,241,50636,2,0,B|39:305|91:337|144:334,1,140,2|0
256,191,51363,2,0,B|270:213|263:236|193:232|187:186|219:143|286:114|317:186|320:247|272:282|211:263|189:233,1,280,2|2
195,240,52272,1,0
195,240,52454,1,0
158,180,52636,2,0,B|151:137|177:79|251:55|331:102,1,210
402,275,54272,5,2
402,275,54454,1,0
331,276,54636,1,0
331,276,54818,2,0,B|292:246|293:300|258:268,2,70,0|2|0
299,213,55363,2,0,B|262:188|253:254|212:199|212:199,2,70,0|0|2
303,142,55909,1,0
308,72,56091,2,0,B|331:33|277:25|307:-7,2,70,0|0|2
304,142,56636,1,0
115,49,57000,5,0
115,49,57182,2,0,B|66:49|68:97,2,70,2|0|0
124,118,57727,2,0,B|122:165|67:159,2,70,0|2|0
181,77,58272,1,0
181,77,58454,1,0
183,217,58818,1,0
183,217,59000,1,0
183,217,59182,2,0,B|151:259|203:274|172:312,2,70,0|2|0
181,146,59727,1,0
313,192,60091,6,0,B|469:192,1,140,2|0
312,192,60818,2,0,B|312:49,1,140,2|0
312,192,61545,2,0,B|163:192,1,140,2|0
312,192,62272,2,0,B|278:260|343:260|305:334,1,140,2|0
168,326,63000,2,0,B|168:179,1,140,2|0
103,310,63727,2,0,B|176:176,1,140,2|0
52,263,64454,2,0,B|179:181,1,140,2|0
29,187,65182,2,0,B|178:187,1,140,2|0
309,187,65909,1,6
448,208,66272,5,0
448,208,66454,1,0
428,142,66636,1,8
428,142,66818,1,0
370,101,67000,1,0
370,101,67182,1,0
304,77,67363,1,8
304,77,67545,2,0,B|262:49|229:86,2,70
269,138,68091,1,8
269,138,68272,1,0
331,169,68454,6,0,B|321:212|254:211,1,70
279,209,68818,2,0,B|231:200|201:255,1,70,2|0
216,232,69182,2,0,B|174:245|132:219,1,70
147,226,69545,2,0,B|113:203|106:163,1,70,2|0
104,99,69909,1,0
284,312,70636,6,0,B|357:312,1,70
283,312,71000,2,0,B|348:242,1,70,2|0
283,312,71363,2,0,B|283:220,1,70
283,312,71727,2,0,B|229:264,1,70,2|0
283,312,72091,2,0,B|203:312,1,70
142,310,72454,1,2
46,207,72818,2,0,B|68:157|117:135|181:137|203:215,1,210
272,211,73545,1,0
412,209,73909,1,2
256,192,74636,12,0,75909
255,192,76091,6,0,B|219:166|287:151|248:95,1,105,2|0
250,26,76818,2,0,B|191:28|168:75|177:120,1,105,2|0
256,192,77545,12,2,78272
255,194,78636,5,0
255,194,78818,1,0
256,264,79000,1,2
254,124,79363,1,0
254,124,79545,1,0
375,194,79909,1,0
256,192,80272,12,0,81182
256,64,81545,5,2
256,204,81909,2,0,B|256:284,1,70
256,274,82272,1,2
256,274,82454,2,0,B|209:266|179:235|185:190|200:156,1,140
258,45,83182,2,0,L|246:53|268:53|246:61|268:61|246:69|268:69|246:77|268:77|246:85|268:85|246:93|268:93|246:101|268:101|246:108|268:108|246:116|268:116|246:124|268:124|246:131|268:131|246:138|268:138|246:145|268:145|246:152|268:152|246:159|268:159|246:166|268:166|255:179,1,700
403,193,84454,5,2
400,52,84818,1,0
464,176,85182,1,2
464,176,85363,1,0
441,314,85727,2,0,B|388:343|341:341|298:281,1,140
246,321,86272,2,0,B|178:281,1,70
253,258,86636,2,0,B|188:220,1,70,2|0
258,197,87000,2,0,B|184:154,1,70
262,135,87363,2,0,B|198:98,1,70,2|0
131,95,87727,2,0,B|131:43,2,35
60,96,88091,2,0,B|60:53,2,35,2|0|0
60,166,88454,5,0
145,276,88818,1,2
233,167,89182,1,0
442,164,89727,1,2
442,164,89909,1,2
241,102,90454,1,2
241,102,90636,1,2
414,220,91182,1,2
414,220,91363,1,2
296,144,91727,1,2
296,144,91909,2,0,L|284:152|306:152|284:160|306:160|284:168|306:168|284:176|306:176|284:184|306:184|284:192|306:192|284:200|306:200|284:207|306:207|284:215|306:215|284:223|306:223|284:230|306:230|284:237|306:237|284:244|306:244|284:251|306:251|284:258|306:258|284:265|306:265|293:278,1,700
162,320,93182,5,2
230,320,93363,1,0
162,320,93545,2,0,B|108:325|77:263|81:266,1,70
61,234,93909,1,2
54,164,94091,2,0,B|41:120|78:91,2,70
122,148,94636,1,2
174,101,94818,2,0,B|203:137|185:173,2,70
217,46,95363,1,2
217,46,95545,1,0
247,109,95727,1,0
247,109,95909,1,0
289,52,96091,5,2
289,52,96272,1,0
322,113,96454,2,0,B|364:87|360:29,2,70,0|0|2
322,183,97000,2,0,B|364:177|392:134,1,70
381,148,97363,2,0,B|422:186|426:220,1,70,0|2
422,274,97727,6,0,B|132:274,1,280
118,208,98636,2,0,B|96:134,1,70
81,72,99000,1,2
151,69,99182,1,0
220,68,99363,2,0,B|363:68,2,140,0|2|0
220,138,100272,1,0
221,208,100454,1,2
256,192,100636,12,0,101545
256,39,101909,5,2
256,40,102091,1,0
257,110,102272,2,0,B|319:150,1,70
256,186,102636,2,0,B|198:229,1,70,2|0
258,266,103000,2,0,B|318:306,1,70
257,343,103363,2,0,B|191:297,1,70,2|0
259,265,103727,2,0,B|324:217,1,70
310,153,104091,5,8
310,153,104272,1,0
253,111,104454,1,0
253,111,104636,1,0
189,80,104818,1,8
189,80,105000,1,0
119,67,105182,1,0
119,67,105363,1,0
49,78,105545,1,8
49,78,105727,1,0
89,135,105909,6,0,B|136:197,1,70
146,122,106272,2,0,B|194:182,1,70,8|0
206,108,106636,2,0,B|256:166,1,70
270,93,107000,2,0,B|321:149,1,70,8|0
332,76,107363,1,0
332,76,107545,1,0
388,117,107727,6,0,B|430:107|421:45,2,70,2|0|0
346,173,108272,1,0
303,228,108454,1,2
257,282,108636,1,0
188,159,109000,1,0
327,160,109363,1,0
256,192,109454,12,0,110636
78,69,114272,5,0
78,69,114454,1,0
50,133,114636,1,8
50,133,114818,1,0
100,182,115000,1,0
100,182,115182,1,0
158,143,115363,5,2
158,143,115545,1,0
148,73,115727,1,0
148,73,115909,1,0
213,99,116091,1,2
213,99,116272,1,0
222,168,116454,1,0
222,168,116636,1,0
172,217,116818,2,0,B|130:218|103:189,2,70,2|0|0
172,217,117363,2,0,B|217:258|266:222,1,70,0|2
236,237,117727,2,0,B|283:228|295:176,1,70
310,128,118091,5,0
354,74,118272,1,2
354,74,118454,1,0
420,94,118636,1,0
420,94,118818,1,0
420,94,119000,1,2
378,150,119182,1,0
378,150,119363,1,0
378,150,119545,1,0
378,150,119727,2,0,B|410:182|460:156,1,70,2|0
418,229,120091,2,0,B|386:263|357:221,3,70,0|0|2|0
139,194,121182,6,0,B|203:152|235:225|295:191,1,140,2|0
139,194,121909,2,0,B|194:227|240:136|281:218,1,140,2|0
409,194,122636,2,0,B|352:166|320:228|265:198,1,140,2|0
409,194,123363,2,0,B|356:236|312:160|268:210,1,140,2|0
277,200,123909,1,0
276,201,124091,2,0,B|229:176|200:154|182:114|207:75|215:66,1,140,2|2
201,95,125000,1,0
244,40,125182,1,0
311,56,125363,5,0
368,96,125545,2,0,B|368:168,1,70,2|0
431,134,125909,2,0,B|430:217,1,70
370,167,126272,2,0,B|370:246,1,70,2|0
431,203,126636,2,0,B|431:279,1,70
381,322,127000,6,0,C|298:302,1,70,2|0
298,238,127363,1,0
240,277,127545,1,0
185,321,127727,1,2
135,271,127909,1,0
190,227,128091,1,0
238,276,128272,1,0
297,238,128454,1,2
249,186,128636,1,0
203,133,128818,1,0
262,95,129000,2,0,B|318:156,1,70,0|2
354,199,129363,1,0
261,94,129727,5,0
261,94,129909,1,2
261,94,130091,1,0
209,47,130272,1,0
209,47,130454,1,0
141,65,130636,1,2
141,65,130818,2,0,B|112:38|89:84|56:59,2,70
141,135,131363,2,0,B|113:109|88:156|61:129,2,70,2|0|0
142,205,131909,2,0,B|117:182|94:225|66:207,1,70,0|2
76,211,132272,2,0,B|76:299,1,70
216,281,132818,6,0,B|216:216|296:240|288:152,1,140,2|0
400,240,133545,2,0,B|335:240|359:160|271:168,1,140,2|0
360,56,134272,2,0,B|360:121|280:97|288:185,1,140,2|0
176,96,135000,2,0,B|241:96|217:176|305:168,1,140,2|0
154,52,135727,6,0,B|87:130|19:27,1,140,2|0
36,50,136454,2,0,B|87:113|39:182,1,140,2|0
165,179,137182,2,0,B|110:116|159:49,1,140,2|0
165,179,137909,2,0,B|94:131|29:188,1,140,2|0
167,178,138636,2,0,L|182:162|182:188|190:162|190:188|198:162|198:188|206:162|206:188|214:162|214:188|222:162|222:188|230:162|230:188|238:162|238:188|246:162|246:188|254:162|254:188|262:162|263:188|270:162|270:188|278:162|278:188|286:162|286:188|294:162|294:188|302:162|302:188|324:174|324:174,1,840,2|0
350,233,139909,5,0
395,179,140091,1,8
464,180,140272,1,0
428,119,140454,1,0
394,180,140636,1,0
430,239,140818,1,8
359,241,141000,1,0
326,178,141182,1,0
357,115,141363,6,0,B|339:77|295:66,2,70,0|2|0
326,178,141909,1,0
255,177,142091,1,0
288,116,142272,2,0,B|248:94|212:123,2,70,2|0|0
323,55,142818,1,0
252,55,143000,1,2
181,53,143182,1,0
111,54,143363,6,0,B|69:119,1,70
143,107,143727,2,0,B|105:170,1,70,2|0
177,161,144091,2,0,B|140:226,1,70
212,215,144454,2,0,B|255:140,1,70,2|0
278,217,144818,2,0,B|319:148,1,70
343,220,145182,2,0,B|383:153,1,70,2|0
410,97,145545,6,0,B|442:84|475:123|466:149|444:191,1,105
422,230,146272,2,0,B|371:316,1,70,0|0
256,192,147363,12,0,148454
256,192,148818,12,0,149909
256,192,150272,12,0,151000
256,94,151363,5,2
256,94,151545,1,0
256,164,151727,1,0
257,304,152091,1,2
256,232,152272,2,0,B|208:200|144:216|136:272,1,140
184,312,152818,1,2
256,304,153000,2,0,B|327:353|406:291,1,140
429,248,153545,1,2
429,248,153727,1,0
435,178,153909,1,0
434,179,154091,1,0
430,109,154272,6,0,B|462:84|394:67|440:33,2,70,2|0|0
359,110,154818,2,0,B|387:80|328:62|372:40,2,70,0|2|0
288,112,155363,2,0,B|316:82|257:64|301:42,2,70,0|0|2
217,108,155909,2,0,B|141:108,1,70
185,166,156272,2,0,B|263:166,1,70,0|2
217,225,156636,2,0,B|144:225,1,70
287,227,157182,5,2
426,227,157545,2,0,B|289:160,1,140,0|2
299,165,158091,1,0
300,165,158454,1,0
300,94,158636,1,2
356,138,158818,2,0,B|403:128|451:172|424:237,1,140
380,278,159363,2,0,B|325:355,1,70,2|0
300,276,159727,2,0,B|254:340,1,70
219,274,160091,2,0,B|173:338,1,70,2|0
139,272,160454,2,0,B|93:336,1,70
73,262,160818,2,0,L|49:186,1,70,2|0
33,128,161182,5,2
172,128,161545,1,0
312,128,161909,2,0,B|368:102|398:159|453:123,1,140,2|0
447,126,162636,2,0,B|415:101|355:167|303:121,1,140,2|0
312,128,163182,1,0
312,128,163363,2,0,B|273:193|353:202|305:265,1,140,2|0
187,189,164091,1,2
326,192,164454,1,0
257,314,164818,2,0,L|269:306|247:306|269:298|247:298|269:290|247:290|269:282|247:282|269:274|247:274|269:266|247:266|269:258|247:258|269:251|247:251|269:243|247:243|269:235|247:235|269:228|247:228|269:221|247:221|260:195,1,560,2|2
259,198,165909,5,0
213,66,166272,1,2
352,101,166636,1,0
352,101,166818,1,0
364,240,167182,1,2
234,186,167545,2,0,B|185:222|149:148|77:199,1,140
309,186,168818,5,2
311,326,169182,1,0
450,324,169545,1,2
450,253,169727,2,0,B|366:253,1,70
380,253,170091,2,0,B|282:253,1,70,0|2
310,253,170454,2,0,B|164:253,1,140
307,93,171727,2,0,B|307:166,3,70,2|0|2|0
431,97,173182,5,2
430,97,173363,2,0,B|287:97,1,140
258,34,174272,1,0
255,174,174636,6,0,B|230:150|223:136|197:135|178:135|147:138|131:167|123:178|110:224|126:250|148:274|181:290|222:284|245:312|253:319|257:337|257:337|258:322|264:311|287:298|323:290|359:278|381:256|397:220|396:195|380:167|371:149|336:129|316:135|282:150|263:152|251:189,1,700
257,30,176818,5,8
256,30,177000,1,0
190,54,177182,1,0
190,54,177363,1,0
125,80,177545,1,8
125,80,177727,1,0
59,105,177909,1,0
59,105,178091,1,0
58,173,178272,6,0,B|53:211|100:222,1,70
109,152,178635,2,0,B|104:190|151:201,1,70,8|0
161,131,178999,2,0,B|156:169|203:180,1,70
214,110,179363,2,0,B|209:148|256:159,1,70,8|0
254,159,179727,1,8
254,159,179909,1,0
254,159,180272,1,0
324,159,180454,5,2
254,37,180818,2,0,B|222:94|285:133|250:182,1,140,0|2
256,174,181363,1,0
257,244,181545,2,0,B|257:319,1,70
256,192,182091,12,0,184818
256,192,185182,12,0,188091
168,230,188454,6,0,B|214:239|222:288,2,70,2|0|0
168,230,189000,2,0,B|123:221|124:168,2,70,0|2|0
168,230,189545,2,0,B|185:189|229:185,2,70,0|0|2
168,230,190091,2,0,B|159:274|99:288,2,70
168,230,190636,1,2
169,159,190818,5,0
166,88,191000,1,0
167,89,191182,1,0
236,91,191363,1,12
306,91,191545,6,0,B|308:46|267:28,2,70
306,91,192091,2,0,B|359:89|371:40,2,70,2|0|0
306,91,192636,2,0,B|322:143|377:150,2,70,0|2|0
306,91,193182,2,0,B|249:91|248:139,2,70,0|0|2
306,91,193727,1,0
308,161,193909,6,0,B|236:198,1,70,0|0
308,223,194272,2,0,B|240:255,1,70,2|0
307,283,194636,2,0,B|238:317,1,70
310,338,195000,2,0,B|394:300,1,70,2|0
373,309,195363,2,0,B|428:283|461:241|462:187|423:122,1,210
380,85,196636,6,0,B|303:85,1,70,0|2
240,85,197000,2,0,B|157:85,1,70,0|0
105,113,197363,2,0,B|55:179,1,70,0|2
63,239,197727,2,0,B|116:297,1,70
160,241,198091,2,0,B|257:241,1,70,0|2
210,174,198454,2,0,B|299:174,1,70
346,149,198818,1,0
346,149,199000,2,0,B|400:97,2,70,2|0|0
343,218,199545,1,0
343,218,199727,1,2
312,81,200091,6,0,B|264:52|226:115|171:65,1,140
114,40,201000,1,0
68,92,201182,1,2
114,143,201363,1,0
68,196,201545,1,2
115,247,201727,1,0
67,298,201909,2,0,B|107:333|156:304,1,70,2|0
131,314,202272,2,0,B|184:308|181:249,1,70,2|0
256,75,203000,5,2
383,132,203363,1,0
259,198,203727,1,2
259,198,203909,1,0
329,196,204091,2,0,B|379:196,2,35
329,266,204454,2,0,B|420:266,2,70,2|0|0
258,267,205000,1,0
187,267,205182,2,0,B|161:245|129:288|97:254,1,70,2|0
49,263,205545,2,0,B|60:213|95:188,7,70,0|0|0|0|0|0|0|0
125,147,207000,2,0,B|98:138|116:110|149:116|139:141|124:152,1,70
337,138,207727,5,2
409,18,208091,1,0
478,137,208454,2,0,B|463:182|397:185,7,70,2|0|0|0|2|0|0|0
362,153,209909,2,0,B|354:200|387:230,5,70,2|0|0|0|2|0
446,226,211000,2,0,B|437:273|381:286,1,70
340,308,211363,6,0,B|298:307|295:254,1,70,8|0
298,262,211727,2,0,B|280:215|227:211,1,70,0|0
249,215,212091,2,0,B|202:207|185:162,1,70,8|0
192,177,212454,2,0,B|190:132|146:123,1,70
153,124,212818,2,0,B|109:123|104:77,1,70,8|0
104,82,213182,2,0,B|104:30|149:30,1,70
140,30,213545,2,0,B|184:14|211:68,1,70,8|0
200,50,213909,2,0,B|220:97|180:118,1,70
138,162,214272,2,0,B|111:190,6,35,8|0|0|0|0|0|0
168,225,215000,6,0,B|211:298,1,70,2|0
240,344,215363,1,0
368,287,215727,1,2
489,216,216091,1,0
433,87,216454,1,2
298,49,216818,1,0
298,49,217000,1,0
94,98,217545,2,0,B|65:72,2,35,2|0|0
139,151,217909,1,0
37,334,218454,5,0
199,201,219000,2,0,B|140:247,2,70,2|0|0
305,109,219727,1,2
418,27,220091,2,0,B|418:107,1,70
420,167,220454,1,2
464,220,220636,2,0,B|464:297,2,70
420,167,221182,5,2
257,34,221727,1,0
258,174,222091,1,0
82,59,222636,1,2
135,104,222818,1,0
83,151,223000,1,0
132,201,223182,2,0,C|110:235|73:247,2,70,0|2|0
182,152,223727,2,0,C|277:152,1,70
322,151,224091,1,2
391,152,224272,2,0,C|391:113,6,35,0|0|0|0|0|0|2
257,194,225182,5,0
257,194,225363,5,8
257,194,225909,5,0
257,194,226091,5,8
257,194,226636,5,4
