osu file format v12

[General]
AudioFilename: Kare.mp3
AudioLeadIn: 0
PreviewTime: 58439
Countdown: 1
SampleSet: Normal
StackLeniency: 0.7
Mode: 0
LetterboxInBreaks: 1
WidescreenStoryboard: 1

[Editor]
DistanceSpacing: 1
BeatDivisor: 4
GridSize: 4

[Metadata]
Title:Kare
TitleUnicode:Kare
Artist:supercell
ArtistUnicode:supercell
Creator:hersa37
Version:Normal
Source:
Tags:
BeatmapID:339520
BeatmapSetID:135541

[Difficulty]
HPDrainRate:5
CircleSize:5
OverallDifficulty:5
ApproachRate:5
SliderMultiplier:1.4
SliderTickRate:1

[Events]
//Background and Video events
0,0,"cover.jpg",0,0
//Break Periods
2,134137,136600
//Storyboard Layer 0 (Background)
//Storyboard Layer 1 (Fail)
//Storyboard Layer 2 (Pass)
//Storyboard Layer 3 (Foreground)
//Storyboard Sound Samples
//Background Colour Transformations
3,100,163,162,255

[TimingPoints]
755.252898584865,454.545454545455,4,1,0,100,1,0

[Colours]
Combo1 : 242,250,201
Combo2 : 255,135,248
Combo3 : 135,183,255
Combo4 : 135,255,172
Combo5 : 255,169,135

[HitObjects]
64,104,755,2,0,P|116:68|268:72,1,210
324,96,1664,2,0,P|396:160|420:200,1,140
408,336,2573,6,0,B|320:328|252:288|236:240|248:200,1,210
192,180,3482,2,0,B|124:200|76:256|104:284,1,140
72,132,4391,6,0,B|88:76|136:52|176:44|232:44|264:48,1,210
312,68,5300,2,0,P|396:112|432:144,1,140
304,204,6209,5,0,0:0:0:0:
244,240,6437,1,0,0:0:0:0:
184,276,6664,1,0,0:0:0:0:
136,224,6891,2,0,L|108:152,3,70
236,92,8027,5,0,0:0:0:0:
308,88,8255,1,0,0:0:0:0:
372,116,8482,2,0,L|336:192,3,70
316,244,9391,1,0,0:0:0:0:
180,216,9846,5,0,0:0:0:0:
144,156,10074,1,0,0:0:0:0:
124,88,10301,2,0,L|220:68,3,70
264,68,11210,1,0,0:0:0:0:
404,76,11664,5,0,0:0:0:0:
396,144,11892,1,0,0:0:0:0:
360,204,12119,2,0,L|308:272,3,70
272,316,13028,1,0,0:0:0:0:
448,60,14164,5,0,0:0:0:0:
412,120,14391,2,0,B|404:216|380:280|300:320|176:328,1,350
112,308,15755,2,0,P|56:288|48:256,1,70
44,212,16209,1,0,0:0:0:0:
184,192,16664,5,0,0:0:0:0:
248,204,16891,2,0,P|304:220|332:224,3,70
360,168,17800,2,0,L|304:124,1,70
244,92,18255,5,0,0:0:0:0:
176,72,18482,1,0,0:0:0:0:
112,104,18709,2,0,P|68:160|84:300,1,210
132,336,19618,2,0,L|212:328,1,70
80,160,21437,5,0,0:0:0:0:
144,132,21664,1,0,0:0:0:0:
208,104,21891,2,0,P|268:80|288:80,1,70
332,116,22346,1,0,0:0:0:0:
396,144,22573,2,0,P|448:196|456:216,1,70
460,260,23027,1,0,0:0:0:0:
208,148,23937,6,0,P|152:156|120:180,1,70
84,204,24391,1,0,0:0:0:0:
56,268,24618,1,0,0:0:0:0:
88,332,24846,1,0,0:0:0:0:
228,332,25300,5,0,0:0:0:0:
172,288,25527,2,0,B|228:260|260:256|320:252|436:192,1,280
420,124,26664,2,0,L|336:84,1,70
292,68,27118,1,0,0:0:0:0:
224,56,27346,2,0,L|124:72,1,70
104,116,27800,1,0,0:0:0:0:
196,112,29164,5,0,0:0:0:0:
264,88,29391,2,0,P|328:60|356:64,1,70
392,88,29846,1,0,0:0:0:0:
352,144,30073,2,0,L|292:208,1,70
440,176,30982,6,0,L|376:240,2,70
424,108,31664,1,0,0:0:0:0:
360,80,31891,1,0,0:0:0:0:
292,68,32118,1,0,0:0:0:0:
92,136,32800,5,0,0:0:0:0:
100,204,33027,2,0,L|180:184,1,70
232,156,33482,1,0,0:0:0:0:
220,224,33709,1,0,0:0:0:0:
204,292,33937,1,0,0:0:0:0:
316,84,35982,5,0,0:0:0:0:
380,116,36209,1,0,0:0:0:0:
376,188,36437,2,0,P|344:224|356:256,1,70
388,300,36891,1,0,0:0:0:0:
256,332,37346,2,0,L|176:332|180:332,1,70
72,144,38255,6,0,L|216:96,1,140
272,84,38937,2,0,P|320:64|344:56,1,70
404,80,39391,1,0,0:0:0:0:
408,220,39846,1,0,0:0:0:0:
348,260,40073,2,0,P|256:328|96:316,1,280
108,248,41209,1,0,0:0:0:0:
280,128,41891,2,0,L|304:204,2,70
96,172,43937,6,0,L|188:148,1,70
232,132,44391,1,0,0:0:0:0:
300,128,44618,2,0,L|376:128,1,70
124,260,45755,6,0,L|216:248,4,70
332,244,47346,5,0,0:0:0:0:
400,248,47573,2,0,P|456:240|464:208,1,70
424,176,48027,1,0,0:0:0:0:
376,124,48255,1,0,0:0:0:0:
324,76,48482,1,0,0:0:0:0:
124,140,49164,6,0,L|268:148,1,140
408,88,51209,5,0,0:0:0:0:
360,140,51437,1,0,0:0:0:0:
348,208,51664,2,0,L|288:248,1,70
264,180,52118,1,0,0:0:0:0:
184,168,53027,6,0,P|144:188|124:228,1,70
168,276,53482,1,0,0:0:0:0:
236,288,53709,1,0,0:0:0:0:
308,284,53937,1,0,0:0:0:0:
472,56,54846,5,0,0:0:0:0:
424,108,55073,1,0,0:0:0:0:
372,152,55300,1,0,0:0:0:0:
304,168,55527,2,0,L|232:120,1,70
248,224,57346,6,0,L|172:176,3,70
84,96,58482,5,0,0:0:0:0:
152,80,58709,2,0,L|228:72,1,70
292,84,59164,1,0,0:0:0:0:
352,120,59391,1,0,0:0:0:0:
180,280,60300,1,0,0:0:0:0:
140,220,60527,2,0,L|104:124,1,70
120,84,60982,1,0,0:0:0:0:
188,72,61209,1,0,0:0:0:0:
264,340,62118,5,0,0:0:0:0:
196,332,62346,2,0,P|88:296|52:204,1,210
296,76,63937,1,0,0:0:0:0:
348,124,64164,2,0,P|360:196|324:264,1,140
276,296,64846,1,0,0:0:0:0:
116,160,65527,5,0,0:0:0:0:
236,92,65982,2,0,L|308:80,1,70
368,108,66437,1,0,0:0:0:0:
400,168,66664,1,0,0:0:0:0:
120,188,67573,6,0,L|104:112,1,70
152,68,68027,1,0,0:0:0:0:
220,56,68255,1,0,0:0:0:0:
288,56,68482,1,0,0:0:0:0:
116,276,69391,2,0,L|184:232,1,70
256,192,69846,12,0,75300,0:0:0:0:
200,56,75982,5,0,0:0:0:0:
268,64,76209,2,0,L|348:96,1,70
440,184,76891,1,0,0:0:0:0:
428,252,77118,2,0,B|424:296|420:312|408:320,1,70
340,328,77573,1,0,0:0:0:0:
272,316,77800,1,0,0:0:0:0:
248,176,78255,6,0,L|320:164,1,70
372,120,78709,1,0,0:0:0:0:
336,60,78937,2,0,L|248:60,1,70
200,84,79391,1,0,0:0:0:0:
132,108,79618,1,0,0:0:0:0:
68,308,80300,6,0,L|140:320,1,70
204,292,80755,1,0,0:0:0:0:
272,272,80982,2,0,L|216:200,1,70
184,168,81437,1,0,0:0:0:0:
92,276,83255,5,0,0:0:0:0:
156,308,83482,2,0,P|224:332|388:316,1,210
396,268,84391,1,0,0:0:0:0:
392,200,84618,1,0,0:0:0:0:
376,132,84846,2,0,P|336:104|296:100,1,70
160,112,85527,5,0,0:0:0:0:
116,168,85755,1,0,0:0:0:0:
64,216,85982,2,0,P|56:268|88:288,1,70
116,324,86437,1,0,0:0:0:0:
180,300,86664,1,0,0:0:0:0:
244,280,86891,1,0,0:0:0:0:
368,204,87346,6,0,L|320:128,1,70
280,96,87800,2,0,B|240:68|180:64|92:72|68:96,1,210
60,156,88709,1,0,0:0:0:0:
76,224,88937,1,0,0:0:0:0:
128,268,89164,2,0,L|212:272,1,70
268,268,89618,1,0,0:0:0:0:
88,56,90982,5,0,0:0:0:0:
156,48,91209,1,0,0:0:0:0:
228,52,91437,2,0,L|304:64,1,70
356,104,91891,1,0,0:0:0:0:
396,160,92118,1,0,0:0:0:0:
380,228,92346,1,0,0:0:0:0:
260,300,92800,5,0,0:0:0:0:
192,284,93027,2,0,L|120:252,1,70
96,200,93482,1,0,0:0:0:0:
76,132,93709,1,0,0:0:0:0:
136,92,93937,2,0,L|220:68,1,70
332,128,94618,6,0,B|312:168|256:200|192:212,1,140
152,104,97800,5,0,0:0:0:0:
220,96,98027,1,0,0:0:0:0:
288,104,98255,2,0,P|292:172|288:244,1,140
256,308,98937,1,0,0:0:0:0:
188,288,99164,1,0,0:0:0:0:
128,160,99618,1,0,0:0:0:0:
232,68,100073,6,0,L|316:64,1,70
352,112,100527,1,0,0:0:0:0:
400,164,100755,1,0,0:0:0:0:
416,232,100982,1,0,0:0:0:0:
296,304,101437,1,0,0:0:0:0:
284,236,101664,5,0,0:0:0:0:
340,192,101891,2,0,B|376:136|376:124|368:104|300:72,1,140
180,80,102800,1,0,0:0:0:0:
128,128,103027,2,0,B|92:184|88:208|84:232|88:272|100:304|120:328,1,210
188,312,103937,1,0,0:0:0:0:
256,296,104164,1,0,0:0:0:0:
424,304,105755,6,0,L|332:304,1,70
284,292,106209,1,0,0:0:0:0:
216,284,106437,2,0,L|124:260,1,70
352,76,107573,2,0,L|408:120,4,70
204,296,109391,2,0,L|168:232,1,70
144,168,109846,1,0,0:0:0:0:
168,100,110073,1,0,0:0:0:0:
224,56,110300,1,0,0:0:0:0:
384,192,110982,6,0,P|352:288|300:300,1,140
424,104,113027,6,0,L|400:184,1,70
364,228,113482,1,0,0:0:0:0:
316,276,113709,1,0,0:0:0:0:
252,308,113937,1,0,0:0:0:0:
112,64,114846,6,0,L|184:40,1,70
248,56,115300,1,0,0:0:0:0:
316,72,115527,1,0,0:0:0:0:
376,112,115755,1,0,0:0:0:0:
144,272,116664,5,0,0:0:0:0:
112,208,116891,1,0,0:0:0:0:
96,140,117118,1,0,0:0:0:0:
144,88,117346,2,0,L|240:60,1,70
384,172,119164,6,0,L|308:232,3,70
248,100,120300,5,0,0:0:0:0:
208,160,120527,2,0,P|192:216|208:248,1,70
252,268,120982,1,0,0:0:0:0:
312,304,121209,1,0,0:0:0:0:
436,92,122118,5,0,0:0:0:0:
372,64,122346,2,0,P|320:48|292:52,1,70
232,68,122800,1,0,0:0:0:0:
168,92,123027,1,0,0:0:0:0:
424,204,123937,5,0,0:0:0:0:
372,252,124164,2,0,B|328:276|264:280|164:264,1,210
352,56,125756,1,0,0:0:0:0:
288,80,125983,2,0,P|300:152|336:236,1,140
360,276,126665,1,0,0:0:0:0:
84,308,127573,5,0,0:0:0:0:
80,236,127801,2,0,L|72:152,1,70
108,104,128256,1,0,0:0:0:0:
164,60,128483,1,0,0:0:0:0:
352,268,129392,6,0,L|400:184,1,70
404,140,129846,1,0,0:0:0:0:
384,72,130074,1,0,0:0:0:0:
320,44,130301,1,0,0:0:0:0:
132,252,131210,6,0,L|220:248,1,70
256,192,131664,12,0,133937,0:0:0:0:
240,100,137800,5,0,0:0:0:0:
308,108,138027,1,0,0:0:0:0:
372,140,138255,2,0,P|396:192|396:224,1,70
356,260,138709,1,0,0:0:0:0:
296,296,138937,2,0,P|248:324|208:328,1,70
164,320,139391,1,0,0:0:0:0:
352,116,140300,5,0,0:0:0:0:
288,84,140527,1,0,0:0:0:0:
220,64,140755,2,0,P|160:60|132:72,1,70
88,92,141209,1,0,0:0:0:0:
76,300,141891,5,0,0:0:0:0:
124,248,142118,1,0,0:0:0:0:
172,196,142346,2,0,B|220:148|248:128|300:100|332:88|360:84,1,210
144,276,143937,6,0,L|228:252,1,70
276,236,144391,1,0,0:0:0:0:
