osu file format v12

[General]
AudioFilename: Kare.mp3
AudioLeadIn: 0
PreviewTime: 58439
Countdown: 1
SampleSet: Normal
StackLeniency: 0.7
Mode: 0
LetterboxInBreaks: 1
WidescreenStoryboard: 1

[Editor]
DistanceSpacing: 1
BeatDivisor: 4
GridSize: 4

[Metadata]
Title:Kare
TitleUnicode:Kare
Artist:supercell
ArtistUnicode:supercell
Creator:hersa37
Version:Easy
Source:
Tags:
BeatmapID:339519
BeatmapSetID:135541

[Difficulty]
HPDrainRate:4
CircleSize:4
OverallDifficulty:5
ApproachRate:5
SliderMultiplier:1.4
SliderTickRate:1

[Events]
//Background and Video events
0,0,"cover.jpg",0,0
//Break Periods
2,72318,75918
2,135500,137737
2,159137,174100
//Storyboard Layer 0 (Background)
//Storyboard Layer 1 (Fail)
//Storyboard Layer 2 (Pass)
//Storyboard Layer 3 (Foreground)
//Storyboard Sound Samples
//Background Colour Transformations
3,100,163,162,255

[TimingPoints]
755.252898584865,454.545454545455,4,1,0,100,1,0

[HitObjects]
56,64,755,2,0,P|152:72|264:96,2,210
160,160,2573,2,0,P|256:168|344:248,2,210
44,240,4391,2,0,P|124:280|260:264,2,210
344,288,8027,1,0,0:0:0:0:
408,216,9846,1,0,0:0:0:0:
444,144,11664,1,0,0:0:0:0:
344,44,12118,2,0,L|224:132,1,140
192,268,13482,2,0,B|112:276|56:244|56:212,3,140
84,92,15300,6,0,P|156:52|300:60,1,210,0|0,0:0|0:0,0:0:0:0:
336,96,16209,1,0,0:0:0:0:
384,156,17118,2,0,B|264:236|160:228,1,210
120,216,18027,1,0,0:0:0:0:
76,144,18937,1,0,0:0:0:0:
116,84,21891,5,0,0:0:0:0:
184,76,22118,2,0,B|412:92,1,210
400,160,23027,1,0,0:0:0:0:
392,240,23937,2,0,P|304:320|216:328,1,210
156,292,24846,1,0,0:0:0:0:
52,248,25982,1,0,0:0:0:0:
64,180,26209,2,0,P|208:44|432:172,1,490
432,240,28027,1,0,0:0:0:0:
128,328,29846,5,0,0:0:0:0:
56,240,31664,1,0,0:0:0:0:
56,160,33482,1,0,0:0:0:0:
72,72,36209,5,0,0:0:0:0:
144,72,36437,2,0,P|152:152|312:56,1,350
360,40,38255,1,0,0:0:0:0:
396,100,38482,2,0,P|452:156|444:300,1,210
392,316,39391,1,0,0:0:0:0:
248,268,39846,1,0,0:0:0:0:
212,328,40073,2,0,B|52:328|20:272|68:72,1,350
376,64,42118,2,0,L|304:128,1,70
164,248,43027,1,0,0:0:0:0:
348,36,43937,5,0,0:0:0:0:
392,92,44164,2,0,B|472:132|480:244|472:308|280:316,1,350
168,300,45755,1,0,0:0:0:0:
100,284,45982,2,0,B|-4:204|60:108|108:84|220:36,1,350
164,316,48027,1,0,0:0:0:0:
400,60,49164,2,0,P|340:48|188:72,1,210
268,236,51209,6,0,L|124:232,1,140
296,116,53027,2,0,L|432:28,1,140
172,64,54846,1,0,0:0:0:0:
240,76,55073,2,0,B|316:68|360:124|380:232,1,210
136,104,57346,2,0,L|56:88,3,70
204,112,58482,5,0,0:0:0:0:
176,176,58709,2,0,B|128:160|104:144|96:112|96:72|136:48|184:48,1,210
396,224,60300,1,0,0:0:0:0:
364,160,60527,2,0,B|428:160|476:168|488:216|476:232|456:264|428:284,1,210
216,104,62118,1,0,0:0:0:0:
192,40,62346,2,0,B|128:72|120:100|124:132|140:160|180:184|200:192,1,210
444,52,63937,1,0,0:0:0:0:
388,96,64164,1,0,0:0:0:0:
204,80,65527,5,0,0:0:0:0:
264,44,65755,2,0,B|376:44|408:52|416:76|416:132,1,210
420,200,66664,1,0,0:0:0:0:
164,84,67573,1,0,0:0:0:0:
120,140,67800,2,0,B|80:200|76:260|96:304|148:328,1,210
256,192,69391,12,0,72118,0:0:0:0:
180,68,77118,5,0,0:0:0:0:
320,64,77573,1,0,0:0:0:0:
256,148,78937,5,0,0:0:0:0:
256,288,79391,1,0,0:0:0:0:
128,208,80300,6,0,L|224:208,1,70
88,88,83482,5,0,0:0:0:0:
152,56,83709,2,0,P|280:56|308:76,1,140
364,96,85527,1,0,0:0:0:0:
416,140,85755,2,0,P|456:172|456:220,1,70
420,272,87346,5,0,0:0:0:0:
356,300,87573,2,0,B|260:300|172:284|132:252,1,210
108,208,88482,1,0,0:0:0:0:
68,152,89164,2,0,P|76:72|124:40,1,140
172,180,90073,1,0,0:0:0:0:
212,124,90300,1,0,0:0:0:0:
420,92,90982,5,0,0:0:0:0:
352,112,91209,2,0,P|376:236|468:264,1,210
448,172,92118,1,0,0:0:0:0:
260,80,92800,1,0,0:0:0:0:
260,148,93027,2,0,B|172:156|108:148|52:124,1,210
52,56,93937,1,0,0:0:0:0:
260,56,94618,1,0,0:0:0:0:
380,128,95073,1,0,0:0:0:0:
164,76,97800,5,0,0:0:0:0:
224,44,98027,2,0,B|368:44|416:60|440:116,1,210
424,160,98937,1,0,0:0:0:0:
272,248,100073,2,0,P|160:272|48:256,1,210
48,192,100982,1,0,0:0:0:0:
68,76,101664,2,0,B|160:60|272:68|360:92|408:132|448:172|456:204,1,420
444,288,103709,2,0,L|292:296,1,140
328,272,105755,5,0,0:0:0:0:
264,296,105982,2,0,P|144:304|56:264,1,210
52,148,107573,1,0,0:0:0:0:
92,92,107800,2,0,P|164:44|292:52,1,210
420,292,109391,2,0,L|336:256,1,70
208,88,110982,1,0,0:0:0:0:
140,212,111437,1,0,0:0:0:0:
288,288,113027,6,0,P|248:304|192:292,1,70
72,136,114846,1,0,0:0:0:0:
104,76,115073,2,0,P|216:36|304:68,1,210
372,108,116664,2,0,P|412:140|420:164,1,70
288,160,119164,2,0,L|216:200,3,70
108,268,120300,5,0,0:0:0:0:
60,320,120527,2,0,B|12:248|28:200|124:160,1,210
380,268,122118,1,0,0:0:0:0:
384,196,122346,2,0,B|404:128|404:84|328:64|280:56,1,210
44,200,123937,1,0,0:0:0:0:
64,268,124164,2,0,B|120:296|184:316|256:332|296:332,1,210
400,84,125755,1,0,0:0:0:0:
332,104,125982,1,0,0:0:0:0:
184,100,127573,5,0,0:0:0:0:
252,88,127800,1,0,0:0:0:0:
108,248,129391,2,0,L|172:304,1,70
256,192,131209,12,0,135300,0:0:0:0:
400,224,138937,5,0,0:0:0:0:
336,252,139164,2,0,L|248:284,1,70
168,280,140300,2,0,L|100:208,1,70
104,160,140755,1,0,0:0:0:0:
120,72,141891,2,0,L|212:56,1,70
260,56,142346,1,0,0:0:0:0:
392,96,144391,2,0,L|448:168,6,70
40,120,146209,5,0,0:0:0:0:
104,152,146437,2,0,P|128:216|236:312,1,210
372,300,147573,2,0,B|396:240|400:188|376:72,1,210
320,60,148482,1,0,0:0:0:0:
180,76,148937,1,0,0:0:0:0:
112,92,149164,1,0,0:0:0:0:
96,248,149618,2,0,B|112:312|140:328|176:328|228:320|260:320|296:320,1,210
472,272,150982,2,0,L|424:196,1,70
412,144,151437,1,0,0:0:0:0:
248,128,151891,2,0,L|248:200,7,70
256,192,153709,12,0,158937,0:0:0:0:
256,192,175300,6,0,L|180:152,3,70
72,296,177118,5,0,0:0:0:0:
128,256,177346,2,0,P|232:296|352:296,1,210
464,264,178482,1,0,0:0:0:0:
424,208,178709,2,0,P|344:176|216:168,1,210
176,232,180300,2,0,L|236:312,1,70
204,112,181891,1,0,0:0:0:0:
304,112,182346,1,0,0:0:0:0:
104,64,183937,5,0,0:0:0:0:
76,128,184164,2,0,B|60:200|68:268|80:312|128:316,1,210
400,296,185755,1,0,0:0:0:0:
428,232,185982,2,0,B|464:140|448:84|356:72,1,210
84,108,187573,2,0,L|84:184,1,70
216,92,190073,2,0,L|296:92,3,70
148,64,191209,5,0,0:0:0:0:
220,60,191437,2,0,B|328:56|376:76|428:116|424:140,1,210
140,168,193027,1,0,0:0:0:0:
212,168,193255,2,0,B|284:160|392:188|424:204,1,210
144,272,194846,1,0,0:0:0:0:
208,272,195073,2,0,B|264:264|340:268|376:280|416:300,1,210
192,124,196664,2,0,L|268:124,1,70
412,44,198255,5,0,0:0:0:0:
424,184,198709,2,0,P|428:280|316:300,1,210
140,108,200300,1,0,0:0:0:0:
204,136,200527,2,0,B|220:64|192:40|140:32|64:68,1,210
116,344,202118,5,0,0:0:0:0:
184,336,202346,2,0,B|260:328|320:324|392:316|392:272,1,210
136,164,203937,1,0,0:0:0:0:
168,104,204164,2,0,B|256:84|312:80|392:88,1,210
344,296,205527,2,0,L|204:308,1,140
304,64,207346,1,0,0:0:0:0:
164,64,207800,1,0,0:0:0:0:
364,64,209164,6,0,L|452:184,1,140
284,164,211209,2,0,L|220:228,1,70
312,296,213027,2,0,L|232:264,1,70
92,88,214618,2,0,B|176:56|224:48|244:68,1,140
384,112,216664,5,0,0:0:0:0:
432,160,216891,2,0,B|452:216|420:264|372:276|288:308,1,210
132,84,218482,1,0,0:0:0:0:
200,64,218709,2,0,B|256:56|320:68|372:112|380:148,1,210
140,288,220300,2,0,P|100:248|100:224,1,70
116,112,222118,1,0,0:0:0:0:
180,84,222346,1,0,0:0:0:0:
328,80,223709,5,0,0:0:0:0:
384,124,223937,2,0,B|440:188|448:224|448:256|392:328,1,210
340,336,224846,1,0,0:0:0:0:
80,196,225755,1,0,0:0:0:0:
108,132,225982,2,0,B|148:88|172:80|212:72|312:72,1,210
464,328,227573,2,0,L|384:324,1,70
256,192,228255,12,0,233027,0:0:0:0:
116,116,233482,5,0,0:0:0:0:
184,108,233709,2,0,L|276:104,1,70
324,104,234164,1,0,0:0:0:0:
368,156,234391,1,0,0:0:0:0:
240,212,234846,5,0,0:0:0:0:
