osu file format v9

[General]
AudioFilename: Hoshi ga matataku konna yoru ni.mp3
AudioLeadIn: 3000
PreviewTime: 74422
Countdown: 1
SampleSet: Soft
StackLeniency: 0.7
Mode: 0
LetterboxInBreaks: 1

[Editor]
DistanceSpacing: 0.8
BeatDivisor: 2
GridSize: 16

[Metadata]
Title:Hoshi ga Matataku Konna Yoru ni
Artist:supercell
Creator:stiss
Version:Easy
Source:Witch on the Holy Night
Tags:typemoon

[Difficulty]
HPDrainRate:3
CircleSize:3
OverallDifficulty:3
ApproachRate:3
SliderMultiplier:1.00000000596046
SliderTickRate:2

[Events]
//Background and Video events
0,0,"bg-n.jpg"
//Break Periods
2,58860,62165
2,98423,104695
2,135346,141618
//Storyboard Layer 0 (Background)
//Storyboard Layer 1 (Fail)
//Storyboard Layer 2 (Pass)
//Storyboard Layer 3 (Foreground)
//Storyboard Sound Samples
//Background Colour Transformations
3,100,163,162,255

[TimingPoints]
1146,400,4,2,0,65,1,0
21746,329.67032967033,4,2,0,65,1,0
51392,329.67032967033,4,2,0,65,1,0
53386,329.67032967033,4,2,0,65,1,0
74487,329.67032967033,4,1,0,65,1,1
95571,-100,4,1,0,65,0,0
148333,-100,4,1,0,65,0,1
168607,-133.333333333333,4,1,0,65,0,0

[Colours]
Combo1 : 0,0,64
Combo2 : 0,0,160
Combo3 : 64,0,128
Combo4 : 0,255,255

[HitObjects]
256,48,1146,2,0,B|472:48,2,200.000001192092
256,192,3546,1,0
256,336,4346,2,0,B|32:336,2,200.000001192092
256,264,6346,1,0
256,192,6746,1,0
256,120,7146,1,2
256,192,7546,12,0,9146
456,352,10746,6,0,B|336:352,1,100.000000596046
352,248,11546,1,0
448,280,11946,1,2
432,184,12346,2,0,B|384:80|304:32,1,200.000001192092
208,32,13546,1,2
152,112,13946,6,0,B|352:112,1,200.000001192092
416,192,15146,1,10
352,272,15546,2,0,B|136:272,1,200.000001192092,0|4
256,192,17146,12,0,21146
400,64,21746,6,0,B|184:64,1,200.000001192092
48,192,23064,1,8
152,328,23724,1,2
256,192,24383,1,8
360,328,25042,1,2
472,192,25702,1,8
472,24,26361,2,0,B|272:24|432:352|16:336,1,600.000003576276
152,48,29658,6,0,B|272:64|256:214,1,200.000001192092,8|10
360,336,30976,2,0,B|240:320|259:169,1,200.000001192092,8|10
256,0,32295,5,4
432,96,32954,1,8
256,192,33614,1,0
432,288,34273,1,8
256,384,34932,1,0
80,288,35592,1,8
80,96,36252,1,0
256,0,36910,1,8
416,32,37570,6,0,B|464:224|360:352|227:346,1,400.000002384184,8|0
96,344,39548,1,4
96,184,40207,5,2
96,24,40866,1,8
256,24,41526,2,0,B|440:80|168:304|464:344,1,400.000002384184,2|4
496,152,43504,5,8
416,336,44163,1,2
216,336,44822,2,2,B|280:216|176:120,1,200.000001192092,8|8
32,40,46141,1,0
136,216,46800,1,8
336,216,47460,1,0
408,32,48119,6,0,B|288:96|192:40,1,200.000001192092,8|0
72,192,49438,1,8
184,360,50097,1,0
384,360,50756,1,10
488,192,51392,1,0
320,184,52051,2,0,B|200:104,1,100.000000596046,8|0
144,128,52710,1,2
144,128,53040,1,10
144,128,53386,1,4
168,360,54375,5,8
168,280,54704,1,2
232,320,55034,1,8
232,240,55364,1,0
304,200,55693,1,8
376,160,56023,1,0
376,72,56353,2,2,B|240:72,1,100.000000596046,10|2
192,72,57012,5,8
112,72,57342,1,0
112,152,57671,1,10
112,232,58001,2,0,B|232:232,1,100.000000596046,0|8
296,232,58660,1,8
400,112,63605,6,0,B|256:112,1,100.000000596046
256,40,64265,1,0
216,112,64594,1,0
216,192,64924,2,0,B|360:192,1,100.000000596046
360,264,65583,1,0
360,344,65913,1,0
280,344,66243,1,0
200,344,66572,6,0,B|120:336|56:296|48:200,1,200.000001192092
48,152,67561,1,0
112,104,67891,2,0,B|176:168|264:184|336:192,1,200.000001192092
256,192,69210,12,4,71847
256,192,72836,5,0
256,192,73166,1,0
256,192,73495,1,0
256,192,73825,1,0
256,48,74487,5,4
176,64,74816,1,8
112,112,75146,2,0,B|112:328,1,200.000001192092
192,312,76135,1,8
272,296,76465,1,8
336,248,76794,1,8
352,168,77124,2,0,B|456:168,2,100.000000596046
336,88,78113,1,0
272,40,78443,5,8
192,40,78772,1,8
192,120,79102,1,8
112,120,79432,1,8
72,56,79761,2,0,B|136:32|200:72|240:152,1,200.000001192092
368,56,81080,1,8
416,120,81410,1,8
368,184,81739,1,8
256,296,82399,5,4
256,136,83058,1,4
416,136,83717,1,8
416,216,84047,1,0
416,296,84377,1,4
256,320,85036,6,0,B|272:248|360:184|432:184,1,200.000001192092,4|8
240,152,86355,1,8
200,80,86684,1,8
160,152,87014,1,8
112,304,87673,6,0,B|152:352|240:256|301:302,1,200.000001192092,4|8
424,304,88827,2,8,B|424:224,1,50.000000298023,8|8
424,176,89322,2,0,B|408:112|336:64|272:40,1,200.000001192092,8|8
208,64,90311,6,0,B|96:64,3,100.000000596046
104,144,91629,1,8
104,224,91959,2,0,B|216:288,1,100.000000596046
256,320,92618,1,8
320,272,92948,2,0,B|407:223,1,100.000000596046
408,144,93607,1,8
404,64,93937,2,0,B|304:64,3,100.000000596046,0|8|0|8
256,128,95256,1,8
256,192,95585,12,4,98223
256,192,106135,5,0
256,32,106794,1,0
96,32,107454,1,0
96,192,108113,1,0
256,240,108772,1,0
400,304,109432,1,0
400,144,110091,1,0
448,304,111410,6,0,B|240:400|16:288,1,400.000002384184
256,192,113388,1,0
400,226,114047,2,0,B|304:55|194:55|99:249,1,400.000002384184
256,192,116025,1,0
256,32,116684,6,0,B|464:32,2,200.000001192092
96,32,118662,1,0
96,112,118992,1,0
96,192,119322,1,0
256,192,119981,1,0
416,192,120640,1,0
416,272,120970,1,0
416,352,121300,1,0
256,352,121959,6,0,B|48:352,2,200.000001192092
256,192,123937,1,0
192,48,124596,2,0,B|80:32|32:144,2,200.000001192092
256,192,126574,1,0
320,48,127234,2,0,B|432:32|480:144,1,200.000001192092
480,304,128552,5,0
336,384,129212,1,0
192,304,129871,1,0
112,304,130201,1,0
32,304,130530,1,0
112,176,131190,6,0,B|112:48|256:16,1,200.000001192092
256,192,132508,12,0,135146
256,192,143058,12,0,145695
256,192,147014,1,0
256,192,147673,1,0
256,32,148333,6,0,B|384:32|384:176,1,200.000001192092
384,320,149651,1,0
256,224,150311,1,0
96,224,150970,2,0,B|96:80|240:80,2,200.000001192092
256,224,152948,1,0
416,224,153607,6,0,B|416:80,1,100.000000596046
416,48,154267,1,0
336,48,154596,1,0
256,48,154926,2,0,B|144:48,1,100.000000596046
80,48,155585,1,0
80,128,155915,1,0
80,208,156245,6,0,B|112:320|256:320,3,200.000001192092
384,320,158882,6,0,B|384:176,1,100.000000596046
464,224,159541,2,0,B|464:112,1,100.000000596046
384,128,160201,2,0,B|384:16,1,100.000000596046
304,32,160860,2,0,B|176:32,1,100.000000596046
208,112,161519,2,0,B|96:112,1,100.000000596046
32,112,162179,2,0,B|32:224,1,100.000000596046
32,288,162838,2,0,B|144:288,1,100.000000596046
128,368,163497,2,0,B|240:368,1,100.000000596046
304,368,164157,6,0,B|304:240,1,100.000000596046
224,256,164816,2,0,B|224:128,1,100.000000596046
224,80,165476,2,0,B|336:80,1,100.000000596046
320,160,166135,2,0,B|448:160,1,100.000000596046
416,240,166794,2,0,B|416:352,1,100.000000596046
336,336,167454,2,0,B|224:336,1,100.000000596046
160,336,168113,2,0,B|160:192,1,100.000000596046
80,240,168772,2,0,B|80:64,1,149.999996423721
