osu file format v12

[General]
AudioFilename: supercell - Hero.mp3
AudioLeadIn: 0
PreviewTime: 12110
Countdown: 0
SampleSet: Normal
StackLeniency: 0.7
Mode: 0
LetterboxInBreaks: 0

[Editor]
DistanceSpacing: 0.8
BeatDivisor: 4
GridSize: 8

[Metadata]
Title:Hero
TitleUnicode:ヒーロー
Artist:supercell
ArtistUnicode:supercell
Creator:Colin Hou
Version:Normal
Source:
Tags:yanaginagi nagi ryo Today Is A Beautiful Day Garven
BeatmapID:167534
BeatmapSetID:23183

[Difficulty]
HPDrainRate:3
CircleSize:4
OverallDifficulty:4
ApproachRate:5
SliderMultiplier:1
SliderTickRate:1

[Events]
//Background and Video events
0,0,"BG.jpg",0,0
//Break Periods
2,87081,95012
//Storyboard Layer 0 (Background)
//Storyboard Layer 1 (Fail)
//Storyboard Layer 2 (Pass)
//Storyboard Layer 3 (Foreground)
//Storyboard Sound Samples
//Background Colour Transformations
3,100,49,56,81

[TimingPoints]
1266,338.696020321761,4,2,1,30,1,0
12110,339.366515837104,4,2,1,70,1,0
22983,338.983050847458,4,1,2,50,1,0
33805,339.145917531018,4,1,2,50,1,0
47370,-100,4,2,1,50,0,0
51440,-100,4,1,2,50,0,0
52458,-100,4,1,1,50,0,0
52795,338.983050847458,4,1,1,50,1,0
58210,339.366515837104,4,1,1,50,1,0
63649,339.222614840989,4,1,1,50,1,0
77210,338.983050847458,4,1,1,50,1,0
79920,339.174674957603,4,1,1,50,1,0
82638,339.462517680339,4,1,1,50,1,0
85438,-100,4,2,1,5,0,0
96212,338.753387533875,4,1,2,50,1,0
101632,338.858611244458,4,1,2,50,1,0
107050,338.696020321761,4,1,2,50,1,0
117903,339.07883582933,4,1,1,50,1,0
131466,-100,4,2,1,50,0,0
135535,-100,4,1,2,50,0,0
136552,-100,4,1,1,50,0,0
136891,338.983050847458,4,1,1,50,1,0
147738,339.654684404189,4,1,1,50,1,0
153170,339.030936572962,4,1,1,50,1,0
166728,338.743824982357,4,1,1,50,1,0
169435,338.028169014084,4,1,1,50,1,0
172146,339.174674957603,4,1,1,50,1,0
185725,339.174674957603,4,1,1,50,1,0
191151,338.504936530324,4,1,1,50,1,0
196568,339.07883582933,4,1,1,50,1,0
218267,340.909090909091,4,1,1,50,1,0
220985,333.333333333333,4,1,1,50,1,0
222985,363.636363636364,4,1,1,50,1,0
223712,339.07883582933,4,2,1,50,1,0
234562,338.983050847458,4,1,1,50,1,0
242692,338.600451467269,4,1,1,50,1,0
245400,338.218714768884,4,1,1,50,1,0
248121,339.366515837104,4,2,1,20,1,0
252193,338.791643139469,4,1,1,30,1,0
253538,338.983050847458,4,1,1,50,1,0
261673,339.366515837104,4,1,1,50,1,0
264390,338.983050847458,4,1,1,50,1,0
267100,339.750849377123,4,1,1,50,1,0
269824,339.174674957603,4,1,1,50,1,0
280682,339.174674957603,4,1,1,50,1,0
292213,437.956204379562,4,1,1,50,1,0
292886,697.674418604651,4,2,1,30,1,0
293513,697.674418604651,4,2,1,30,1,0
294211,419.58041958042,4,2,1,30,1,0
294840,437.956204379562,4,2,1,30,1,0
295715,437.956204379562,4,2,1,30,1,0
297365,472.44094488189,4,2,1,30,1,0
300208,769.230769230769,4,2,1,30,1,0
300977,821.917808219178,4,2,1,30,1,0
301798,983.606557377049,4,2,1,30,1,0
302946,560.747663551402,4,2,1,30,1,0

[Colours]
Combo1 : 251,72,72
Combo2 : 215,99,248
Combo3 : 231,215,14

[HitObjects]
112,144,12110,2,0,B|168:144|216:160|216:160|258:147|296:104,1,200,2|0,0:0|0:0,0:0:0:0:
368,272,13467,2,0,B|424:264|472:280,2,100
200,344,14824,5,0,0:0:0:0:
312,40,16182,1,0,0:0:0:0:
152,264,17539,1,2,0:0:0:0:
360,120,18897,1,0,0:0:0:0:
112,184,20254,1,0,0:0:0:0:
400,200,21612,1,0,0:0:0:0:
72,104,22630,5,2,0:0:0:0:
72,104,22983,2,0,B|128:104|184:80,2,100
16,176,23999,2,0,B|32:200|40:224,1,50
40,264,24338,2,0,B|105:229|184:272|184:348,1,200
271,324,25355,6,0,B|288:372,2,50
313,244,26033,2,0,B|348:280,2,50
328,155,26711,2,0,B|382:177,1,50
409,202,27050,2,0,B|389:149|434:103,1,100
494,47,27728,1,0,0:0:0:0:
406,24,28067,1,0,0:0:0:0:
340,86,28406,6,0,B|258:103|197:74|197:74|172:96|143:95,1,200
59,75,29423,1,0,0:0:0:0:
120,9,29762,2,0,B|171:66|153:152|82:175,1,200
85,173,30779,1,0,0:0:0:0:
45,303,31288,6,0,B|97:289|153:301,1,100,0|0,0:0|0:0,0:0:0:0:
185,316,31796,2,0,B|232:326|284:312,1,100,0|0,0:0|0:0,0:0:0:0:
364,272,32474,1,0,0:0:0:0:
418,200,32813,1,0,0:0:0:0:
433,111,33152,2,0,B|440:161|487:194,1,100
460,284,33805,6,0,B|416:233|331:230|292:307,1,200,4|0,0:0|0:0,0:0:0:0:
247,382,34822,1,0,0:0:0:0:
169,335,35161,2,0,B|67:348,2,100
320,232,36518,2,0,B|422:219,2,100
176,120,37874,2,0,B|74:133,2,100
258,82,38892,1,0,0:0:0:0:
258,82,39231,6,0,B|280:185|412:188,1,200
407,187,40248,1,0,0:0:0:0:
419,277,40587,2,0,B|431:378,2,100
461,197,41605,1,0,0:0:0:0:
400,130,41944,6,0,B|312:180|206:148,1,200,4|0,0:0|0:0,0:0:0:0:
133,95,42961,1,0,0:0:0:0:
133,95,43301,2,0,B|246:84|288:197,1,200
288,284,44318,1,0,0:0:0:0:
288,284,44657,2,0,B|176:293,2,100
349,218,45675,2,0,B|448:209,2,100
279,160,46692,6,0,B|64:175,1,200,0|4,0:0|0:0,0:0:0:0:
412,37,48727,1,0,0:0:0:0:
257,362,50084,1,0,0:0:0:0:
100,37,51440,6,0,B|108:99,1,50,2|2,0:0|0:0,0:0:0:0:
129,219,52118,2,0,B|122:169,1,50,2|2,0:0|0:0,0:0:0:0:
245,114,52795,6,0,B|284:153|346:142,2,100,4|8|0,0:0|0:0|0:0,0:0:0:0:
314,56,53811,2,0,B|364:48,1,50,8|0,0:0|0:0,0:0:0:0:
408,42,54150,1,0,0:0:0:0:
467,109,54489,1,8,0:0:0:0:
436,193,54828,1,0,0:0:0:0:
489,265,55167,6,0,B|429:264|392:312,1,100,8|0,0:0|0:0,0:0:0:0:
353,380,55845,1,8,0:0:0:0:
271,342,56184,1,0,0:0:0:0:
319,266,56523,2,0,B|314:206,1,50,8|0,0:0|0:0,0:0:0:0:
286,181,56862,2,0,B|342:181|387:157,2,100,0|8|0,0:0|0:0|0:0,0:0:0:0:
200,153,57879,1,8,0:0:0:0:
144,82,58210,6,0,B|87:72|44:98,1,100,0|8,0:0|0:0,0:0:0:0:
106,163,58888,2,0,B|37:174|24:220,1,100,0|8,0:0|0:0,0:0:0:0:
105,256,59567,2,0,B|201:292,1,100,0|8,0:0|0:0,0:0:0:0:
283,320,60246,2,0,B|339:316|370:268,1,100,0|8,0:0|0:0,0:0:0:0:
288,228,60924,6,0,B|287:123,2,100,0|8|0,0:0|0:0|0:0,0:0:0:0:
198,228,61943,1,8,0:0:0:0:
108,228,62282,2,0,B|57:228,2,50,0|0|8,0:0|0:0|0:0,0:0:0:0:
197,228,62961,2,0,B|248:228,2,50,0|0|8,0:0|0:0|0:0,0:0:0:0:
150,151,63649,6,0,B|120:110|148:52,1,100,4|8,0:0|0:0,0:0:0:0:
222,103,64327,1,0,0:0:0:0:
297,53,64666,1,8,0:0:0:0:
371,102,65005,1,0,0:0:0:0:
447,55,65345,2,0,B|473:108|443:149,2,100,8|0|8,0:0|0:0|0:0,0:0:0:0:
371,102,66362,6,0,B|317:86|300:36,1,100,0|8,0:0|0:0,0:0:0:0:
212,36,67041,2,0,B|195:86|141:102,1,100,0|8,0:0|0:0,0:0:0:0:
142,101,67719,1,4,0:0:0:0:
256,240,68398,6,0,B|256:328,2,75
256,192,69076,2,0,B|324:239|400:208,1,150,4|0,0:0|0:0,0:0:0:0:
440,184,69755,2,0,B|440:80,1,100
358,45,70433,1,0,0:0:0:0:
305,117,70772,1,0,0:0:0:0:
221,84,71111,6,0,B|139:84,2,75
261,104,71790,2,0,B|302:36|391:40,1,150
431,52,72468,2,0,B|484:64|502:120,1,100
477,203,73147,2,0,B|498:258,2,50,0|0|8,0:0|0:0|0:0,0:0:0:0:
400,155,73825,2,0,B|384:205,2,50,0|0|8,0:0|0:0|0:0,0:0:0:0:
414,66,74504,6,0,B|364:96|308:83,1,100,4|8,0:0|0:0,0:0:0:0:
284,54,75012,2,0,B|290:143|212:184,1,150
131,196,75861,1,8,0:0:0:0:
84,322,76369,2,0,B|29:336,2,50
171,299,77048,5,0,0:0:0:0:
171,299,77210,2,0,B|240:328|317:300,1,150,8|0,0:0|0:0,0:0:0:0:
376,231,78057,2,0,B|410:272|470:284,2,100,0|8|0,0:0|0:0|0:0,0:0:0:0:
347,145,79074,2,0,B|313:104|253:92,2,100,0|0|8,0:0|0:0|0:0,0:0:0:0:
357,188,79920,6,0,B|273:207|255:297,1,150,4|4,0:0|0:0,0:0:0:0:
143,360,80937,2,0,B|115:210,1,150,4|4,0:0|0:0,0:0:0:0:
186,97,81955,2,0,B|206:202,1,100,4|8,0:0|0:0,0:0:0:0:
275,251,82638,6,0,B|285:306,3,50,0|0|0|8,0:0|0:0|0:0|0:0,0:0:0:0:
373,290,83486,2,0,B|383:345,1,50,0|8,0:0|0:0,0:0:0:0:
470,356,83995,6,0,B|547:260|483:155,1,200
413,123,85014,1,0,0:0:0:0:
413,123,85353,1,4,0:0:0:0:
256,192,85438,12,0,86881,0:0:0:0:
56,268,96212,6,0,B|77:314|140:315|140:315|233:270,1,200
307,227,97228,1,0,0:0:0:0:
383,179,97567,2,0,B|362:133|299:132|299:132|206:177,1,200
42,240,98922,6,0,B|0:202|10:144,1,100
63,78,99599,2,0,B|105:116|95:174,1,100
136,248,100277,1,0,0:0:0:0:
225,256,100615,2,0,B|328:264,2,100
185,126,101801,6,0,B|267:148|326:85,1,150
361,7,102648,1,0,0:0:0:0:
361,7,102987,2,0,B|372:58|436:68,1,100
496,131,103665,1,0,0:0:0:0:
496,131,104004,2,0,B|414:131|364:204,1,150
351,239,104681,6,0,B|335:287,2,50
292,170,105359,1,0,0:0:0:0:
357,107,105698,2,0,B|315:72|259:84,1,100
200,147,106376,2,0,B|144:235,1,100
100,308,107050,5,0,0:0:0:0:
100,308,107388,2,0,B|143:336|195:327,1,100
267,272,108066,1,0,0:0:0:0:
356,278,108404,2,0,B|414:286|445:234,1,100
457,150,109082,2,0,B|399:142|368:194,1,100
285,215,109759,6,0,B|182:215,3,100
98,238,111114,2,0,B|111:181|95:133,1,100
98,41,111791,2,0,B|85:98|98:140,1,100
272,96,112807,5,0,0:0:0:0:
333,161,113146,2,0,B|373:136|430:144,1,100
482,217,113823,2,0,B|456:320|327:324,1,200
331,323,114840,1,0,0:0:0:0:
234,172,115517,5,0,0:0:0:0:
194,91,115856,2,0,B|137:94|112:143,1,100
91,228,116533,2,0,B|112:332,1,100
200,337,117210,2,0,B|180:238,1,100
159,151,117903,6,0,B|264:156|330:65,1,200,4|0,0:0|0:0,0:0:0:0:
396,5,118920,1,8,0:0:0:0:
396,5,119259,2,0,B|497:21,2,100,0|8|0,0:0|0:0|0:0,0:0:0:0:
339,75,120276,5,8,0:0:0:0:
396,143,120615,2,0,B|364:191|395:241,1,100,0|8,0:0|0:0,0:0:0:0:
308,269,121293,2,0,B|340:317|309:367,1,100,0|8,0:0|0:0,0:0:0:0:
232,319,121971,2,0,B|131:336,2,100,0|8|0,0:0|0:0|0:0,0:0:0:0:
221,229,122989,2,0,B|136:210|124:123,1,150,8|0,0:0|0:0,0:0:0:0:
143,39,123836,6,0,B|201:28,1,50,0|8,0:0|0:0,0:0:0:0:
280,12,124345,1,8,0:0:0:0:
345,74,124684,2,0,B|449:83,1,100,8|8,0:0|0:0,0:0:0:0:
496,169,125362,2,0,B|396:160,1,100,8|8,0:0|0:0,0:0:0:0:
306,154,126040,6,0,B|277:196|296:252|296:252|283:316|222:324,1,200,4|0,0:0|0:0,0:0:0:0:
204,236,127058,1,0,0:0:0:0:
134,292,127397,2,0,B|99:242|124:190|124:190|88:106,1,200
148,39,128414,1,0,0:0:0:0:
193,117,128753,2,0,B|248:111|276:56,1,100
351,103,129431,2,0,B|376:54|344:8,1,100
257,0,130109,2,0,B|260:37|280:62|280:62|255:108|285:198,1,200
308,278,131127,1,8,0:0:0:0:
275,362,131466,5,4,0:0:0:0:
88,198,132822,1,0,0:0:0:0:
237,22,134178,1,0,0:0:0:0:
424,186,135535,6,0,B|375:201,1,50,2|2,0:0|0:0,0:0:0:0:
240,197,136213,2,0,B|287:182,1,50,2|2,0:0|0:0,0:0:0:0:
323,51,136891,6,0,B|360:12|427:28,2,100,4|8|0,0:0|0:0|0:0,0:0:0:0:
391,109,137907,2,0,B|388:161,1,50,8|0,0:0|0:0,0:0:0:0:
350,184,138246,2,0,B|426:180|478:258|457:325,1,200
389,376,139263,1,8,0:0:0:0:
389,376,139602,6,0,B|287:387,1,100,0|8,0:0|0:0,0:0:0:0:
306,298,140280,2,0,B|206:308,1,100,0|8,0:0|0:0,0:0:0:0:
117,318,140958,2,0,B|36:304|8:230|19:168,1,200
47,83,141975,1,8,0:0:0:0:
131,115,142314,6,0,B|185:120|229:78,1,100,0|8,0:0|0:0,0:0:0:0:
265,156,142992,2,0,B|309:138|312:74,1,100,0|8,0:0|0:0,0:0:0:0:
398,48,143670,2,0,B|440:80|491:76,2,100,0|8|0,0:0|0:0|0:0,0:0:0:0:
388,137,144687,1,8,0:0:0:0:
388,137,145026,2,0,B|327:172|314:259|378:312,1,200
461,293,146043,1,8,0:0:0:0:
461,293,146382,6,0,B|466:347,2,50,8|0|8,0:0|0:0|0:0,0:0:0:0:
404,223,147060,2,0,B|399:169,2,50,8|0|8,0:0|0:0|0:0,0:0:0:0:
330,275,147738,6,0,B|283:301|231:288,1,100,4|8,0:0|0:0,0:0:0:0:
219,199,148417,1,0,0:0:0:0:
129,195,148756,1,8,0:0:0:0:
72,124,149096,2,0,B|99:20,2,100,0|8|0,0:0|0:0|0:0,0:0:0:0:
37,207,150115,5,8,0:0:0:0:
4,290,150455,2,0,B|53:311|108:295,1,100,0|8,0:0|0:0,0:0:0:0:
164,231,151134,2,0,B|212:207|273:213,1,100,0|8,0:0|0:0,0:0:0:0:
339,255,151813,1,4,0:0:0:0:
398,85,152493,6,0,B|438:105|444:153,2,75,0|0|0,0:0|0:0|0:0,0:0:0:0:
359,62,153170,2,0,B|300:121|216:112,1,150,4|0,0:0|0:0,0:0:0:0:
179,99,153848,1,0,0:0:0:0:
44,218,154526,6,0,B|32:268|32:268|40:296|57:317,1,100
127,258,155204,2,0,B|142:313|195:323,1,100
220,236,155882,2,0,B|300:216|364:267,1,150
385,303,156560,1,0,0:0:0:0:
474,146,157238,6,0,B|465:200|499:242,2,100
501,60,158255,1,8,0:0:0:0:
419,20,158594,6,0,B|383:89|282:78,1,150,4|0,0:0|0:0,0:0:0:0:
163,35,159611,2,0,B|108:30,2,50
67,130,160459,2,0,B|119:157|126:217,2,100,0|8|0,0:0|0:0|0:0,0:0:0:0:
39,94,161306,6,0,B|121:106|184:48,1,150,4|0,0:0|0:0,0:0:0:0:
264,25,162154,1,8,0:0:0:0:
345,62,162493,2,0,B|365:167,1,100
427,223,163171,1,0,0:0:0:0:
427,223,163510,2,0,B|387:264|326:254,1,100,0|8,0:0|0:0,0:0:0:0:
295,235,164018,6,0,B|144:266,1,150,4|4,0:0|0:0,0:0:0:0:
51,170,165036,2,0,B|156:148,1,100,4|0,0:0|0:0,0:0:0:0:
193,140,165544,1,4,0:0:0:0:
283,39,166053,1,4,0:0:0:0:
358,87,166392,1,8,0:0:0:0:
435,132,166728,6,0,B|488:121,3,50,0|0|0|8,0:0|0:0|0:0|0:0,0:0:0:0:
469,210,167574,2,0,B|420:220,1,50,0|8,0:0|0:0,0:0:0:0:
440,308,168082,6,0,B|393:335|338:313,1,100
326,226,168760,1,0,0:0:0:0:
236,233,169099,1,0,0:0:0:0:
206,148,169435,6,0,B|164:178|113:166|113:166|78:118,1,150,8|8,0:0|0:0,0:0:0:0:
198,54,170449,2,0,B|240:24|291:36|291:36|326:84,1,150,8|8,0:0|0:0,0:0:0:0:
276,205,171463,1,8,0:0:0:0:
276,205,171801,1,8,0:0:0:0:
276,205,172146,6,0,B|325:279|269:348,2,150,8|8|8,0:0|0:0|0:0,0:0:0:0:
256,192,173502,12,4,174859,0:0:0:0:
