osu file format v12

[General]
AudioFilename: supercell - Hero.mp3
AudioLeadIn: 0
PreviewTime: 12110
Countdown: 0
SampleSet: Normal
StackLeniency: 0.7
Mode: 0
LetterboxInBreaks: 0

[Editor]
DistanceSpacing: 1
BeatDivisor: 4
GridSize: 8

[Metadata]
Title:Hero
TitleUnicode:ヒーロー
Artist:supercell
ArtistUnicode:supercell
Creator:Colin Hou
Version:Hard
Source:
Tags:yanaginagi nagi ryo Today Is A Beautiful Day Garven
BeatmapID:96382
BeatmapSetID:23183

[Difficulty]
HPDrainRate:5
CircleSize:4
OverallDifficulty:7
ApproachRate:8
SliderMultiplier:1.4
SliderTickRate:1

[Events]
//Background and Video events
0,0,"BG.jpg",0,0
//Break Periods
2,87081,95462
//Storyboard Layer 0 (Background)
//Storyboard Layer 1 (Fail)
//Storyboard Layer 2 (Pass)
//Storyboard Layer 3 (Foreground)
//Storyboard Sound Samples
//Background Colour Transformations
3,100,49,56,81

[TimingPoints]
1266,338.696020321761,4,2,1,30,1,0
12110,339.366515837104,4,2,1,70,1,0
22983,338.983050847458,4,1,2,50,1,0
23830,-100,4,2,1,50,0,0
23999,-100,4,1,2,50,0,0
24169,-100,4,2,1,50,0,0
24338,-100,4,1,2,50,0,0
25525,-100,4,2,1,50,0,0
25694,-100,4,1,2,50,0,0
26881,-100,4,2,1,50,0,0
27050,-100,4,1,2,50,0,0
27898,-100,4,2,1,50,0,0
28067,-100,4,1,2,50,0,0
28915,-100,4,2,1,50,0,0
29084,-100,4,1,2,50,0,0
29254,-100,4,2,1,50,0,0
29423,-100,4,1,2,50,0,0
29593,-100,4,2,1,50,0,0
29762,-100,4,1,2,50,0,0
31966,-100,4,2,1,50,0,0
32135,-100,4,1,2,50,0,0
32305,-100,4,2,1,50,0,0
32474,-100,4,1,2,50,0,0
33805,339.145917531018,4,1,1,50,1,0
47370,-100,4,2,1,50,0,0
51440,-100,4,1,1,50,0,0
52795,338.983050847458,4,1,1,50,1,0
58210,339.366515837104,4,1,1,50,1,0
63649,339.222614840989,4,1,1,50,1,0
77210,338.983050847458,4,1,1,50,1,0
79920,339.174674957603,4,1,1,50,1,0
82638,339.462517680339,4,1,1,50,1,0
85438,-100,4,2,1,5,0,0
96212,338.753387533875,4,1,2,50,1,0
101632,338.858611244458,4,1,2,50,1,0
107050,338.696020321761,4,1,2,50,1,0
117718,-100,4,1,1,50,0,0
117903,339.07883582933,4,1,1,50,1,0
131466,-100,4,2,1,50,0,0
135535,-100,4,1,2,50,0,0
136891,338.983050847458,4,1,1,50,1,0
147738,339.654684404189,4,1,1,50,1,0
153170,339.030936572962,4,1,1,50,1,0
166728,338.743824982357,4,1,1,50,1,0
169435,338.028169014084,4,1,1,50,1,0
172146,339.174674957603,4,1,1,50,1,0
185725,339.174674957603,4,1,1,50,1,0
191151,338.504936530324,4,1,1,50,1,0
196568,339.07883582933,4,1,1,50,1,0
218267,340.909090909091,4,1,1,50,1,0
220985,333.333333333333,4,1,1,50,1,0
222985,363.636363636364,4,1,1,50,1,0
223712,339.07883582933,4,2,1,50,1,0
234562,338.983050847458,4,1,1,50,1,0
242692,338.600451467269,4,1,1,50,1,0
245400,338.218714768884,4,1,1,50,1,0
248121,339.366515837104,4,2,1,20,1,0
252193,338.791643139469,4,1,1,30,1,0
253538,338.983050847458,4,1,1,50,1,0
261673,339.366515837104,4,1,1,50,1,0
264390,338.983050847458,4,1,1,50,1,0
267100,339.750849377123,4,1,1,50,1,0
269824,339.174674957603,4,1,1,50,1,0
280682,339.174674957603,4,1,1,50,1,0
292213,437.956204379562,4,1,1,50,1,0
292886,697.674418604651,4,2,1,30,1,0
293513,697.674418604651,4,2,1,30,1,0
294211,419.58041958042,4,2,1,30,1,0
294840,437.956204379562,4,2,1,30,1,0
295715,437.956204379562,4,2,1,30,1,0
297365,472.44094488189,4,2,1,30,1,0
300208,769.230769230769,4,2,1,30,1,0
300977,821.917808219178,4,2,1,30,1,0
301798,983.606557377049,4,2,1,30,1,0
302946,560.747663551402,4,2,1,30,1,0

[Colours]
Combo1 : 251,72,72
Combo2 : 215,99,248
Combo3 : 231,215,14

[HitObjects]
312,96,12110,2,0,B|361:148|448:144,2,140,2|0|0,0:0|0:0|0:0,0:0:0:0:
176,168,13128,2,0,B|144:199|112:199,1,70
96,272,13467,2,0,B|156:312|232:304,1,140
288,256,13976,2,0,B|304:328|376:368,1,140
440,328,14485,2,0,B|432:280|448:248,1,70,0|0,0:0|0:0,0:0:0:0:
418,118,14824,6,0,B|426:166|410:198,1,70
339,203,15164,2,0,B|293:194|259:195,1,70
206,150,15503,2,0,B|243:107|244:42,1,105
276,33,15843,2,0,B|289:72|287:113,1,70
360,84,16182,6,0,B|378:116|384:152,1,70,0|0,0:0|0:0,0:0:0:0:
336,208,16521,2,0,B|350:248|344:296,1,70
280,312,16861,2,0,B|232:344|144:336,2,140,0|0|2,0:0|0:0|0:0,0:0:0:0:
288,232,17709,1,0,0:0:0:0:
212,214,17879,6,0,B|188:246|188:286,1,70
240,336,18218,2,0,B|280:280|360:264,1,140
432,64,18897,6,0,B|392:120|312:136,1,140,0|0,0:0|0:0,0:0:0:0:
144,80,19576,2,0,B|144:128|160:168,1,70
104,56,19915,6,0,B|100:130|113:199,1,140,0|0,0:0|0:0,0:0:0:0:
216,280,20424,2,0,B|220:206|207:137,1,140
264,192,20933,6,0,B|273:236|271:271,1,70
344,312,21272,2,0,B|350:282|342:242,1,70
384,104,21612,2,0,B|368:176|392:256,1,140
272,344,22290,2,0,B|232:320|168:320,1,105
136,336,22630,6,0,B|124:311|120:264,1,70,2|0,0:0|0:0,0:0:0:0:
106,86,22983,5,0,0:0:0:0:
286,63,23321,1,0,0:0:0:0:
316,242,23660,2,0,B|355:255|388:251,1,70
476,193,23999,2,0,B|437:206|404:202,1,70
336,160,24338,2,0,B|352:235|348:306,2,140
169,51,25355,6,0,B|153:91|144:132,1,70,0|0,0:0|0:0,0:0:0:0:
200,184,25694,2,0,B|248:128|254:56,2,140
344,272,26711,2,0,B|394:271|432:289,1,70
464,348,27050,2,0,B|399:368|316:349,1,140
181,263,27728,2,0,B|183:212|171:180,1,70
102,150,28067,2,0,B|39:183|24:267,1,140
73,329,28576,5,0,0:0:0:0:
147,289,28745,2,0,B|189:300|226:296,1,70
347,241,29084,2,0,B|320:234|278:239,1,70
428,218,29423,2,0,B|459:192|472:157,1,70
450,80,29762,2,0,B|445:152|501:212,2,140
296,85,30779,2,0,B|239:80|189:118,1,105
196,112,31118,1,0,0:0:0:0:
222,193,31288,6,0,B|187:263|110:283,1,140
200,264,31796,2,0,B|199:307|212:337,1,70
279,285,32135,2,0,B|281:327|297:356,1,70
411,290,32474,2,0,B|409:215|375:150,1,140
202,66,33152,2,0,B|131:77,2,70
290,167,33805,1,0,0:0:0:0:
146,224,34144,6,0,B|180:220|218:214,1,70,8|0,0:0|0:0,0:0:0:0:
288,255,34483,1,0,0:0:0:0:
344,192,34652,1,0,0:0:0:0:
421,225,34822,2,0,B|420:282|442:330,1,105,8|0,0:0|0:0,0:0:0:0:
468,358,35161,2,0,B|393:340|329:369,2,140,0|8|0,0:0|0:0|0:0,0:0:0:0:
416,200,36179,6,0,B|392:144|424:96,1,105,8|0,0:0|0:0,0:0:0:0:
464,80,36518,2,0,B|504:103|504:144,2,70,0|0|8,0:0|0:0|0:0,0:0:0:0:
304,120,37196,2,0,B|232:112,2,70,0|0|8,0:0|0:0|0:0,0:0:0:0:
152,200,37874,2,0,B|144:232|160:272,1,70
240,296,38213,1,8,0:0:0:0:
240,296,38383,1,0,0:0:0:0:
312,256,38553,2,0,B|328:296|328:336,1,70
400,368,38892,2,0,B|464:376|504:328,1,105,8|0,0:0|0:0,0:0:0:0:
496,296,39231,6,0,B|496:224,1,70,8|0,0:0|0:0,0:0:0:0:
457,135,39570,2,0,B|383:141,1,70,8|0,0:0|0:0,0:0:0:0:
305,195,39909,2,0,B|277:163|264:120,1,70,8|0,0:0|0:0,0:0:0:0:
314,47,40248,2,0,B|273:51|236:44,1,70,8|0,0:0|0:0,0:0:0:0:
163,102,40587,5,8,0:0:0:0:
66,84,40757,1,0,0:0:0:0:
103,174,40927,1,8,0:0:0:0:
70,266,41096,1,0,0:0:0:0:
164,239,41266,6,0,B|203:242|239:236,1,70,8|0,0:0|0:0,0:0:0:0:
264,158,41605,2,0,B|295:180|338:181,1,70,8|0,0:0|0:0,0:0:0:0:
375,250,41944,6,0,B|372:204|396:149|454:136,1,140,12|0,0:0|0:0,0:0:0:0:
443,139,42453,1,0,0:0:0:0:
504,81,42622,2,0,B|480:52|441:43,1,70
372,85,42961,2,0,B|332:66|293:70,1,70
239,123,43301,5,0,0:0:0:0:
258,204,43470,1,0,0:0:0:0:
181,240,43640,1,0,0:0:0:0:
119,183,43809,1,0,0:0:0:0:
155,107,43979,6,0,B|136:76|132:37,1,70,0|0,0:0|0:0,0:0:0:0:
105,203,44318,2,0,B|86:172|82:133,1,70,0|0,0:0|0:0,0:0:0:0:
38,276,44657,5,0,0:0:0:0:
121,286,44827,1,0,0:0:0:0:
200,258,44996,1,0,0:0:0:0:
283,268,45166,1,0,0:0:0:0:
355,226,45335,1,0,0:0:0:0:
438,236,45505,1,0,0:0:0:0:
355,226,45675,2,0,B|375:262|361:295,1,70
270,331,46014,5,0,0:0:0:0:
200,258,46183,1,0,0:0:0:0:
233,165,46353,1,0,0:0:0:0:
163,92,46522,1,0,0:0:0:0:
239,29,46692,2,0,B|312:29,2,70,0|0|8,0:0|0:0|0:0,0:0:0:0:
105,18,47201,1,0,0:0:0:0:
26,130,47370,6,0,B|96:115|171:130,1,140,4|0,0:0|0:0,0:0:0:0:
230,182,47879,1,0,0:0:0:0:
184,252,48049,2,0,B|258:269|329:252,1,140,0|0,0:0|0:0,0:0:0:0:
392,300,48557,1,0,0:0:0:0:
468,265,48727,2,0,B|496:197|479:122,2,140,0|0|0,0:0|0:0|0:0,0:0:0:0:
332,365,49744,5,0,0:0:0:0:
182,289,50084,2,0,B|172:332|122:360|71:350,1,140
96,267,50592,1,0,0:0:0:0:
96,99,50931,1,0,0:0:0:0:
240,184,51271,1,0,0:0:0:0:
144,184,51440,5,2,0:0:0:0:
144,184,51610,1,2,0:0:0:0:
395,184,52118,1,2,0:0:0:0:
395,184,52288,1,2,0:0:0:0:
184,40,52795,6,0,B|144:24|100:32|100:32|64:16|32:16,2,140,4|8|0,0:0|0:0|0:0,0:0:0:0:
336,112,53811,2,0,B|366:87|408:96,1,70,8|0,0:0|0:0,0:0:0:0:
483,168,54150,2,0,B|490:208|468:243|468:243|487:319,2,140,0|8|0,0:0|0:0|0:0,0:0:0:0:
394,188,54998,1,0,0:0:0:0:
379,278,55167,2,0,B|307:278,1,70,8|0,0:0|0:0,0:0:0:0:
122,284,55506,6,0,B|204:276|243:341,2,140,0|8|0,0:0|0:0|0:0,0:0:0:0:
41,121,56523,2,0,B|116:106,1,70,8|0,0:0|0:0,0:0:0:0:
198,87,56862,1,0,0:0:0:0:
268,28,57032,1,0,0:0:0:0:
354,57,57201,1,8,0:0:0:0:
285,116,57371,1,0,0:0:0:0:
218,178,57540,2,0,B|231:252,1,70
126,341,57879,6,0,B|208:327|273:330,1,136.7,8|0,0:0|0:0,0:0:0:0:
360,354,58379,1,0,0:0:0:0:
446,310,58549,1,8,0:0:0:0:
446,310,58888,2,0,B|431:236,1,70
416,151,59228,2,0,B|349:173|272:148,1,140,8|0,0:0|0:0,0:0:0:0:
197,106,59737,1,0,0:0:0:0:
197,106,59906,2,0,B|211:181|157:239,1,140,8|0,0:0|0:0,0:0:0:0:
73,263,60415,1,0,0:0:0:0:
73,263,60585,2,0,B|173:269|221:260,2,140,8|0|8,0:0|0:0|0:0,0:0:0:0:
282,339,61603,6,0,B|321:336|360:341,1,70,0|0,0:0|0:0,0:0:0:0:
443,342,61943,2,0,B|425:302|422:273,1,70,8|0,0:0|0:0,0:0:0:0:
402,153,62282,2,8,B|399:187,2,35
443,10,62621,1,0,0:0:0:0:
491,149,62791,2,8,B|495:190,2,35
443,10,63130,1,0,0:0:0:0:
368,71,63300,1,8,0:0:0:0:
508,68,63649,6,0,B|446:76|368:71,1,140,4|8,0:0|0:0,0:0:0:0:
203,147,64327,1,0,0:0:0:0:
114,123,64497,1,0,0:0:0:0:
49,187,64666,2,0,B|74:218|80:258,1,70,8|0,0:0|0:0,0:0:0:0:
243,292,65005,2,0,B|241:223|301:170,2,140,0|8|0,0:0|0:0|0:0,0:0:0:0:
394,189,66023,6,0,B|469:175,1,70,8|0,0:0|0:0,0:0:0:0:
392,292,66362,2,0,B|392:211|320:172,1,140,0|8,0:0|0:0,0:0:0:0:
86,109,66871,2,0,B|86:190|158:229,1,140
238,200,67380,1,8,0:0:0:0:
238,200,67550,1,8,0:0:0:0:
238,200,67719,2,0,B|239:271,1,70,4|0,0:0|0:0,0:0:0:0:
268,77,68398,5,8,0:0:0:0:
364,173,68652,1,0,0:0:0:0:
268,77,68906,1,8,0:0:0:0:
268,77,69076,2,0,B|207:117|128:104,1,140,4|0,0:0|0:0,0:0:0:0:
29,253,69755,2,0,B|16:324,2,70
207,218,70433,5,0,0:0:0:0:
293,247,70603,1,0,0:0:0:0:
207,276,70772,1,0,0:0:0:0:
293,305,70942,1,0,0:0:0:0:
207,276,71111,1,0,0:0:0:0:
293,247,71281,1,0,0:0:0:0:
207,218,71451,1,0,0:0:0:0:
292,189,71620,1,0,0:0:0:0:
377,220,71790,6,0,B|452:242|510:200,1,140
417,42,72468,2,0,B|426:112,2,70
236,22,73147,1,0,0:0:0:0:
215,110,73316,1,8,0:0:0:0:
215,110,73401,1,8,0:0:0:0:
215,110,73486,1,8,0:0:0:0:
136,155,73656,1,0,0:0:0:0:
137,246,73825,2,0,B|184:243|212:238,1,70
199,329,74164,2,0,B|240:324|265:306,1,70
392,222,74504,6,0,B|372:145|388:73,1,140,4|8,0:0|0:0,0:0:0:0:
385,83,75012,1,0,0:0:0:0:
199,39,75352,1,0,0:0:0:0:
62,184,75691,1,0,0:0:0:0:
62,184,75861,2,0,B|51:232,2,35
87,95,76200,1,8,0:0:0:0:
175,76,76369,1,0,0:0:0:0:
255,119,76539,2,0,B|272:158|275:200,1,70,0|8,0:0|0:0,0:0:0:0:
240,327,76878,2,0,B|223:288|220:246,1,70,0|0,0:0|0:0,0:0:0:0:
361,220,77210,6,0,B|407:166|495:159,1,140,8|0,0:0|0:0,0:0:0:0:
483,160,77718,1,0,0:0:0:0:
410,344,78057,2,0,B|335:338,1,70
240,327,78396,2,8,B|199:332,2,35
269,240,78735,1,0,0:0:0:0:
219,164,78904,1,0,0:0:0:0:
251,78,79074,1,8,0:0:0:0:
251,78,79159,1,8,0:0:0:0:
251,78,79243,1,8,0:0:0:0:
181,18,79413,2,0,B|138:91|65:96,1,140
28,226,79920,6,0,B|165:184,1,140,4|0,0:0|0:0,0:0:0:0:
367,311,80428,2,0,B|233:352,1,140,4|0,0:0|0:0,0:0:0:0:
102,285,80937,2,0,B|148:214|87:146,1,140,4|0,0:0|0:0,0:0:0:0:
199,30,81446,2,0,B|153:101|214:169,1,140,4|0,0:0|0:0,0:0:0:0:
297,162,81955,2,0,B|372:162,1,70,4|0,0:0|0:0,0:0:0:0:
252,243,82294,2,0,B|322:243,1,70
428,328,82638,6,0,B|288:328,1,140,0|8,0:0|0:0,0:0:0:0:
288,328,83147,1,0,0:0:0:0:
207,154,83486,1,0,0:0:0:0:
207,154,83656,2,0,B|66:154,1,140,8|0,0:0|0:0,0:0:0:0:
67,154,84165,1,8,0:0:0:0:
67,154,84335,1,0,0:0:0:0:
67,154,84505,1,0,0:0:0:0:
67,154,84674,2,0,B|81:227,1,70,8|0,0:0|0:0,0:0:0:0:
242,310,85014,2,0,B|229:242,1,70
207,154,85353,1,4,0:0:0:0:
256,192,85438,12,0,86881,0:0:0:0:
320,112,96212,6,0,B|400:120|448:64,2,140
154,36,97228,2,0,B|167:106,1,70
213,183,97567,2,0,B|148:214|60:180,1,140
1,237,98075,1,0,0:0:0:0:
153,335,98413,1,0,0:0:0:0:
153,335,98583,2,0,B|226:319,1,70
272,244,98922,5,0,0:0:0:0:
272,244,99091,1,0,0:0:0:0:
272,244,99260,2,0,B|328:289|410:264,1,140
480,216,99768,1,0,0:0:0:0:
480,216,99938,2,0,B|509:145|455:72,2,140
391,192,100785,1,0,0:0:0:0:
391,192,100954,2,0,B|317:204|248:193,1,140
120,66,101632,5,0,0:0:0:0:
120,66,101801,2,0,B|174:91|218:56|218:56|266:60,1,140
241,149,102309,2,0,B|210:168|167:163,1,70
82,160,102648,2,0,B|58:190|61:230,1,70
147,250,102987,2,0,B|223:259|288:229,2,140
290,138,104004,2,0,B|360:168|428:149,1,140
508,108,104512,5,0,0:0:0:0:
508,108,104681,2,0,B|475:136|472:177,1,70
504,252,105020,1,0,0:0:0:0:
414,270,105190,1,0,0:0:0:0:
413,360,105359,1,0,0:0:0:0:
322,349,105528,1,0,0:0:0:0:
232,331,105698,2,0,B|252:252|196:201,1,140
62,80,106376,2,0,B|57:114|66:152,1,70
0,214,106714,2,0,B|67:172|140:180,1,140
221,198,107219,5,0,0:0:0:0:
266,277,107388,2,0,B|298:252|339:252,1,70
395,315,107727,2,0,B|441:257|421:176,1,140
354,121,108235,1,0,0:0:0:0:
278,70,108404,2,0,B|256:107|270:144,1,70
354,121,108743,2,0,B|424:109,1,70
439,251,109082,2,0,B|371:261|295:279,1,140
213,301,109590,5,0,0:0:0:0:
141,357,109759,2,0,B|118:320|131:281,1,70
51,240,110098,2,0,B|76:206|121:203,1,70
103,113,110436,2,0,B|148:117|174:148,1,70
257,148,110775,2,0,B|248:185|220:208,1,70
131,220,111114,6,0,B|112:148|171:85,1,140
257,64,111622,1,0,0:0:0:0:
346,90,111791,2,0,B|400:148|381:220,1,140
222,241,112299,2,0,B|292:241,1,70
352,308,112638,5,0,0:0:0:0:
292,376,112807,2,0,B|222:376,1,70
160,308,113146,2,0,B|132:280|135:239,1,70
185,168,113485,1,0,0:0:0:0:
142,87,113654,1,0,0:0:0:0:
203,19,113823,2,0,B|264:72|341:61,1,140
264,289,114501,2,0,B|270:248|303:225,1,70
370,174,114840,2,0,B|299:182|230:156,1,140
159,102,115348,5,0,0:0:0:0:
76,65,115517,2,0,B|72:99|87:133,1,70
28,234,115856,2,0,B|77:179|160:179,1,140
242,193,116364,1,0,0:0:0:0:
321,236,116533,2,0,B|348:285|329:339,1,105
286,353,116872,2,0,B|261:320|217:319|217:319|159:343,1,140
197,129,117549,1,0,0:0:0:0:
177,217,117718,6,0,B|172:252,2,35,8|8|4,0:0|0:0|0:0,0:0:0:0:
213,28,118242,2,0,B|269:86|234:163,1,140,8|0,0:0|0:0,0:0:0:0:
145,156,118750,1,0,0:0:0:0:
145,156,118920,2,0,B|89:214|124:291,1,140,8|0,0:0|0:0,0:0:0:0:
212,288,119428,1,0,0:0:0:0:
212,288,119598,2,0,B|314:259,1,105,8|0,0:0|0:0,0:0:0:0:
312,259,119937,1,0,0:0:0:0:
249,183,120107,1,0,0:0:0:0:
249,183,120276,6,0,B|389:146,1,140,8|0,0:0|0:0,0:0:0:0:
384,147,120785,1,0,0:0:0:0:
445,69,120954,2,0,B|309:32,1,140,8|0,0:0|0:0,0:0:0:0:
216,32,121463,5,0,0:0:0:0:
160,103,121632,2,0,B|156:137|163:180,1,70,8|0,0:0|0:0,0:0:0:0:
103,243,121971,2,0,B|155:286|239:268,1,140,0|8,0:0|0:0,0:0:0:0:
323,244,122480,1,0,0:0:0:0:
393,186,122650,2,0,B|428:115|413:41,1,140,0|8,0:0|0:0,0:0:0:0:
240,103,123328,1,8,0:0:0:0:
240,103,123497,6,0,B|168:120,1,70,0|8,0:0|0:0,0:0:0:0:
225,209,123836,2,0,B|158:250,1,70,0|8,0:0|0:0,0:0:0:0:
304,273,124175,2,0,B|261:330,1,70,0|8,0:0|0:0,0:0:0:0:
328,171,124515,2,0,B|404:188,1,70,0|8,0:0|0:0,0:0:0:0:
474,288,124854,2,0,B|405:272,1,70,0|8,0:0|0:0,0:0:0:0:
207,308,125193,2,0,B|139:331,2,70,0|8|0,0:0|0:0|0:0,0:0:0:0:
298,343,125701,6,0,B|344:276|315:201,1,140,8|4,0:0|0:0,0:0:0:0:
88,34,126379,2,0,B|57:56|46:95,1,70
141,117,126719,2,0,B|207:98|286:111,1,140
371,144,127227,1,0,0:0:0:0:
432,282,127397,2,0,B|360:303|288:285,1,140
203,248,127905,1,0,0:0:0:0:
105,347,128075,2,0,B|131:265|107:201,1,140
53,128,128583,1,0,0:0:0:0:
53,128,128753,2,0,B|131:128|192:112,1,140
283,79,129262,1,0,0:0:0:0:
440,31,129431,6,0,B|464:63|462:104,1,70,0|0,0:0|0:0,0:0:0:0:
461,194,129770,2,0,B|457:231|434:261,1,70
343,318,130109,2,0,B|305:339|270:334,1,70
133,318,130448,2,0,B|85:304|68:284,1,70
63,106,130787,2,0,B|64:68|52:34,2,70,0|0|8,0:0|0:0|0:0,0:0:0:0:
3,226,131296,1,0,0:0:0:0:
85,191,131466,6,0,B|162:183|232:188,1,140,4|0,0:0|0:0,0:0:0:0:
315,224,132144,1,0,0:0:0:0:
242,290,132483,1,0,0:0:0:0:
317,351,132822,2,0,B|389:342|456:351,2,140,0|0|0,0:0|0:0|0:0,0:0:0:0:
164,215,133839,5,0,0:0:0:0:
164,215,134178,2,0,B|233:185|224:100,1,140
224,100,134687,1,0,0:0:0:0:
315,135,135026,1,0,0:0:0:0:
389,71,135365,1,0,0:0:0:0:
389,71,135535,6,0,B|408:74|427:80|427:80|447:73|470:71,1,70,2|2,0:0|0:0,0:0:0:0:
195,244,136213,2,0,B|176:241|157:235|157:235|137:242|114:244,1,70,2|2,0:0|0:0,0:0:0:0:
408,171,136891,6,0,B|468:207|468:207|482:283,2,140,4|8|0,0:0|0:0|0:0,0:0:0:0:
387,266,137907,2,0,B|401:337,1,70,8|0,0:0|0:0,0:0:0:0:
400,334,138246,2,0,B|350:372|265:362,2,140,0|8|0,0:0|0:0|0:0,0:0:0:0:
317,239,139263,6,0,B|328:165,1,70,8|0,0:0|0:0,0:0:0:0:
309,83,139602,2,0,B|380:99|380:99|445:74,2,140,0|8|0,0:0|0:0|0:0,0:0:0:0:
216,49,140619,2,0,B|146:56,1,70,8|0,0:0|0:0,0:0:0:0:
92,124,140958,6,0,B|22:131,2,70,0|0|8,0:0|0:0|0:0,0:0:0:0:
161,171,141467,1,0,0:0:0:0:
169,254,141636,2,0,B|210:256|236:220,1,70
278,157,141975,1,8,0:0:0:0:
442,140,142314,6,0,B|496:192|474:271,1,140,0|8,0:0|0:0,0:0:0:0:
379,291,142823,1,0,0:0:0:0:
379,291,142992,2,0,B|325:239|347:160,1,140,0|8,0:0|0:0,0:0:0:0:
339,78,143501,1,0,0:0:0:0:
250,54,143670,6,0,B|198:99|198:99|124:95,1,140,0|8,0:0|0:0,0:0:0:0:
65,217,144179,1,0,0:0:0:0:
65,217,144348,2,0,B|117:172|117:172|191:176,1,140,0|8,0:0|0:0,0:0:0:0:
262,183,144857,6,0,B|332:185,1,70
445,187,145365,1,8,0:0:0:0:
313,312,145704,1,0,0:0:0:0:
136,267,146043,1,8,0:0:0:0:
263,136,146382,5,0,0:0:0:0:
263,136,146467,1,0,0:0:0:0:
263,136,146552,1,0,0:0:0:0:
325,201,146721,1,8,0:0:0:0:
292,286,146890,1,0,0:0:0:0:
292,286,146975,1,0,0:0:0:0:
292,286,147060,1,0,0:0:0:0:
227,221,147229,2,0,B|156:227,2,70,0|8|0,0:0|0:0|0:0,0:0:0:0:
365,233,147738,6,0,B|409:278|389:375,2,140,4|8|0,0:0|0:0|0:0,0:0:0:0:
138,114,148756,2,0,B|108:88|106:50,1,70,8|0,0:0|0:0,0:0:0:0:
198,41,149096,2,0,B|56:22,2,140,0|8|0,0:0|0:0|0:0,0:0:0:0:
332,163,150115,5,8,0:0:0:0:
417,131,150285,1,0,0:0:0:0:
332,163,150455,2,0,B|273:212|196:172,1,140,0|8,0:0|0:0,0:0:0:0:
109,114,150964,2,0,B|84:255,1,140
65,356,151474,2,0,B|139:344,1,70,8|0,0:0|0:0,0:0:0:0:
224,331,151813,1,4,0:0:0:0:
224,331,151983,1,0,0:0:0:0:
493,287,152493,5,0,0:0:0:0:
389,198,152747,1,0,0:0:0:0:
426,66,153002,1,0,0:0:0:0:
426,66,153170,2,0,B|407:137|326:150,1,140,4|0,0:0|0:0,0:0:0:0:
254,92,153678,1,0,0:0:0:0:
254,92,153848,2,0,B|112:112,1,140
129,292,154526,2,0,B|43:304,2,70
213,326,155034,1,0,0:0:0:0:
264,251,155204,6,0,B|370:236,2,105
185,205,155882,2,0,B|150:170|150:170|160:129|160:129|125:91,1,140
69,23,156390,1,0,0:0:0:0:
69,23,156560,2,0,B|94:92|57:162,2,140
157,45,157407,2,0,B|202:40,2,35
160,136,157746,1,0,0:0:0:0:
249,151,157916,2,0,B|285:160|327:160,1,70
343,328,158255,2,0,B|387:318|410:288,1,70
401,128,158594,6,0,B|403:208|338:245,1,140,4|0,0:0|0:0,0:0:0:0:
254,351,159103,2,0,B|185:336|109:333,1,140,4|0,0:0|0:0,0:0:0:0:
55,264,159611,2,0,B|14:263,2,35
186,241,159950,6,0,B|264:244|321:197,1,140,4|0,0:0|0:0,0:0:0:0:
262,26,160459,2,0,B|184:23|127:70,1,140,4|0,0:0|0:0,0:0:0:0:
104,153,160967,1,0,0:0:0:0:
169,216,161137,1,0,0:0:0:0:
169,216,161221,1,0,0:0:0:0:
169,216,161306,6,0,B|247:221|280:292,1,140,4|0,0:0|0:0,0:0:0:0:
303,384,161815,2,0,B|376:354|371:271,1,140,4|0,0:0|0:0,0:0:0:0:
326,193,162323,2,0,B|359:179|395:185,1,70
453,254,162662,2,8,B|463:296,2,35
414,111,163001,1,0,0:0:0:0:
367,272,163171,2,8,B|355:308,2,35
391,192,163510,6,8,B|432:183,5,35
474,172,164018,2,0,B|410:144|407:56,1,140,4|0,0:0|0:0,0:0:0:0:
282,22,164527,2,0,B|245:88|160:84,1,140,4|0,0:0|0:0,0:0:0:0:
209,253,165036,2,0,B|241:192|306:154,1,140,4|0,0:0|0:0,0:0:0:0:
306,153,165544,2,0,B|317:228|295:292,1,140,4|0,0:0|0:0,0:0:0:0:
224,349,166053,5,0,0:0:0:0:
224,349,166222,1,0,0:0:0:0:
134,368,166392,1,0,0:0:0:0:
74,299,166561,1,0,0:0:0:0:
74,299,166728,6,0,B|50:262|56:224,1,70,8|0,0:0|0:0,0:0:0:0:
119,167,167066,1,0,0:0:0:0:
62,81,167236,2,0,B|131:89|200:63,1,140,8|0,0:0|0:0,0:0:0:0:
296,148,167744,2,0,B|365:122|434:130,1,140,8|0,0:0|0:0,0:0:0:0:
370,270,168252,2,0,B|301:296|232:288,1,140,8|0,0:0|0:0,0:0:0:0:
151,248,168760,5,0,0:0:0:0:
151,248,168929,1,0,0:0:0:0:
72,202,169099,2,0,B|42:222|29:262,1,70
162,364,169435,6,0,B|188:355|214:319,1,70,8|0,0:0|0:0,0:0:0:0:
247,233,169773,1,0,0:0:0:0:
209,83,169942,2,0,B|137:76,2,70,8|0|0,0:0|0:0|0:0,0:0:0:0:
353,163,170449,6,0,B|359:126|385:102,1,70,8|0,0:0|0:0,0:0:0:0:
444,168,170787,1,0,0:0:0:0:
341,251,170956,2,0,B|335:288|309:312,2,70,8|0|0,0:0|0:0|0:0,0:0:0:0:
155,129,171463,6,0,B|181:65,1,70,8|0,0:0|0:0,0:0:0:0:
237,172,171801,2,0,B|251:241,1,70,8|0,0:0|0:0,0:0:0:0:
22,208,172146,6,0,B|87:240|168:227,1,140,8|0,0:0|0:0,0:0:0:0:
158,228,172654,1,8,0:0:0:0:
332,72,172993,1,0,0:0:0:0:
332,72,173163,2,0,B|393:124|377:208,1,140,8|0,0:0|0:0,0:0:0:0:
256,192,173587,12,4,174859,0:0:0:0:
