osu file format v12

[General]
AudioFilename: supercell - Hero.mp3
AudioLeadIn: 0
PreviewTime: 12110
Countdown: 0
SampleSet: Normal
StackLeniency: 0.5
Mode: 0
LetterboxInBreaks: 0

[Editor]
DistanceSpacing: 1
BeatDivisor: 4
GridSize: 8

[Metadata]
Title:Hero
TitleUnicode:ヒーロー
Artist:supercell
ArtistUnicode:supercell
Creator:Colin Hou
Version:G.Hero
Source:
Tags:yanaginagi nagi ryo Today Is A Beautiful Day Garven
BeatmapID:91354
BeatmapSetID:23183

[Difficulty]
HPDrainRate:6
CircleSize:4
OverallDifficulty:8
ApproachRate:8
SliderMultiplier:1.6
SliderTickRate:2

[Events]
//Background and Video events
0,0,"BG.jpg",0,0
//Break Periods
2,87081,94108
//Storyboard Layer 0 (Background)
//Storyboard Layer 1 (Fail)
//Storyboard Layer 2 (Pass)
//Storyboard Layer 3 (Foreground)
//Storyboard Sound Samples
//Background Colour Transformations
3,100,49,56,81

[TimingPoints]
1266,338.696020321761,4,2,1,30,1,0
12110,339.366515837104,4,2,1,70,1,0
22630,-100,4,2,1,50,0,0
22983,338.983050847458,4,1,1,50,1,0
23067,-100,4,2,1,50,0,0
25694,-100,4,1,2,50,0,0
25779,-100,4,2,1,50,0,0
28406,-100,4,1,2,50,0,0
28491,-100,4,2,1,50,0,0
29762,-100,4,1,2,50,0,0
29847,-100,4,2,1,50,0,0
31118,-100,4,1,2,50,0,0
31203,-100,4,2,1,50,0,0
32474,-100,4,1,2,50,0,0
32559,-100,4,2,1,50,0,0
33152,-100,4,1,2,50,0,0
33237,-100,4,2,1,50,0,0
33660,-100,4,1,2,50,0,0
33805,339.145917531018,4,1,1,50,1,0
33805,-90.9090909090909,4,1,2,50,0,0
39316,-100,4,2,1,50,0,0
39485,-100,4,1,2,50,0,0
41859,-100,4,2,1,50,0,0
42029,-100,4,1,2,50,0,0
47286,-100,4,2,1,50,0,0
52794,-83.3333333333333,4,1,2,50,0,1
52795,338.983050847458,4,1,2,50,1,1
52795,-83.3333333333333,4,1,1,50,0,1
56778,-83.3333333333333,4,2,1,70,0,1
57795,-83.3333333333333,4,1,2,50,0,1
58210,339.366515837104,4,1,2,50,1,1
58210,-83.3333333333333,4,1,2,50,0,1
59312,-83.3333333333333,4,2,1,70,0,1
59482,-83.3333333333333,4,1,2,50,0,1
63649,339.222614840989,4,1,2,50,1,1
63649,-83.3333333333333,4,1,2,50,0,1
66277,-83.3333333333333,4,2,1,50,0,1
66447,-83.3333333333333,4,1,2,50,0,1
66786,-83.3333333333333,4,1,2,35,0,1
67719,-100,4,2,1,5,0,0
68228,-100,4,1,2,50,0,0
70348,-100,4,2,1,60,0,0
70518,-100,4,1,2,50,0,0
73401,-100,4,2,1,60,0,0
73571,-100,4,1,2,50,0,0
77210,338.983050847458,4,1,2,50,1,0
79920,339.174674957603,4,1,2,50,1,0
79920,-83.3333333333333,4,1,2,50,0,0
82638,339.462517680339,4,1,2,50,1,0
85523,-100,4,2,1,20,0,0
86881,-100,4,2,1,5,0,0
94858,-133.333333333333,4,2,1,30,0,0
95877,-100,4,2,1,30,0,0
96212,338.753387533875,4,1,2,30,1,0
96296,-100,4,2,1,50,0,0
101632,338.858611244458,4,2,1,50,1,0
107050,338.696020321761,4,1,2,50,1,0
107134,-100,4,2,1,50,0,0
109674,-100,4,1,2,50,0,0
109844,-100,4,2,1,50,0,0
112384,-100,4,1,2,50,0,0
112553,-100,4,2,1,50,0,0
113739,-100,4,1,2,50,0,0
113908,-100,4,2,1,50,0,0
115094,-100,4,1,2,50,0,0
115263,-100,4,2,1,50,0,0
116448,-100,4,1,2,50,0,0
116618,-100,4,2,1,50,0,0
117126,-100,4,1,2,50,0,0
117295,-100,4,2,1,50,0,0
117634,-100,4,1,2,50,0,0
117903,339.07883582933,4,1,2,50,1,0
117903,-90.9090909090909,4,1,2,50,0,0
123328,-100,4,1,2,50,0,0
123413,-100,4,2,1,50,0,0
123582,-100,4,1,2,50,0,0
125956,-100,4,2,1,50,0,0
126125,-100,4,1,2,30,0,0
127058,-100,4,1,2,35,0,0
127736,-100,4,1,2,40,0,0
128414,-100,4,1,2,45,0,0
129262,-100,4,1,2,48,0,0
129940,-100,4,1,2,50,0,0
131805,-100,4,2,1,50,0,0
135450,-100,4,1,2,50,0,0
135619,-100,4,2,1,50,0,0
136128,-100,4,1,2,50,0,0
136298,-100,4,2,1,50,0,0
136891,338.983050847458,4,1,2,70,1,1
136891,-83.3333333333333,4,1,2,70,0,1
140874,-83.3333333333333,4,2,1,70,0,1
141891,-83.3333333333333,4,1,2,50,0,1
143331,-83.3333333333333,4,2,1,70,0,1
143670,-83.3333333333333,4,1,2,50,0,1
147738,339.654684404189,4,1,2,50,1,1
147738,-83.3333333333333,4,1,2,50,0,1
150370,-83.3333333333333,4,2,1,70,0,1
150540,-83.3333333333333,4,1,2,50,0,1
151813,-100,4,1,2,50,0,0
153170,339.030936572962,4,1,1,50,1,0
154441,-83.3333333333333,4,2,1,70,0,0
154610,-100,4,1,2,50,0,0
157492,-100,4,2,1,70,0,0
157662,-100,4,1,2,50,0,0
163849,-90.9090909090909,4,1,2,50,0,0
166728,338.743824982357,4,1,2,50,1,0
166812,-100,4,2,2,50,0,0
166982,-100,4,1,2,50,0,0
167998,-100,4,2,2,60,0,0
168167,-100,4,1,2,50,0,0
169435,338.028169014084,4,2,2,80,1,0
169519,-100,4,1,2,50,0,0
170364,-100,4,2,2,70,0,0
170533,-100,4,1,2,50,0,0
171378,-100,4,2,2,60,0,0
171547,-100,4,1,2,50,0,0
171716,-100,4,2,2,40,0,0
171885,-100,4,1,2,50,0,0
172146,339.174674957603,4,1,2,50,1,0
173502,-100,4,2,0,50,0,0
185725,339.174674957603,4,1,1,50,1,0
191151,338.504936530324,4,1,1,50,1,0
196568,339.07883582933,4,1,1,50,1,0
218267,340.909090909091,4,1,1,50,1,0
220985,333.333333333333,4,1,1,50,1,0
222985,363.636363636364,4,1,1,50,1,0
223712,339.07883582933,4,2,1,50,1,0
234562,338.983050847458,4,1,1,50,1,0
242692,338.600451467269,4,1,1,50,1,0
245400,338.218714768884,4,1,1,50,1,0
248121,339.366515837104,4,2,1,20,1,0
252193,338.791643139469,4,1,1,30,1,0
253538,338.983050847458,4,1,1,50,1,0
261673,339.366515837104,4,1,1,50,1,0
264390,338.983050847458,4,1,1,50,1,0
267100,339.750849377123,4,1,1,50,1,0
269824,339.174674957603,4,1,1,50,1,0
280682,339.174674957603,4,1,1,50,1,0
292213,437.956204379562,4,1,1,50,1,0
292886,697.674418604651,4,2,1,30,1,0
293513,697.674418604651,4,2,1,30,1,0
294211,419.58041958042,4,2,1,30,1,0
294840,437.956204379562,4,2,1,30,1,0
295715,437.956204379562,4,2,1,30,1,0
297365,472.44094488189,4,2,1,30,1,0
300208,769.230769230769,4,2,1,30,1,0
300977,821.917808219178,4,2,1,30,1,0
301798,983.606557377049,4,2,1,30,1,0
302946,560.747663551402,4,2,1,30,1,0

[Colours]
Combo1 : 251,72,72
Combo2 : 215,99,248
Combo3 : 231,215,14

[HitObjects]
72,68,12110,1,2,0:0:0:0:
176,192,12449,1,0,0:0:0:0:
256,192,12619,1,0,0:0:0:0:
336,192,12788,1,0,0:0:0:0:
176,192,13297,5,0,0:0:0:0:
216,124,13467,1,2,0:0:0:0:
256,192,13637,1,0,0:0:0:0:
296,260,13806,1,0,0:0:0:0:
336,192,13976,1,0,0:0:0:0:
420,48,14655,5,0,0:0:0:0:
420,128,14824,2,0,B|420:208,1,80,2|0,0:0|0:0,0:0:0:0:
400,124,15164,2,0,B|380:204,1,80
380,116,15503,2,0,B|344:188,1,80
356,100,15843,2,0,B|308:168,1,80
224,284,16182,5,2,0:0:0:0:
224,284,16352,1,0,0:0:0:0:
132,208,16521,1,0,0:0:0:0:
132,208,16691,1,0,0:0:0:0:
224,128,16861,2,0,B|284:84|344:152|288:204,1,160
256,356,17539,5,2,0:0:0:0:
336,356,17709,2,0,B|416:356,2,80
296,288,18218,1,0,0:0:0:0:
256,220,18388,2,0,B|172:220,2,80
336,220,18897,6,0,B|416:192|440:104,1,160,2|0,0:0|0:0,0:0:0:0:
216,152,19576,2,0,B|239:66|319:38,1,160,0|0,0:0|0:0,0:0:0:0:
480,32,20254,5,2,0:0:0:0:
400,48,20424,2,0,B|360:88|360:152|400:192,1,160
480,208,20933,1,0,0:0:0:0:
480,288,21103,1,0,0:0:0:0:
400,272,21272,1,0,0:0:0:0:
400,352,21442,1,0,0:0:0:0:
332,312,21612,6,0,B|256:320|256:220|336:228,1,160,2|0,0:0|0:0,0:0:0:0:
332,72,22290,2,0,B|256:64|256:164|336:156,1,160
480,92,22983,5,0,0:0:0:0:
432,156,23152,1,0,0:0:0:0:
432,236,23321,1,0,0:0:0:0:
380,296,23491,1,0,0:0:0:0:
324,352,23660,1,2,0:0:0:0:
244,352,23830,2,0,B|184:280|244:208,1,160
316,112,24338,5,2,0:0:0:0:
240,132,24508,1,0,0:0:0:0:
164,152,24677,2,0,B|84:172,2,80,0|0|2,0:0|0:0|0:0,0:0:0:0:
344,312,25525,6,0,B|264:312,2,80
412,268,26033,1,0,0:0:0:0:
432,192,26203,2,0,B|512:192,2,80,0|2|0,0:0|0:0|0:0,0:0:0:0:
412,116,26711,1,0,0:0:0:0:
344,72,26881,1,0,0:0:0:0:
268,44,27050,6,0,B|188:44|132:116,1,160,2|0,0:0|0:0,0:0:0:0:
356,192,27728,2,0,B|299:264|219:264,1,160,2|0,0:0|0:0,0:0:0:0:
44,336,28406,5,0,0:0:0:0:
96,276,28576,2,0,B|148:344,2,80
40,168,29084,1,2,0:0:0:0:
16,92,29254,1,0,0:0:0:0:
64,28,29423,1,0,0:0:0:0:
144,16,29593,1,0,0:0:0:0:
220,40,29762,6,0,B|288:88|376:64,1,160
336,272,30440,2,0,B|268:224|180:248,1,160,2|0,0:0|0:0,0:0:0:0:
72,132,31118,5,0,0:0:0:0:
152,128,31288,2,0,B|183:93|222:141|254:188|293:155,1,160
360,120,31796,1,2,0:0:0:0:
432,80,31966,1,0,0:0:0:0:
432,160,32135,1,0,0:0:0:0:
504,120,32305,1,0,0:0:0:0:
504,40,32474,6,0,B|432:-20|360:40,1,160,0|2,0:0|0:0,0:0:0:0:
504,200,33152,2,0,B|432:260|360:200,1,160,0|2,0:0|0:0,0:0:0:0:
288,120,33660,1,8,0:0:0:0:
284,116,33745,1,0,0:0:0:0:
280,112,33805,6,0,B|236:36|128:20|52:96,1,263.999992132187,4|0,0:0|0:0,0:0:0:0:
120,152,34483,1,0,0:0:0:0:
208,160,34652,1,0,0:0:0:0:
200,248,34822,2,0,B|222:338,1,87.9999973773957,8|0,0:0|0:0,0:0:0:0:
111,242,35161,2,0,B|60:321,1,87.9999973773957
136,368,35500,1,8,0:0:0:0:
304,312,35839,1,0,0:0:0:0:
384,288,36009,1,0,0:0:0:0:
440,228,36179,6,0,B|484:140|448:56,1,175.999994754791,8|0,0:0|0:0,0:0:0:0:
256,168,36857,2,0,B|272:70|352:28,1,175.999994754791,8|0,0:0|0:0,0:0:0:0:
380,112,37366,1,0,0:0:0:0:
352,188,37535,1,8,0:0:0:0:
168,348,37874,6,0,B|120:272,1,87.9999973773957
188,236,38213,1,8,0:0:0:0:
188,156,38383,1,0,0:0:0:0:
124,108,38553,2,0,B|168:32,2,87.9999973773957,0|0|8,0:0|0:0|0:0,0:0:0:0:
40,240,39231,5,8,0:0:0:0:
96,296,39400,2,0,B|152:344|244:348,1,160,4|0,0:0|0:0,0:0:0:0:
296,284,39909,1,8,0:0:0:0:
352,340,40079,1,0,0:0:0:0:
372,264,40248,1,8,0:0:0:0:
428,320,40418,1,0,0:0:0:0:
448,244,40587,5,8,0:0:0:0:
504,188,40757,1,0,0:0:0:0:
428,168,40927,1,8,0:0:0:0:
484,112,41096,1,0,0:0:0:0:
424,60,41266,1,8,0:0:0:0:
352,28,41435,1,0,0:0:0:0:
280,60,41605,1,8,0:0:0:0:
84,328,41944,5,4,0:0:0:0:
160,316,42622,1,0,0:0:0:0:
236,304,43301,1,0,0:0:0:0:
312,288,43979,1,0,0:0:0:0:
464,252,44657,5,0,0:0:0:0:
348,216,44996,1,0,0:0:0:0:
232,184,45335,1,0,0:0:0:0:
116,156,45675,1,0,0:0:0:0:
20,28,46014,5,0,0:0:0:0:
96,48,46183,1,0,0:0:0:0:
176,68,46353,1,8,0:0:0:0:
256,84,46522,1,0,0:0:0:0:
256,164,46692,1,0,0:0:0:0:
256,244,46862,1,0,0:0:0:0:
336,260,47031,1,8,0:0:0:0:
416,280,47201,1,4,0:0:0:0:
492,300,47370,1,4,0:0:0:0:
400,120,48049,5,0,0:0:0:0:
112,204,48727,1,2,0:0:0:0:
256,336,49744,5,0,0:0:0:0:
256,192,50084,2,0,B|216:124|216:124|312:124,1,160,2|0,0:0|0:0,0:0:0:0:
360,192,50592,1,0,0:0:0:0:
256,336,50931,1,0,0:0:0:0:
152,192,51271,1,0,0:0:0:0:
216,152,51440,5,2,0:0:0:0:
216,152,51610,1,0,0:0:0:0:
296,232,52118,1,2,0:0:0:0:
296,232,52288,1,0,0:0:0:0:
424,156,52795,6,0,B|372:88|256:36|140:88|88:156,1,383.99998828125,4|0,0:0|0:0,0:0:0:0:
56,236,53642,1,0,0:0:0:0:
76,320,53811,1,8,0:0:0:0:
152,364,53981,1,0,0:0:0:0:
236,340,54150,2,0,B|208:224|324:196,1,192.000004577637,4|8,0:0|0:0,0:0:0:0:
424,336,54828,2,0,B|538:308|510:192,1,192.000004577637,4|8,0:0|0:0,0:0:0:0:
476,112,55337,1,0,0:0:0:0:
396,80,55506,6,0,B|408:136|392:184|344:216|288:224,1,191.999994140625,4|0,0:0|0:0,0:0:0:0:
216,216,56015,1,0,0:0:0:0:
64,40,56354,1,0,0:0:0:0:
148,24,56523,1,8,0:0:0:0:
216,80,56693,1,0,0:0:0:0:
280,136,56862,2,0,B|288:232,1,96.0000022888184,2|0,0:0|0:0,0:0:0:0:
212,188,57201,2,0,B|220:284,1,96.0000022888184,2|0,0:0|0:0,0:0:0:0:
144,248,57540,1,2,0:0:0:0:
144,248,57710,1,2,0:0:0:0:
212,189,57879,5,8,0:0:0:0:
288,232,58049,1,0,0:0:0:0:
360,280,58210,2,0,B|385:247|385:247|432:240|432:240|416:200|467:144,1,191.999994140625,4|8,0:0|0:0,0:0:0:0:
328,144,58719,2,0,B|380:64,1,96.0000022888184
232,192,59058,2,0,B|180:272,1,96.0000022888184,0|8,0:0|0:0,0:0:0:0:
236,84,59397,2,0,B|156:32,1,96.0000022888184,4|0,0:0|0:0,0:0:0:0:
324,252,59737,2,0,B|404:304,1,96.0000022888184,0|8,0:0|0:0,0:0:0:0:
164,140,60076,2,0,B|70:159,1,96.0000022888184,4|0,0:0|0:0,0:0:0:0:
396,196,60415,2,0,B|489:176,1,96.0000022888184,0|8,0:0|0:0,0:0:0:0:
428,92,60755,5,0,0:0:0:0:
344,60,60924,2,0,B|248:16|144:64|112:164,1,288.000006866455
96,248,61603,1,0,0:0:0:0:
124,328,61773,1,0,0:0:0:0:
200,372,61943,1,8,0:0:0:0:
284,360,62112,1,0,0:0:0:0:
332,288,62282,5,8,0:0:0:0:
288,212,62452,1,0,0:0:0:0:
208,176,62621,1,0,0:0:0:0:
332,288,62791,1,8,0:0:0:0:
404,332,62961,1,0,0:0:0:0:
488,312,63130,1,0,0:0:0:0:
436,152,63300,1,8,0:0:0:0:
368,208,63470,1,8,0:0:0:0:
332,288,63649,6,0,B|304:384|128:376|168:312,1,191.999994140625,4|0,0:0|0:0,0:0:0:0:
88,312,64157,1,0,0:0:0:0:
52,88,64497,1,0,0:0:0:0:
124,140,64666,1,8,0:0:0:0:
208,160,64836,1,0,0:0:0:0:
296,160,65005,2,0,B|404:152|460:72,1,192.000004577637,4|8,0:0|0:0,0:0:0:0:
332,236,65684,2,0,B|432:220|500:144,1,192.000004577637,0|8,0:0|0:0,0:0:0:0:
508,60,66193,1,0,0:0:0:0:
416,40,66362,6,0,B|320:40|320:40|248:40|248:92,1,192.000004577637,4|0,0:0|0:0,0:0:0:0:
256,224,66871,2,0,B|256:270|184:270|184:270|88:270,1,192.000004577637,8|8,0:0|0:0,0:0:0:0:
324,112,67550,2,0,B|324:132|324:132|320:156|296:156|296:156|216:156|216:156|192:156|184:176|184:176|184:204,1,192.000004577637,4|0,0:0|0:0,0:0:0:0:
120,368,68398,5,0,0:0:0:0:
216,296,68652,1,0,0:0:0:0:
332,268,68906,1,0,0:0:0:0:
412,268,69076,2,0,B|472:268|540:192|472:116|412:116,1,240,4|0,0:0|0:0,0:0:0:0:
332,116,69755,1,0,0:0:0:0:
184,52,70094,1,0,0:0:0:0:
256,196,70433,1,2,0:0:0:0:
184,228,70603,1,0,0:0:0:0:
112,196,70772,1,0,0:0:0:0:
108,36,71111,5,0,0:0:0:0:
184,128,71366,1,0,0:0:0:0:
260,36,71620,1,0,0:0:0:0:
340,36,71790,2,0,B|420:36|420:36|448:36|468:56|468:88|468:88|468:168,1,240
396,136,72468,2,0,B|396:176|396:176|396:208|424:242|468:240|468:240|468:332,1,240
396,312,73147,1,0,0:0:0:0:
328,356,73316,1,0,0:0:0:0:
324,276,73486,1,2,0:0:0:0:
256,320,73656,1,0,0:0:0:0:
192,268,73825,1,0,0:0:0:0:
148,200,73995,1,0,0:0:0:0:
228,196,74164,1,4,0:0:0:0:
184,128,74334,1,0,0:0:0:0:
144,56,74504,6,0,B|84:32|24:64|20:128,1,160,0|8,0:0|0:0,0:0:0:0:
96,260,75012,2,0,B|152:284|68:384|176:304|192:372,1,160,4|8,0:0|0:0,0:0:0:0:
308,344,75521,1,0,0:0:0:0:
380,248,75691,2,0,B|432:172|384:96,1,160,4|0,0:0|0:0,0:0:0:0:
383,94,76115,1,8,0:0:0:0:
380,90,76200,1,8,0:0:0:0:
272,36,76369,2,0,B|188:36,2,80,0|8|0,0:0|0:0|0:0,0:0:0:0:
344,320,77048,5,8,0:0:0:0:
320,244,77210,2,0,B|296:200|256:196|216:200|192:244,1,160,4|8,0:0|0:0,0:0:0:0:
168,320,77718,1,4,0:0:0:0:
396,244,78057,1,0,0:0:0:0:
184,72,78396,1,8,0:0:0:0:
256,340,78735,1,8,0:0:0:0:
336,72,79074,1,8,0:0:0:0:
116,244,79413,1,8,0:0:0:0:
304,232,79920,6,0,B|392:164|512:228|464:356,1,288.000006866455,4|4,0:0|0:0,0:0:0:0:
208,152,80937,2,0,B|120:220|0:156|48:28,1,288.000006866455,4|4,0:0|0:0,0:0:0:0:
376,72,81955,1,8,0:0:0:0:
136,304,82294,1,4,0:0:0:0:
376,296,82638,5,0,0:0:0:0:
160,120,82977,1,8,0:0:0:0:
124,192,83147,1,0,0:0:0:0:
160,264,83316,1,0,0:0:0:0:
352,120,83656,1,8,0:0:0:0:
388,192,83826,1,0,0:0:0:0:
352,264,83995,1,0,0:0:0:0:
280,300,84165,5,8,0:0:0:0:
232,236,84335,1,0,0:0:0:0:
296,188,84505,1,0,0:0:0:0:
220,160,84674,1,8,0:0:0:0:
172,96,84844,1,0,0:0:0:0:
216,28,85014,1,8,0:0:0:0:
296,28,85183,1,8,0:0:0:0:
344,92,85353,1,4,0:0:0:0:
256,192,85523,12,0,86881,0:0:0:0:
136,200,94858,6,0,B|160:320|256:344|352:320|376:200,1,359.999989271164,4|2,0:0|0:0,0:0:0:0:
256,32,96212,6,0,B|220:84|304:128|256:184,1,160,4|0,0:0|0:0,0:0:0:0:
200,240,96720,1,0,0:0:0:0:
140,296,96889,1,0,0:0:0:0:
80,348,97058,1,0,0:0:0:0:
36,144,97397,5,0,0:0:0:0:
84,80,97567,1,2,0:0:0:0:
160,56,97736,1,0,0:0:0:0:
236,80,97905,1,0,0:0:0:0:
284,144,98075,2,0,B|308:232|408:224,1,160
360,72,98752,5,0,0:0:0:0:
440,60,98922,1,2,0:0:0:0:
492,120,99091,1,0,0:0:0:0:
412,136,99260,2,0,B|464:196,1,80
384,212,99599,1,0,0:0:0:0:
436,272,99768,1,0,0:0:0:0:
356,288,99938,2,0,B|408:348,1,80
436,272,100277,6,0,B|332:152,1,160,2|0,0:0|0:0,0:0:0:0:
280,88,100785,1,0,0:0:0:0:
228,28,100954,2,0,B|255:4|303:12,2,80
120,240,101632,5,2,0:0:0:0:
176,300,101801,2,0,B|248:364|320:300,1,160
396,284,102309,2,0,B|432:264|476:288,1,80,0|0,0:0|0:0,0:0:0:0:
344,232,102648,2,0,B|364:196|340:152,1,80,0|0,0:0|0:0,0:0:0:0:
428,208,102987,6,0,B|444:120|368:68,1,160,2|0,0:0|0:0,0:0:0:0:
268,192,103665,2,0,B|193:141|209:53,1,160
104,272,104342,5,2,0:0:0:0:
160,328,104512,2,2,B|200:328|200:328|240:344,1,80,0|0,0:0|0:0,0:0:0:0:
240,260,104851,2,2,B|280:260|280:260|320:244,1,80,0|0,0:0|0:0,0:0:0:0:
356,344,105190,2,2,B|436:344,2,80,0|0|0,0:0|0:0|0:0,0:0:0:0:
237,343,105698,6,2,B|148:348|104:272,1,160,2|0,0:0|0:0,0:0:0:0:
240,184,106376,2,2,B|187:111|103:115,1,160,0|0,0:0|0:0,0:0:0:0:
296,260,107050,5,0,0:0:0:0:
352,320,107219,1,0,0:0:0:0:
432,320,107388,1,0,0:0:0:0:
484,260,107558,1,0,0:0:0:0:
484,180,107727,2,0,B|484:124|448:80|388:68,1,160
200,152,108404,5,2,0:0:0:0:
160,220,108574,1,0,0:0:0:0:
120,152,108743,1,0,0:0:0:0:
80,220,108912,1,0,0:0:0:0:
44,292,109082,2,0,B|64:352|144:352|164:292,1,160
247,258,109590,5,0,0:0:0:0:
324,284,109759,1,0,0:0:0:0:
400,308,109928,1,0,0:0:0:0:
384,228,110098,1,0,0:0:0:0:
408,152,110267,1,0,0:0:0:0:
328,168,110436,1,0,0:0:0:0:
252,144,110606,1,0,0:0:0:0:
312,88,110775,1,0,0:0:0:0:
336,12,110945,1,0,0:0:0:0:
256,28,111114,6,0,B|172:56|156:144,1,160,2|0,0:0|0:0,0:0:0:0:
364,148,111791,2,0,B|348:234|264:262,1,160
40,348,112469,5,0,0:0:0:0:
48,268,112638,1,0,0:0:0:0:
64,188,112807,2,0,B|80:100|156:64,1,160,0|2,0:0|0:0,0:0:0:0:
232,36,113315,1,0,0:0:0:0:
308,24,113485,1,0,0:0:0:0:
384,36,113654,1,0,0:0:0:0:
448,84,113823,6,0,B|500:148|480:236,1,160
256,108,114501,2,0,B|236:194|288:258,1,160,2|0,0:0|0:0,0:0:0:0:
468,360,115178,5,0,0:0:0:0:
388,368,115348,1,0,0:0:0:0:
308,372,115517,1,0,0:0:0:0:
228,376,115686,1,0,0:0:0:0:
164,328,115856,2,0,B|96:288,1,80,2|0,0:0|0:0,0:0:0:0:
152,232,116194,2,0,B|84:192,1,80
144,136,116533,5,0,0:0:0:0:
292,88,116787,1,0,0:0:0:0:
292,88,116872,1,2,0:0:0:0:
496,136,117210,1,0,0:0:0:0:
292,184,117549,1,0,0:0:0:0:
160,136,117718,1,8,0:0:0:0:
154,138,117803,1,0,0:0:0:0:
147,140,117903,6,0,B|79:172|51:244|79:316|147:348,1,263.999992132187,4|0,0:0|0:0,0:0:0:0:
304,272,118750,1,0,0:0:0:0:
392,268,118920,1,8,0:0:0:0:
448,200,119089,1,0,0:0:0:0:
448,112,119259,2,0,B|448:24,2,87.9999973773957,0|0|8,0:0|0:0|0:0,0:0:0:0:
196,192,119937,5,0,0:0:0:0:
128,236,120107,1,0,0:0:0:0:
80,300,120276,2,0,B|148:364|252:340,1,175.999994754791,8|0,0:0|0:0,0:0:0:0:
276,184,120954,2,0,B|371:161|439:225,1,175.999994754791,8|0,0:0|0:0,0:0:0:0:
484,292,121463,1,0,0:0:0:0:
452,364,121632,1,8,0:0:0:0:
244,268,121971,5,0,0:0:0:0:
172,236,122141,1,0,0:0:0:0:
120,176,122311,1,8,0:0:0:0:
92,100,122480,1,0,0:0:0:0:
172,112,122650,2,0,B|197:22,1,87.9999973773957,8|0,0:0|0:0,0:0:0:0:
236,188,122989,2,0,B|261:98,1,87.9999973773957,8|0,0:0|0:0,0:0:0:0:
280,32,123328,5,8,0:0:0:0:
352,16,123497,2,0,B|404:-4|460:20|468:92,1,160,4|0,0:0|0:0,0:0:0:0:
480,168,124006,1,8,0:0:0:0:
476,248,124175,1,0,0:0:0:0:
412,292,124345,1,8,0:0:0:0:
332,292,124515,1,0,0:0:0:0:
268,244,124684,1,8,0:0:0:0:
232,172,124854,1,0,0:0:0:0:
312,176,125023,1,8,0:0:0:0:
280,104,125193,1,0,0:0:0:0:
232,40,125362,1,8,0:0:0:0:
156,12,125532,1,0,0:0:0:0:
80,36,125701,1,8,0:0:0:0:
72,276,126040,5,4,0:0:0:0:
148,252,126719,1,0,0:0:0:0:
224,228,127397,1,0,0:0:0:0:
300,204,128075,1,0,0:0:0:0:
436,116,128753,5,0,0:0:0:0:
320,92,129092,1,0,0:0:0:0:
200,72,129431,1,0,0:0:0:0:
80,52,129770,1,0,0:0:0:0:
80,260,130109,5,0,0:0:0:0:
156,232,130279,1,8,0:0:0:0:
184,156,130448,1,8,0:0:0:0:
260,128,130618,1,0,0:0:0:0:
320,180,130787,1,8,0:0:0:0:
376,236,130957,1,8,0:0:0:0:
432,296,131127,2,0,B|464:280|504:232|464:184|432:168,1,160,8|4,0:0|0:0,0:0:0:0:
132,292,132144,5,0,0:0:0:0:
376,88,132822,1,2,0:0:0:0:
64,56,133839,6,0,B|132:60|104:164|176:168,1,160,0|2,0:0|0:0,0:0:0:0:
344,276,134517,1,0,0:0:0:0:
404,360,134687,1,0,0:0:0:0:
180,276,135026,1,0,0:0:0:0:
404,192,135365,1,0,0:0:0:0:
464,276,135535,5,8,0:0:0:0:
464,276,135704,1,2,0:0:0:0:
48,108,136213,1,8,0:0:0:0:
48,108,136382,1,2,0:0:0:0:
388,64,136891,6,0,B|328:228|256:192|184:156|124:312,1,384.000009155274,4|0,0:0|0:0,0:0:0:0:
172,384,137738,1,0,0:0:0:0:
256,364,137907,1,8,0:0:0:0:
340,384,138077,1,0,0:0:0:0:
408,328,138246,2,0,B|452:240,1,96.0000022888184,4|0,0:0|0:0,0:0:0:0:
496,136,138585,1,8,0:0:0:0:
336,288,138924,2,0,B|292:200,1,96.0000022888184,4|0,0:0|0:0,0:0:0:0:
248,96,139263,1,8,0:0:0:0:
176,48,139433,1,0,0:0:0:0:
104,92,139602,6,0,B|32:156|32:156|32:252,1,192.000004577637,4|8,0:0|0:0,0:0:0:0:
84,320,140111,1,0,0:0:0:0:
164,352,140280,1,0,0:0:0:0:
244,324,140450,1,0,0:0:0:0:
332,324,140619,1,8,0:0:0:0:
412,288,140789,1,0,0:0:0:0:
448,208,140958,2,0,B|472:116,1,96.0000022888184,2|0,2:2|0:0,0:0:0:0:
388,136,141297,2,0,B|388:40,1,96.0000022888184,2|0,2:2|0:0,0:0:0:0:
328,208,141636,2,0,B|304:116,1,96.0000022888184,2|2,2:2|0:0,0:0:0:0:
256,44,141975,5,8,0:0:0:0:
204,116,142145,1,0,0:0:0:0:
184,200,142314,2,0,B|184:256|184:256|184:316|240:340|276:300,1,192.000004577637,4|0,0:0|0:0,0:0:0:0:
392,216,142823,1,0,0:0:0:0:
168,32,143162,1,8,0:0:0:0:
256,308,143501,1,4,0:0:0:0:
344,32,143840,1,0,0:0:0:0:
120,216,144179,1,4,0:0:0:0:
392,216,144518,1,8,0:0:0:0:
256,8,144857,5,0,0:0:0:0:
176,40,145026,2,0,B|68:80|68:216|176:256,1,288.000006866455
256,288,145704,1,0,0:0:0:0:
340,272,145874,1,0,0:0:0:0:
412,224,146043,1,8,0:0:0:0:
460,152,146213,1,0,0:0:0:0:
448,68,146382,5,8,0:0:0:0:
372,24,146552,1,0,0:0:0:0:
284,28,146721,1,0,0:0:0:0:
196,152,146890,1,8,0:0:0:0:
208,236,147060,1,0,0:0:0:0:
264,304,147229,1,0,0:0:0:0:
416,284,147399,1,8,0:0:0:0:
472,220,147568,1,8,0:0:0:0:
388,200,147738,6,0,B|296:104|232:80|192:88,1,191.999994140625,4|0,0:0|0:0,0:0:0:0:
152,72,148247,1,0,0:0:0:0:
48,296,148587,1,0,0:0:0:0:
60,212,148756,1,8,0:0:0:0:
124,156,148926,1,0,0:0:0:0:
180,224,149096,2,0,B|224:280|296:280|360:256,1,191.999994140625,4|8,0:0|0:0,0:0:0:0:
180,88,149775,2,0,B|224:32|296:32|360:56,1,191.999994140625,4|8,0:0|0:0,0:0:0:0:
380,348,150455,6,0,B|309:285|309:285|288:298|238:303|214:269,1,191.999994140625,4|8,0:0|0:0,0:0:0:0:
160,84,150964,2,0,B|230:147|230:147|257:133|300:132|325:165,1,191.999994140625,0|8,0:0|0:0,0:0:0:0:
268,216,151474,1,0,0:0:0:0:
352,240,151644,1,0,0:0:0:0:
360,244,151728,1,8,0:0:0:0:
367,247,151813,1,0,0:0:0:0:
112,52,152493,5,0,0:0:0:0:
68,164,152747,1,0,0:0:0:0:
104,280,153002,1,0,0:0:0:0:
172,324,153170,2,0,B|284:372|408:328,1,240,4|0,0:0|0:0,0:0:0:0:
476,288,153848,1,0,0:0:0:0:
332,136,154187,1,0,0:0:0:0:
180,88,154526,1,2,0:0:0:0:
244,136,154695,1,8,0:0:0:0:
180,184,154865,1,0,0:0:0:0:
68,300,155204,5,0,0:0:0:0:
176,348,155458,1,0,0:0:0:0:
284,300,155712,1,0,0:0:0:0:
232,236,155882,2,0,B|331:166|331:166|396:181|422:139|437:116,1,240,4|0,0:0|0:0,0:0:0:0:
356,84,156560,2,0,B|312:16|224:0|148:76,1,240
100,136,157238,1,0,0:0:0:0:
60,204,157407,1,0,0:0:0:0:
60,284,157577,1,2,0:0:0:0:
96,356,157746,1,0,0:0:0:0:
164,316,157916,1,0,0:0:0:0:
232,276,158085,1,0,0:0:0:0:
232,356,158255,1,4,0:0:0:0:
300,316,158424,1,0,0:0:0:0:
368,276,158594,6,0,B|440:236|456:148,1,160,4|8,0:0|0:0,0:0:0:0:
324,60,159103,2,0,B|276:40|256:20|256:20|236:40|172:64,1,160,4|8,0:0|0:0,0:0:0:0:
80,112,159611,1,8,0:0:0:0:
36,224,159781,1,8,0:0:0:0:
34,231,159865,1,0,0:0:0:0:
32,240,159950,2,0,B|12:304|12:304|68:280|104:316,1,160,4|8,0:0|0:0,0:0:0:0:
212,360,160459,1,4,0:0:0:0:
304,336,160628,1,0,0:0:0:0:
376,276,160798,2,0,B|440:208|396:128,1,160,8|8,0:0|0:0,0:0:0:0:
393,122,161221,1,0,0:0:0:0:
387,116,161306,6,0,B|320:56|232:96,1,160,4|8,0:0|0:0,0:0:0:0:
127,225,161815,2,0,B|194:285|276:248,1,160,4|8,0:0|0:0,0:0:0:0:
416,52,162493,1,8,0:0:0:0:
96,340,162832,1,0,0:0:0:0:
96,52,163171,1,4,0:0:0:0:
416,340,163510,1,4,0:0:0:0:
452,60,164018,5,4,0:0:0:0:
60,60,164358,1,8,0:0:0:0:
60,60,164527,1,4,0:0:0:0:
448,320,164866,1,8,0:0:0:0:
448,320,165036,1,4,0:0:0:0:
56,320,165375,1,8,0:0:0:0:
56,320,165544,1,4,0:0:0:0:
408,192,165883,1,8,0:0:0:0:
408,192,166053,1,4,0:0:0:0:
104,192,166392,1,0,0:0:0:0:
300,332,166728,5,8,0:0:0:0:
292,256,166897,1,4,0:0:0:0:
256,180,167066,1,0,0:0:0:0:
212,332,167236,1,8,0:0:0:0:
220,256,167405,1,0,0:0:0:0:
256,180,167574,1,0,0:0:0:0:
368,256,167744,5,8,0:0:0:0:
332,184,167913,1,0,0:0:0:0:
296,112,168082,1,4,0:0:0:0:
144,256,168252,1,8,0:0:0:0:
180,184,168421,1,0,0:0:0:0:
216,112,168591,1,0,0:0:0:0:
372,112,168760,5,12,0:0:0:0:
336,40,168929,1,0,0:0:0:0:
140,112,169099,1,12,0:0:0:0:
176,40,169268,1,0,0:0:0:0:
256,24,169435,5,4,0:0:0:0:
256,24,169604,1,0,0:0:0:0:
256,24,169773,1,0,0:0:0:0:
364,192,169942,5,4,0:0:0:0:
364,192,170111,1,0,0:0:0:0:
364,192,170280,1,0,0:0:0:0:
148,192,170449,5,4,0:0:0:0:
148,192,170618,1,0,0:0:0:0:
148,192,170787,1,0,0:0:0:0:
256,360,170956,5,4,0:0:0:0:
256,360,171125,1,0,0:0:0:0:
256,360,171294,1,0,0:0:0:0:
300,124,171463,6,0,B|356:68,1,80,4|4,0:0|0:0,0:0:0:0:
212,124,171801,2,0,B|156:68,1,80,4|0,0:0|0:0,0:0:0:0:
336,288,172146,5,12,0:0:0:0:
336,288,172315,1,0,0:0:0:0:
336,288,172485,1,0,0:0:0:0:
176,288,172654,5,12,0:0:0:0:
176,288,172824,1,0,0:0:0:0:
176,288,172993,1,0,0:0:0:0:
256,192,173163,5,12,0:0:0:0:
256,192,173333,1,12,0:0:0:0:
256,192,173502,12,4,174859,0:0:0:0:
