osu file format v12

[General]
AudioFilename: supercell - Hero.mp3
AudioLeadIn: 0
PreviewTime: 12110
Countdown: 0
SampleSet: Soft
StackLeniency: 0.7
Mode: 0
LetterboxInBreaks: 0

[Editor]
DistanceSpacing: 0.8
BeatDivisor: 4
GridSize: 8

[Metadata]
Title:Hero
TitleUnicode:ヒーロー
Artist:supercell
ArtistUnicode:supercell
Creator:Colin Hou
Version:Easy
Source:
Tags:yanaginagi nagi ryo Today Is A Beautiful Day Garven
BeatmapID:168669
BeatmapSetID:23183

[Difficulty]
HPDrainRate:2
CircleSize:3
OverallDifficulty:2
ApproachRate:3
SliderMultiplier:0.6
SliderTickRate:1

[Events]
//Background and Video events
0,0,"BG.jpg",0,0
//Break Periods
2,87081,94772
//Storyboard Layer 0 (Background)
//Storyboard Layer 1 (Fail)
//Storyboard Layer 2 (Pass)
//Storyboard Layer 3 (Foreground)
//Storyboard Sound Samples
//Background Colour Transformations
3,100,49,56,81

[TimingPoints]
1266,338.696020321761,4,2,1,30,1,0
12110,339.366515837104,4,2,1,70,1,0
22983,338.983050847458,4,1,2,50,1,0
33805,339.145917531018,4,1,1,50,1,0
47370,-100,4,2,1,50,0,0
51440,-100,4,1,2,50,0,0
52795,338.983050847458,4,1,1,50,1,0
58210,339.366515837104,4,1,1,50,1,0
63649,339.222614840989,4,1,1,50,1,0
77210,338.983050847458,4,1,1,50,1,0
79920,339.174674957603,4,1,1,50,1,0
82638,339.462517680339,4,1,1,50,1,0
85438,-100,4,2,1,5,0,0
96212,338.753387533875,4,1,2,50,1,0
101632,338.858611244458,4,1,2,50,1,0
107050,338.696020321761,4,1,2,50,1,0
117903,339.07883582933,4,1,1,50,1,0
131466,-100,4,2,1,50,0,0
135535,-100,4,1,2,50,0,0
136891,338.983050847458,4,1,1,50,1,0
147738,339.654684404189,4,1,1,50,1,0
153170,339.030936572962,4,1,1,50,1,0
166728,338.743824982357,4,1,1,50,1,0
169435,338.028169014084,4,1,1,50,1,0
172146,339.174674957603,4,1,1,50,1,0
185725,339.174674957603,4,1,1,50,1,0
191151,338.504936530324,4,1,1,50,1,0
196568,339.07883582933,4,1,1,50,1,0
218267,340.909090909091,4,1,1,50,1,0
220985,333.333333333333,4,1,1,50,1,0
222985,363.636363636364,4,1,1,50,1,0
223712,339.07883582933,4,2,1,50,1,0
234562,338.983050847458,4,1,1,50,1,0
242692,338.600451467269,4,1,1,50,1,0
245400,338.218714768884,4,1,1,50,1,0
248121,339.366515837104,4,2,1,20,1,0
252193,338.791643139469,4,1,1,30,1,0
253538,338.983050847458,4,1,1,50,1,0
261673,339.366515837104,4,1,1,50,1,0
264390,338.983050847458,4,1,1,50,1,0
267100,339.750849377123,4,1,1,50,1,0
269824,339.174674957603,4,1,1,50,1,0
280682,339.174674957603,4,1,1,50,1,0
292213,437.956204379562,4,1,1,50,1,0
292886,697.674418604651,4,2,1,30,1,0
293513,697.674418604651,4,2,1,30,1,0
294211,419.58041958042,4,2,1,30,1,0
294840,437.956204379562,4,2,1,30,1,0
295715,437.956204379562,4,2,1,30,1,0
297365,472.44094488189,4,2,1,30,1,0
300208,769.230769230769,4,2,1,30,1,0
300977,821.917808219178,4,2,1,30,1,0
301798,983.606557377049,4,2,1,30,1,0
302946,560.747663551402,4,2,1,30,1,0

[Colours]
Combo1 : 251,72,72
Combo2 : 215,99,248
Combo3 : 231,215,14

[HitObjects]
124,298,12110,1,2,0:0:0:0:
305,361,13467,1,0,0:0:0:0:
465,255,14824,1,0,0:0:0:0:
447,63,16182,1,0,0:0:0:0:
401,249,17539,5,2,0:0:0:0:
218,309,18897,1,0,0:0:0:0:
45,224,20254,1,0,0:0:0:0:
58,32,21612,1,0,0:0:0:0:
228,120,22983,6,0,B|347:103,2,120
269,206,25016,1,0,0:0:0:0:
306,295,25694,2,0,B|187:312,2,120
405,312,27728,1,0,0:0:0:0:
497,286,28406,6,0,B|417:282|357:203|392:108,1,240
465,50,30440,1,0,0:0:0:0:
414,132,31118,6,0,B|290:144,1,120
289,239,32474,2,0,B|169:250,1,120
74,262,33805,5,4,0:0:0:0:
112,174,34483,2,0,B|56:136|74:60,2,120,8|0|8,0:0|0:0|0:0,0:0:0:0:
167,95,36518,6,0,B|295:82,1,120,0|8,0:0|0:0,0:0:0:0:
378,57,37874,2,0,B|412:109|392:174,1,120,0|8,0:0|0:0,0:0:0:0:
462,241,39231,5,8,0:0:0:0:
412,323,39909,1,8,0:0:0:0:
321,354,40587,1,8,0:0:0:0:
225,355,41266,1,8,0:0:0:0:
135,320,41944,6,0,B|84:284|83:215,1,120,12|0,0:0|0:0,0:0:0:0:
151,149,43301,2,0,B|151:82|202:46,1,120,0|0,0:0|0:0,0:0:0:0:
298,46,44657,2,0,B|349:82|349:148,1,120,0|0,0:0|0:0,0:0:0:0:
417,216,46014,2,0,B|416:282|365:318,1,120,0|0,0:0|0:0,0:0:0:0:
269,318,47370,5,4,0:0:0:0:
208,136,48727,1,0,0:0:0:0:
360,16,50084,1,0,0:0:0:0:
440,192,51440,6,0,B|320:192,1,120,2|2,0:0|0:0,0:0:0:0:
224,192,52795,6,0,B|180:240|112:224,2,120,4|0|0,0:0|0:0|0:0,0:0:0:0:
146,134,54828,1,8,0:0:0:0:
68,77,55506,2,0,B|112:29|180:45,2,120
146,134,57540,1,8,0:0:0:0:
77,201,58210,6,0,B|92:287|176:328|269:294,1,240
331,229,60246,1,8,0:0:0:0:
410,283,60924,2,0,B|463:241|462:177,1,120
468,80,62282,2,0,B|349:101,1,120,8|0,0:0|0:0,0:0:0:0:
271,45,63649,6,0,B|152:66,2,120,4|0|0,0:0|0:0|0:0,0:0:0:0:
279,140,65684,1,8,0:0:0:0:
293,234,66362,2,0,B|412:213,2,120,0|0|4,0:0|0:0|0:0,0:0:0:0:
199,257,68398,5,0,0:0:0:0:
313,257,69076,1,0,0:0:0:0:
69,115,70433,6,0,B|163:138|244:76,1,180
275,47,71790,2,0,B|313:82|395:82,1,120
443,159,73147,2,0,B|372:166|356:241|356:241|294:248,1,180
257,252,74504,6,0,B|167:261,1,90,12|8,0:0|0:0,0:0:0:0:
85,173,75861,2,0,B|175:164,1,90,8|8,0:0|0:0,0:0:0:0:
224,54,77210,6,0,B|134:63,1,90,8|8,0:0|0:0,0:0:0:0:
50,148,78565,2,0,B|60:209|27:265,2,120,8|8|4,0:0|0:0|0:0,0:0:0:0:
178,213,80937,1,4,0:0:0:0:
318,180,81955,1,4,0:0:0:0:
333,85,82638,6,0,B|456:64,2,120,8|0|0,0:0|0:0|0:0,0:0:0:0:
319,180,84674,2,0,B|361:230|343:304,1,120,0|4,0:0|0:0,0:0:0:0:
256,192,85438,12,0,86881,0:0:0:0:
95,288,96212,5,0,0:0:0:0:
244,167,97567,1,0,0:0:0:0:
429,217,98922,2,0,B|389:237|337:240|337:240|333:271|335:302|335:302|376:311|413:329,2,240
334,49,102987,5,0,0:0:0:0:
187,173,104342,1,0,0:0:0:0:
6,108,105698,1,0,0:0:0:0:
178,22,107050,6,0,B|248:36|266:103,2,120
92,64,109082,1,0,0:0:0:0:
159,131,109759,2,0,B|155:217|110:290|110:290|127:326|169:338,1,240
256,359,111791,1,0,0:0:0:0:
348,336,112469,6,0,B|385:326|402:290|402:290|357:217|353:131,1,240
256,129,114501,2,0,B|256:252,2,120
201,49,116533,2,0,B|233:20|280:20|314:53,2,120,0|0|4,0:0|0:0|0:0,0:0:0:0:
147,128,118581,5,0,0:0:0:0:
192,212,119259,2,0,B|170:272,2,60,0|8|0,0:0|0:0|0:0,0:0:0:0:
267,153,120615,6,0,B|344:111|438:140|463:231,1,240
437,319,122650,2,0,B|316:335,1,120,0|8,0:0|0:0,0:0:0:0:
223,348,124006,5,8,0:0:0:0:
142,295,124684,1,8,0:0:0:0:
145,198,125362,1,8,0:0:0:0:
220,138,126040,6,0,B|294:184|400:152,1,180,4|0,0:0|0:0,0:0:0:0:
437,134,127397,2,0,B|376:210|412:311,1,180,0|0,0:0|0:0,0:0:0:0:
450,328,128753,2,0,B|269:359,1,180,0|0,0:0|0:0,0:0:0:0:
225,366,130109,2,0,B|109:328,2,120,0|0|4,0:0|0:0|0:0,0:0:0:0:
344,215,132822,5,0,0:0:0:0:
226,63,134178,1,0,0:0:0:0:
67,171,135535,6,0,B|195:171,1,120,2|2,0:0|0:0,0:0:0:0:
231,256,136891,6,0,B|298:238|348:276,2,120,4|0|0,0:0|0:0|0:0,0:0:0:0:
276,340,138924,1,0,0:0:0:0:
181,355,139602,2,0,B|63:373,2,120
138,268,141636,1,0,0:0:0:0:
83,189,142314,6,0,B|181:192|235:94,1,180
243,56,143670,2,0,B|335:111|420:85,1,180
459,68,145026,1,0,0:0:0:0:
425,157,145704,1,0,0:0:0:0:
476,238,146382,2,0,B|352:262,1,120
329,352,147738,6,0,B|260:396|152:372|135:282,1,240,4|0,0:0|0:0,0:0:0:0:
181,200,149775,1,0,0:0:0:0:
126,120,150455,2,0,B|2:143,2,120,0|0|4,0:0|0:0|0:0,0:0:0:0:
190,48,152493,1,8,0:0:0:0:
282,72,153170,6,0,B|230:318,1,240,4|0,0:0|0:0,0:0:0:0:
327,322,155204,2,0,B|390:330,2,60,0|0|0,0:0|0:0|0:0,0:0:0:0:
280,238,156560,1,0,0:0:0:0:
364,192,157238,2,0,B|351:157|304:132|261:144,1,120
188,201,158594,6,0,B|90:219,1,90,4|0,0:0|0:0,0:0:0:0:
157,322,159950,2,0,B|59:340,1,90,4|0,0:0|0:0,0:0:0:0:
18,229,161306,6,0,B|106:212,1,90,4|0,0:0|0:0,0:0:0:0:
161,105,162662,2,0,B|249:88,1,90,4|0,0:0|0:0,0:0:0:0:
303,195,164018,5,4,0:0:0:0:
441,156,165036,1,4,0:0:0:0:
505,284,166053,1,4,0:0:0:0:
442,356,166728,6,0,B|346:355,2,90,0|8|8,0:0|0:0|0:0,0:0:0:0:
510,229,168760,2,0,B|378:225,1,120,0|8,0:0|0:0,0:0:0:0:
246,218,170449,1,8,0:0:0:0:
290,80,171463,6,0,B|352:73,2,60,8|0|8,0:0|0:0|0:0,0:0:0:0:
218,90,172654,2,0,B|122:100,1,90,8|8,0:0|0:0,0:0:0:0:
256,192,173502,12,4,174859,0:0:0:0:
