osu file format v12

[General]
AudioFilename: supercell - Hero.mp3
AudioLeadIn: 1000
PreviewTime: 12110
Countdown: 0
SampleSet: Normal
StackLeniency: 0.7
Mode: 0
LetterboxInBreaks: 0

[Editor]
DistanceSpacing: 0.8
BeatDivisor: 4
GridSize: 8

[Metadata]
Title:Hero
TitleUnicode:ヒーロー
Artist:supercell
ArtistUnicode:supercell
Creator:Colin Hou
Version:C.Hero
Source:
Tags:yanaginagi nagi ryo Today Is A Beautiful Day Garven
BeatmapID:90434
BeatmapSetID:23183

[Difficulty]
HPDrainRate:6
CircleSize:5
OverallDifficulty:7
ApproachRate:8
SliderMultiplier:1.6
SliderTickRate:1

[Events]
//Background and Video events
0,0,"BG.jpg",0,0
//Break Periods
2,87081,94108
2,175059,184975
//Storyboard Layer 0 (Background)
//Storyboard Layer 1 (Fail)
//Storyboard Layer 2 (Pass)
//Storyboard Layer 3 (Foreground)
Sprite,Foreground,BottomLeft,"lyric\A32.png",240,480 F,0,174520,174689,0,1 F,0,177065,177234,1,0
Sprite,Foreground,BottomLeft,"lyric\A33.png",240,480 F,0,177234,177403,0,1 F,0,179778,179947,1,0
Sprite,Foreground,BottomLeft,"lyric\A34.png",240,480 F,0,179947,180116,0,1 F,0,185387,185556,1,0
Sprite,Foreground,BottomLeft,"lyric\A35.png",240,480 F,0,185556,185725,0,1 F,0,187930,188099,1,0
Sprite,Foreground,BottomLeft,"lyric\A36.png",240,480 F,0,188099,188268,0,1 F,0,190813,190982,1,0
Sprite,Foreground,BottomLeft,"lyric\A37.png",240,480 F,0,190982,191151,0,1 F,0,196568,196737,1,0
Sprite,Foreground,BottomLeft,"lyric\A38.png",240,480 F,0,223543,223712,0,1 F,0,228799,228968,1,0
Sprite,Foreground,BottomLeft,"lyric\A39.png",240,480 F,0,228968,229137,0,1 F,0,234224,234393,1,0
Sprite,Foreground,BottomLeft,"lyric\A40.png",240,480 F,0,234393,234562,0,1 F,0,239817,239986,1,0
Sprite,Foreground,BottomLeft,"lyric\A41.png",240,480 F,0,239986,240155,0,1 F,0,242354,242523,1,0
Sprite,Foreground,BottomLeft,"lyric\A42.png",240,480 F,0,242523,242692,0,1 F,0,250158,250327,1,0
Sprite,Foreground,BottomLeft,"lyric\A43.png",240,480 F,0,250327,250496,0,1 F,0,252532,252701,1,0
Sprite,Foreground,BottomLeft,"lyric\A44.png",240,480 F,0,252701,252870,0,1 F,0,261166,261335,1,0
Sprite,Foreground,BottomLeft,"lyric\A45.png",240,480 F,0,261335,261504,0,1 F,0,264052,264221,1,0
Sprite,Foreground,BottomLeft,"lyric\A46.png",240,480 F,0,264221,264390,0,1 F,0,271521,271690,1,0
Sprite,Foreground,BottomLeft,"lyric\A47.png",240,480 F,0,271690,271859,0,1 F,0,279491,279660,1,0
Sprite,Foreground,BottomLeft,"lyric\A48.png",240,480 F,0,279660,279829,0,1 F,0,288483,288652,1,0
Sprite,Foreground,BottomLeft,"lyric\A49.png",240,480 F,0,292044,292213,0,1 F,0,304628,304797,1,0
//Storyboard Sound Samples
//Background Colour Transformations
3,100,49,56,81

[TimingPoints]
1266,338.696020321761,4,2,1,30,1,0
10072,-100,4,2,1,40,0,0
10749,-100,4,2,1,50,0,0
11426,-100,4,2,1,60,0,0
12110,339.366515837104,4,2,1,70,1,0
17539,-100,4,2,1,30,0,0
17624,-100,4,2,1,70,0,0
22630,-66.6666666666667,4,2,1,30,0,0
22715,-66.6666666666667,4,2,1,70,0,0
22983,338.983050847458,4,1,0,50,1,0
26796,-100,4,2,1,5,0,0
26966,-100,4,1,2,50,0,0
27983,-100,4,2,1,5,0,0
28067,-100,4,1,2,50,0,0
28237,-100,4,2,1,50,0,0
28321,-100,4,1,2,50,0,0
28576,-100,4,2,1,50,0,0
28660,-100,4,1,2,50,0,0
28915,-100,4,2,1,50,0,0
28999,-100,4,1,2,50,0,0
29593,-100,4,2,1,50,0,0
29677,-100,4,1,2,50,0,0
30016,-100,4,2,1,50,0,0
30101,-100,4,1,2,50,0,0
30271,-100,4,2,1,50,0,0
30355,-100,4,1,2,50,0,0
30610,-100,4,2,1,50,0,0
30694,-100,4,1,2,50,0,0
31288,-100,4,2,1,50,0,0
31372,-100,4,1,2,50,0,0
31627,-100,4,2,1,50,0,0
31711,-100,4,1,2,50,0,0
31966,-100,4,2,1,50,0,0
32050,-100,4,1,2,50,0,0
33805,339.145917531018,4,1,1,50,1,0
44657,-80,4,1,1,50,0,0
46014,-66.6666666666667,4,1,1,50,0,0
47370,-100,4,1,1,20,0,0
48049,-100,4,2,1,25,0,0
48727,-100,4,2,1,30,0,0
51440,-66.6666666666667,4,1,2,50,0,0
52795,338.983050847458,4,1,1,50,1,0
58210,339.366515837104,4,1,1,50,1,0
63649,339.222614840989,4,1,1,50,1,0
77210,338.983050847458,4,1,1,50,1,0
77210,-80,4,1,1,50,0,0
79920,339.174674957603,4,1,1,50,1,0
79920,-66.6666666666667,4,1,1,50,0,0
82638,339.462517680339,4,1,1,50,1,0
82638,-66.6666666666667,4,1,1,50,0,0
83995,-100,4,1,1,50,0,0
85353,-100,4,2,1,50,0,0
85438,-100,4,2,1,5,0,0
96212,338.753387533875,4,1,2,50,1,0
96720,-100,4,2,1,50,0,0
96804,-100,4,1,2,50,0,0
97058,-100,4,2,1,50,0,0
97143,-100,4,1,2,50,0,0
97397,-100,4,2,1,50,0,0
97482,-100,4,1,2,50,0,0
98075,-100,4,2,1,50,0,0
98159,-100,4,1,2,50,0,0
98413,-100,4,2,1,50,0,0
98498,-100,4,1,2,50,0,0
99091,-100,4,2,1,50,0,0
99176,-100,4,1,2,50,0,0
99430,-100,4,2,1,50,0,0
99514,-100,4,1,2,50,0,0
99768,-100,4,2,1,50,0,0
99853,-100,4,1,2,50,0,0
100107,-100,4,2,1,50,0,0
100192,-100,4,1,2,50,0,0
100785,-100,4,2,1,50,0,0
100869,-100,4,1,2,50,0,0
101123,-100,4,2,1,50,0,0
101208,-100,4,1,2,50,0,0
101632,338.858611244458,4,1,0,50,1,0
101801,-100,4,2,1,50,0,0
101886,-100,4,1,2,50,0,0
102140,-100,4,2,1,50,0,0
102225,-100,4,1,2,50,0,0
102479,-100,4,2,1,50,0,0
102563,-100,4,1,2,50,0,0
103834,-100,4,2,1,50,0,0
103919,-100,4,1,2,50,0,0
104173,-100,4,2,1,50,0,0
104258,-100,4,1,2,50,0,0
104512,-100,4,2,1,50,0,0
104597,-100,4,1,2,50,0,0
104851,-100,4,2,1,50,0,0
104935,-100,4,1,2,50,0,0
105190,-100,4,2,1,50,0,0
105274,-100,4,1,2,50,0,0
105528,-100,4,2,1,50,0,0
105613,-100,4,1,2,50,0,0
106884,-100,4,2,1,50,0,0
106969,-100,4,1,2,50,0,0
107050,338.696020321761,4,1,2,50,1,0
107219,-100,4,2,1,50,0,0
107304,-100,4,1,2,50,0,0
107558,-100,4,2,1,50,0,0
107642,-100,4,1,2,50,0,0
108235,-100,4,2,1,50,0,0
108320,-100,4,1,2,50,0,0
108574,-100,4,2,1,50,0,0
108658,-100,4,1,2,50,0,0
108912,-100,4,2,1,50,0,0
108997,-100,4,1,2,50,0,0
109590,-100,4,2,1,50,0,0
109674,-100,4,1,2,50,0,0
109928,-100,4,2,1,50,0,0
110013,-100,4,1,2,50,0,0
110267,-100,4,2,1,50,0,0
110352,-100,4,1,2,50,0,0
110606,-100,4,2,1,50,0,0
110690,-100,4,1,2,50,0,0
110945,-100,4,2,1,50,0,0
111029,-100,4,1,2,50,0,0
111622,-100,4,2,1,50,0,0
111707,-100,4,1,2,50,0,0
111961,-100,4,2,1,50,0,0
112045,-100,4,1,2,50,0,0
112638,-100,4,2,1,50,0,0
112723,-100,4,1,2,50,0,0
112977,-100,4,2,1,50,0,0
113061,-100,4,1,2,50,0,0
113654,-100,4,2,1,50,0,0
113739,-100,4,1,2,50,0,0
114670,-100,4,2,1,50,0,0
114755,-100,4,1,2,50,0,0
115009,-100,4,2,1,50,0,0
115094,-100,4,1,2,50,0,0
115348,-100,4,2,1,50,0,0
115432,-100,4,1,2,50,0,0
116025,-100,4,2,1,50,0,0
116110,-100,4,1,2,50,0,0
116364,-100,4,2,1,50,0,0
116448,-100,4,1,2,50,0,0
117903,339.07883582933,4,1,1,50,1,0
128753,-80,4,1,1,50,0,0
130109,-66.6666666666667,4,1,1,50,0,0
131466,-100,4,1,1,20,0,0
132144,-100,4,2,1,25,0,0
132822,-100,4,2,1,30,0,0
135535,-66.6666666666667,4,1,2,50,0,0
136891,338.983050847458,4,1,1,50,1,0
147738,339.654684404189,4,1,1,50,1,0
153170,339.030936572962,4,1,1,50,1,0
164018,-66.6666666666667,4,1,1,50,0,0
166728,338.743824982357,4,1,1,50,1,0
166728,-80,4,1,1,50,0,0
169435,338.028169014084,4,1,1,50,1,0
171463,-80,4,1,1,50,0,0
171801,-100,4,1,1,50,0,0
172146,339.174674957603,4,1,1,50,1,0
185725,339.174674957603,4,1,1,50,1,0
191151,338.504936530324,4,1,1,50,1,0
194536,-80,4,1,1,50,0,0
194874,-66.6666666666667,4,1,1,50,0,0
196568,339.07883582933,4,1,1,50,1,0
196568,-66.6666666666667,4,1,1,50,0,0
218267,340.909090909091,4,1,1,50,1,0
220985,333.333333333333,4,1,1,50,1,0
222985,363.636363636364,4,1,1,50,1,0
222985,-66.6666666666667,4,1,1,50,0,0
223712,339.07883582933,4,2,1,50,1,0
232188,-100,4,2,1,60,0,0
232528,-100,4,2,1,70,0,0
232867,-100,4,2,1,80,0,0
233206,-100,4,2,1,10,0,0
234562,338.983050847458,4,1,1,50,1,0
234562,-100,4,1,1,50,0,0
242692,338.600451467269,4,1,1,50,1,0
244723,-80,4,1,1,50,0,0
245400,338.218714768884,4,1,1,50,1,0
245400,-80,4,1,1,50,0,0
246752,-66.6666666666667,4,1,1,50,0,0
248121,339.366515837104,4,2,1,20,1,0
248121,-100,4,2,1,20,0,0
248799,-100,4,2,1,25,0,0
249478,-100,4,2,1,30,0,0
250835,-100,4,1,1,30,0,0
252193,338.791643139469,4,1,1,30,1,0
253538,338.983050847458,4,1,1,50,1,0
261673,339.366515837104,4,1,1,50,1,0
264390,338.983050847458,4,1,1,50,1,0
267100,339.750849377123,4,1,1,50,1,0
269824,339.174674957603,4,1,1,50,1,0
275250,-83.3333333333333,4,1,1,50,0,0
280682,339.174674957603,4,1,1,50,1,0
280682,-66.6666666666667,4,1,1,50,0,0
291535,-66.6666666666667,4,1,1,5,0,0
292213,437.956204379562,4,2,1,30,1,0
292886,697.674418604651,4,2,1,30,1,0
293513,697.674418604651,4,2,1,30,1,0
294211,419.58041958042,4,2,1,30,1,0
294840,437.956204379562,4,2,1,30,1,0
295715,437.956204379562,4,2,1,30,1,0
297365,472.44094488189,4,2,1,30,1,0
300208,769.230769230769,4,2,1,30,1,0
300977,821.917808219178,4,2,1,30,1,0
301798,983.606557377049,4,2,1,30,1,0
302946,560.747663551402,4,2,1,30,1,0
303086,-100,4,2,1,12,0,0
304067,-100,4,2,1,9,0,0
306030,-100,4,1,1,7,0,0
307431,-100,4,2,1,5,0,0

[Colours]
Combo1 : 251,72,72
Combo2 : 215,99,248
Combo3 : 231,215,14

[HitObjects]
96,312,927,1,0,0:0:0:0:
184,248,1266,1,0,0:0:0:0:
264,328,1604,2,0,B|312:288|376:288,1,120
400,312,1943,2,0,B|396:268|400:232,1,80
384,48,2282,6,0,B|336:96|256:96,1,120
276,95,2620,1,0,0:0:0:0:
328,192,2959,1,0,0:0:0:0:
160,112,3298,2,0,B|123:90|112:48,1,80
110,54,3636,6,0,B|126:134|106:221,1,160
184,296,4314,2,0,B|224:320|256:328,1,80
368,248,4652,2,0,B|324:264|291:267,1,80
261,84,4991,6,0,B|224:160|232:240,1,160
464,136,5669,2,0,B|472:203|440:256,1,120
448,280,6007,2,0,B|404:268|368:272,1,80
144,336,6346,5,0,0:0:0:0:
224,264,6600,1,0,0:0:0:0:
224,264,6685,2,0,B|216:184,1,80
144,144,7023,2,0,B|152:224,1,80
232,232,7362,1,0,0:0:0:0:
272,160,7531,1,0,0:0:0:0:
328,104,7701,6,0,B|416:120|464:184,1,160
368,312,8378,2,0,B|321:307|280:288,1,80
224,336,8717,2,0,B|251:355|296:368,1,80
352,240,9056,6,0,B|288:224|240:176,1,120
247,183,9394,1,0,0:0:0:0:
208,112,9564,1,0,0:0:0:0:
136,144,9733,1,0,0:0:0:0:
56,144,9902,1,0,0:0:0:0:
56,144,9987,1,0,0:0:0:0:
272,56,10241,5,0,0:0:0:0:
272,56,10410,2,0,B|344:96,1,80
432,232,10918,5,0,0:0:0:0:
360,264,11088,2,0,B|344:344,1,80
64,272,11596,5,0,0:0:0:0:
136,240,11765,2,0,B|152:160,1,80
224,128,12110,6,0,B|256:208|240:288,1,160,2|0,0:0|0:0,0:0:0:0:
184,336,12619,1,0,0:0:0:0:
112,304,12788,2,0,B|72:320|32:328,2,80
56,144,13297,5,0,0:0:0:0:
128,176,13467,2,0,B|192:168|248:200,1,120
256,216,13806,2,0,B|344:208,1,80
408,184,14146,1,0,0:0:0:0:
240,32,14485,1,0,0:0:0:0:
216,112,14655,1,0,0:0:0:0:
296,88,14824,6,0,B|298:169,1,80
336,240,15164,1,0,0:0:0:0:
416,264,15333,1,0,0:0:0:0:
304,320,15503,6,0,B|272:352|224:368,1,80,0|0,0:0|0:0,0:0:0:0:
168,328,15843,1,0,0:0:0:0:
128,256,16012,1,0,0:0:0:0:
176,192,16182,1,0,0:0:0:0:
176,176,16267,1,0,0:0:0:0:
176,160,16352,1,0,0:0:0:0:
96,136,16521,2,0,B|64:160|20:159,1,80
88,32,16861,2,0,B|88:192,1,160
208,296,17539,1,2,0:0:0:0:
352,240,17709,5,0,0:0:0:0:
418,284,17879,1,0,0:0:0:0:
488,240,18048,1,0,0:0:0:0:
418,203,18218,2,0,B|402:161|420:119,1,80
349,43,18557,2,0,B|365:85|347:127,1,80
130,135,18897,2,0,B|191:83|278:83,1,160
448,304,19576,2,0,B|387:356|300:356,1,160
240,304,20085,1,0,0:0:0:0:
272,80,20424,1,0,0:0:0:0:
104,224,20763,5,0,0:0:0:0:
174,186,20933,2,0,B|202:217|251:224,1,80
304,168,21272,1,0,0:0:0:0:
384,184,21442,1,0,0:0:0:0:
464,304,21612,6,0,B|400:360|304:368,1,160
64,296,22290,2,0,B|112:264|176:256,1,120
208,264,22630,6,0,B|271:256|320:224,1,119.999996423721,2|0,0:0|0:0,0:0:0:0:
480,136,22983,5,0,0:0:0:0:
294,86,23321,1,0,0:0:0:0:
244,271,23660,1,0,0:0:0:0:
430,321,23999,1,0,0:0:0:0:
352,104,24338,5,0,0:0:0:0:
159,103,24677,1,0,0:0:0:0:
158,295,25016,1,0,0:0:0:0:
351,295,25355,1,0,0:0:0:0:
82,321,25694,5,0,0:0:0:0:
268,271,26033,1,0,0:0:0:0:
218,86,26372,1,0,0:0:0:0:
32,136,26711,2,0,B|68:160|112:160,1,80
200,168,27050,2,0,B|187:240|109:249,1,120
121,247,27389,1,0,0:0:0:0:
328,168,27728,2,0,B|341:96|419:87,1,120
424,104,28067,2,0,B|424:184,1,80
376,352,28406,1,0,0:0:0:0:
312,304,28576,5,0,0:0:0:0:
240,344,28745,2,0,B|160:328,1,80
112,264,29084,2,0,B|128:176|112:104,1,160
48,160,29593,1,0,0:0:0:0:
192,240,29762,2,0,B|264:256|320:216,1,120
312,200,30101,2,0,B|392:208,1,80
456,160,30440,1,0,0:0:0:0:
400,104,30610,1,0,0:0:0:0:
368,32,30779,2,0,B|312:64|240:32,1,120
227,37,31118,6,0,B|187:61|141:35,1,80
96,96,31457,1,0,0:0:0:0:
152,152,31627,2,0,B|192:128|238:154,2,80
192,224,32135,2,0,B|192:304,1,80
368,344,32474,6,0,B|401:264|366:185,1,160
144,40,33152,2,0,B|111:120|146:199,1,160
176,208,33576,1,0,0:0:0:0:
200,232,33660,1,0,0:0:0:0:
208,264,33745,1,0,0:0:0:0:
200,296,33805,6,0,B|264:344|352:336,1,160,4|8,0:0|0:0,0:0:0:0:
384,264,34313,2,0,B|472:256,2,80
336,200,34822,1,8,0:0:0:0:
376,128,34992,1,0,0:0:0:0:
320,72,35161,2,0,B|272:40|192:48,1,120
192,64,35500,2,0,B|168:96|120:104,1,80,8|0,0:0|0:0,0:0:0:0:
48,80,35839,1,0,0:0:0:0:
120,312,36179,6,0,B|160:304|192:272,1,80,8|0,0:0|0:0,0:0:0:0:
224,144,36518,2,0,B|232:216|288:248,1,120,0|0,0:0|0:0,0:0:0:0:
288,264,36857,2,0,B|336:200|432:192,1,160,8|0,0:0|0:0,0:0:0:0:
496,232,37366,1,0,0:0:0:0:
472,312,37535,2,0,B|427:309|392:288,1,80,8|0,0:0|0:0,0:0:0:0:
328,336,37874,2,0,B|256:368|168:360,1,160,0|8,0:0|0:0,0:0:0:0:
72,144,38553,1,0,0:0:0:0:
98,68,38722,1,0,0:0:0:0:
176,56,38892,2,0,B|256:32|336:56,1,160,8|8,0:0|0:0,0:0:0:0:
112,280,39570,5,8,0:0:0:0:
424,205,39909,1,8,0:0:0:0:
127,82,40248,1,8,0:0:0:0:
295,356,40587,1,8,0:0:0:0:
320,36,40927,1,8,0:0:0:0:
320,200,41266,6,0,B|329:244|304:280,1,80,8|0,0:0|0:0,0:0:0:0:
205,276,41605,2,0,B|183:244|192:200,1,80,8|0,0:0|0:0,0:0:0:0:
256,88,41944,2,0,B|256:208,1,120,12|0,0:0|0:0,0:0:0:0:
256,224,42283,2,0,B|264:250|248:272|256:304,1,80,0|0,0:0|0:0,0:0:0:0:
296,368,42622,5,0,0:0:0:0:
216,368,42792,1,0,0:0:0:0:
136,256,42961,2,0,B|152:176,1,80
88,104,43301,2,0,B|72:184,1,80
232,232,43640,2,0,B|248:152,1,80
304,80,43979,1,0,0:0:0:0:
392,64,44148,1,0,0:0:0:0:
464,128,44318,2,0,B|448:206,1,80
376,288,44657,6,0,B|328:304|328:304|296:344,1,99.9999985098839
128,304,44996,2,0,B|176:288|176:288|208:248,1,99.9999985098839
256,152,45335,1,0,0:0:0:0:
360,176,45505,1,0,0:0:0:0:
448,40,45675,2,0,B|432:88|432:88|448:136,1,99.9999985098839
288,248,46014,6,0,B|297:308|297:308|257:368,1,119.999996423721
152,280,46353,1,0,0:0:0:0:
120,152,46522,1,0,0:0:0:0:
256,152,46692,1,0,0:0:0:0:
320,40,46862,1,0,0:0:0:0:
432,112,47031,2,0,B|456:168|432:232,1,119.999996423721,8|0,0:0|0:0,0:0:0:0:
360,336,47370,5,4,0:0:0:0:
304,336,48049,1,0,0:0:0:0:
248,336,48727,1,0,0:0:0:0:
152,48,49405,5,0,0:0:0:0:
208,48,49744,1,0,0:0:0:0:
264,48,50084,1,0,0:0:0:0:
320,48,50423,1,0,0:0:0:0:
320,48,50592,1,0,0:0:0:0:
376,48,50931,1,0,0:0:0:0:
376,48,51271,1,0,0:0:0:0:
432,152,51440,6,2,B|400:200|400:200|400:262,1,119.999996423721
248,208,52118,2,2,B|280:256|280:256|280:318,1,119.999996423721
64,80,52795,6,0,B|144:96|144:96|224:78,1,160,4|8,0:0|0:0,0:0:0:0:
144,240,53472,1,0,0:0:0:0:
224,208,53642,1,0,0:0:0:0:
272,280,53811,2,0,B|312:277|352:288,1,80,8|0,0:0|0:0,0:0:0:0:
408,224,54150,2,0,B|363:164|376:72,1,160,0|8,0:0|0:0,0:0:0:0:
288,48,54659,2,0,B|216:88,1,80
206,83,54913,1,0,0:0:0:0:
194,79,54998,1,0,0:0:0:0:
73,70,55167,6,0,B|101:102|113:142,1,80,8|0,0:0|0:0,0:0:0:0:
69,245,55506,1,0,0:0:0:0:
156,327,55676,1,0,0:0:0:0:
250,253,55845,2,0,B|304:276|370:260,1,120,8|0,0:0|0:0,0:0:0:0:
386,275,56184,2,0,B|409:196|484:150,1,160,0|8,0:0|0:0,0:0:0:0:
441,46,56693,1,0,0:0:0:0:
342,99,56862,5,0,0:0:0:0:
330,95,56947,1,0,0:0:0:0:
318,91,57032,1,0,0:0:0:0:
214,134,57201,2,0,B|208:180|192:213,1,80,8|0,0:0|0:0,0:0:0:0:
50,290,57540,2,0,B|92:272|127:269,1,80,0|0,0:0|0:0,0:0:0:0:
269,351,57879,2,0,B|233:323|213:295,1,80,8|0,0:0|0:0,0:0:0:0:
282,83,58210,6,0,B|289:169|249:253,1,160,0|8,0:0|0:0,0:0:0:0:
178,196,58719,1,0,0:0:0:0:
90,209,58888,1,0,0:0:0:0:
50,290,59058,1,0,0:0:0:0:
202,295,59228,6,0,B|164:303|129:327,1,80,8|0,0:0|0:0,0:0:0:0:
256,231,59567,2,0,B|278:196|279:156,1,80
344,88,59906,1,8,0:0:0:0:
400,240,60076,6,0,B|416:280|448:304,1,80
496,232,60415,1,0,0:0:0:0:
360,328,60585,6,0,B|320:304|280:304,1,80,8|0,0:0|0:0,0:0:0:0:
200,336,60924,2,0,B|112:328|56:264,1,160,0|8,0:0|0:0,0:0:0:0:
96,184,61433,1,0,0:0:0:0:
96,184,61518,1,0,0:0:0:0:
96,184,61603,2,0,B|65:155|64:112,1,80
208,16,61943,2,0,B|239:45|240:88,1,80,8|0,0:0|0:0,0:0:0:0:
323,134,62282,5,8,0:0:0:0:
337,127,62367,1,8,0:0:0:0:
351,120,62452,1,0,0:0:0:0:
256,192,62621,5,0,0:0:0:0:
189,250,62791,5,8,0:0:0:0:
175,257,62876,1,8,0:0:0:0:
161,264,62961,1,0,0:0:0:0:
80,208,63130,5,0,0:0:0:0:
152,144,63300,2,0,B|160:100|144:56,1,80,8|0,0:0|0:0,0:0:0:0:
256,136,63649,6,0,B|304:200|408:200,1,160,4|8,0:0|0:0,0:0:0:0:
304,368,64327,2,0,B|272:288,1,80
200,336,64666,2,0,B|168:360|112:352,1,80,8|0,0:0|0:0,0:0:0:0:
88,272,65005,1,0,0:0:0:0:
168,112,65345,1,8,0:0:0:0:
88,88,65514,1,0,0:0:0:0:
344,272,65853,5,0,0:0:0:0:
424,296,66023,2,0,B|464:272|480:232,1,80,8|0,0:0|0:0,0:0:0:0:
439,87,66362,2,0,B|440:128|400:200,1,120
398,203,66702,2,0,B|357:187|317:187,1,80,8|0,0:0|0:0,0:0:0:0:
264,120,67041,1,0,0:0:0:0:
192,168,67210,1,0,0:0:0:0:
192,168,67295,1,0,0:0:0:0:
192,168,67380,2,0,B|152:192|112:184,1,80,8|0,0:0|0:0,0:0:0:0:
60,125,67719,1,4,0:0:0:0:
60,44,67889,1,0,0:0:0:0:
403,360,68398,5,0,0:0:0:0:
265,285,68652,1,0,0:0:0:0:
398,203,68906,1,0,0:0:0:0:
355,285,69076,6,0,B|288:330|198:314,1,160,4|0,0:0|0:0,0:0:0:0:
171,108,69755,1,0,0:0:0:0:
34,265,70094,1,0,0:0:0:0:
224,224,70433,6,0,B|257:256|296:262,1,80
332,173,70772,2,0,B|323:127|335:90,1,80
412,38,71111,1,0,0:0:0:0:
477,247,71366,5,0,0:0:0:0:
477,247,71451,2,0,B|486:293|474:330,1,80
383,296,71790,2,0,B|296:290|225:338,1,160
153,264,72299,1,0,0:0:0:0:
156,159,72468,2,0,B|71:145,2,80
336,56,73147,5,8,0:0:0:0:
351,61,73232,1,8,0:0:0:0:
365,66,73316,1,0,0:0:0:0:
336,160,73486,1,0,0:0:0:0:
368,248,73656,1,8,0:0:0:0:
353,253,73740,1,8,0:0:0:0:
339,258,73825,1,0,0:0:0:0:
266,321,73995,1,0,0:0:0:0:
162,332,74164,1,0,0:0:0:0:
67,271,74334,1,0,0:0:0:0:
51,152,74504,6,0,B|132:141|199:80,1,160,4|8,0:0|0:0,0:0:0:0:
288,145,75012,2,0,B|349:201|430:212,1,160,0|8,0:0|0:0,0:0:0:0:
428,224,75436,1,8,0:0:0:0:
426,235,75521,1,8,0:0:0:0:
407,337,75691,1,0,0:0:0:0:
316,287,75861,1,0,0:0:0:0:
232,349,76030,5,0,0:0:0:0:
221,343,76115,1,8,0:0:0:0:
210,337,76200,1,8,0:0:0:0:
173,231,76369,1,0,0:0:0:0:
81,172,76539,1,0,0:0:0:0:
84,160,76624,1,0,0:0:0:0:
87,148,76709,1,8,0:0:0:0:
172,75,76878,1,0,0:0:0:0:
187,78,76963,1,0,0:0:0:0:
202,81,77048,1,0,0:0:0:0:
217,84,77133,1,0,0:0:0:0:
232,87,77210,6,0,B|331:66,1,99.9999985098839,0|0,0:0|0:0,0:0:0:0:
343,72,77464,1,8,0:0:0:0:
356,78,77548,1,8,0:0:0:0:
418,197,77718,2,0,B|313:207|224:244,1,200
114,313,78226,1,8,0:0:0:0:
56,196,78396,5,0,0:0:0:0:
70,192,78481,1,8,0:0:0:0:
84,188,78565,1,8,0:0:0:0:
137,68,78735,1,8,0:0:0:0:
150,74,78820,1,8,0:0:0:0:
163,80,78904,1,0,0:0:0:0:
266,174,79074,1,0,0:0:0:0:
379,92,79243,1,0,0:0:0:0:
389,102,79328,1,0,0:0:0:0:
399,112,79413,1,0,0:0:0:0:
410,122,79498,1,0,0:0:0:0:
420,132,79582,1,0,0:0:0:0:
423,146,79667,1,0,0:0:0:0:
426,160,79752,1,0,0:0:0:0:
429,174,79837,1,0,0:0:0:0:
432,188,79920,6,0,B|454:323,1,119.999996423721,4|0,0:0|0:0,0:0:0:0:
289,162,80259,1,8,0:0:0:0:
242,245,80428,6,0,B|182:257|182:257|129:308,1,119.999996423721
44,104,80767,1,8,0:0:0:0:
138,121,80937,6,0,B|214:132|214:132|266:93|266:93|371:93,1,239.999992847443,0|8,0:0|0:0,0:0:0:0:
182,209,81446,2,0,B|115:198|115:198|103:253|103:253|67:305|67:305|121:316,1,239.999992847443,0|8,0:0|0:0,0:0:0:0:
343,340,81955,6,0,B|393:313|393:313|413:252,1,119.999996423721
360,104,82294,1,8,0:0:0:0:
216,168,82463,1,0,0:0:0:0:
136,304,82638,2,0,B|88:336|88:336|24:336,1,119.999996423721
184,352,82977,2,0,B|240:320|240:320|296:320,1,119.999996423721,8|0,0:0|0:0,0:0:0:0:
344,160,83316,5,0,0:0:0:0:
264,240,83486,1,0,0:0:0:0:
256,120,83656,5,8,0:0:0:0:
352,280,83826,1,0,0:0:0:0:
304,200,83995,5,0,0:0:0:0:
304,200,84080,1,0,0:0:0:0:
304,200,84165,1,8,0:0:0:0:
208,240,84335,1,8,0:0:0:0:
120,184,84505,1,0,0:0:0:0:
106,192,84589,1,0,0:0:0:0:
92,200,84674,1,0,0:0:0:0:
188,97,84844,1,0,0:0:0:0:
202,89,84929,1,0,0:0:0:0:
216,81,85014,2,0,B|296:96,1,80,8|0,0:0|0:0,0:0:0:0:
398,83,85353,1,4,0:0:0:0:
256,192,85438,12,0,86881,0:0:0:0:
256,192,94858,12,2,95877,0:0:0:0:
336,152,96212,6,0,B|400:200|416:288,1,160
336,304,96720,1,0,0:0:0:0:
392,360,96889,2,0,B|435:353|480:368,1,80
264,336,97228,2,0,B|221:343|176:328,1,80
133,268,97567,1,0,0:0:0:0:
120,268,97651,1,0,0:0:0:0:
107,268,97736,1,0,0:0:0:0:
57,205,97905,2,0,B|64:118,1,80
280,36,98244,2,0,B|273:123,1,80
248,192,98583,1,0,0:0:0:0:
287,261,98752,1,0,0:0:0:0:
264,336,98922,6,0,B|221:343|176:328,1,80
360,287,99260,2,0,B|403:294|448:279,1,80
465,206,99599,1,0,0:0:0:0:
437,131,99768,1,0,0:0:0:0:
361,105,99938,2,0,B|323:129|308:170,1,80
222,319,100277,6,0,B|164:349|98:331,1,120
88,315,100615,2,0,B|84:275|58:242,1,80
164,157,100954,2,0,B|170:200|143:242,1,80
252,178,101293,2,0,B|259:85|330:30,1,160
452,30,101801,5,0,0:0:0:0:
422,104,101970,2,0,B|443:141|448:182,1,80
370,202,102309,1,0,0:0:0:0:
447,179,102479,1,0,0:0:0:0:
390,280,102648,6,0,B|380:327|357:364,1,80
161,302,102987,2,0,B|244:304|313:258,1,160
248,56,103580,1,0,0:0:0:0:
248,56,103665,2,0,B|168:44,1,80
109,98,104004,1,0,0:0:0:0:
112,178,104173,1,0,0:0:0:0:
54,233,104342,6,0,B|52:278|37:315,1,80
53,329,104597,1,0,0:0:0:0:
68,347,104681,2,0,B|153:332,1,80
193,267,105020,1,0,0:0:0:0:
270,285,105190,1,0,0:0:0:0:
409,172,105359,2,0,B|391:92,1,80
320,56,105698,2,0,B|246:92|156:80,2,160
304,175,106630,1,0,0:0:0:0:
304,175,106714,2,0,B|298:227|271:254,1,80
195,251,107050,1,0,0:0:0:0:
154,319,107219,5,0,0:0:0:0:
74,310,107388,2,0,B|38:343|-11:345,1,80
24,164,107727,2,0,B|92:112|174:103,1,160
249,113,108235,1,0,0:0:0:0:
324,88,108404,2,0,B|375:92|405:112,1,80
345,175,108743,2,0,B|295:173|267:188,1,80
256,350,109082,2,0,B|339:371|416:330,1,160
473,281,109590,1,0,0:0:0:0:
443,206,109759,6,0,B|453:127,1,80
383,87,110098,1,0,0:0:0:0:
317,132,110267,1,0,0:0:0:0:
240,106,110436,2,0,B|240:26,1,80
160,18,110775,1,0,0:0:0:0:
118,86,110945,1,0,0:0:0:0:
39,101,111114,6,0,B|17:165|31:224,1,120
37,241,111453,2,0,B|53:280|42:322,1,80
125,348,111791,1,0,0:0:0:0:
179,278,111961,1,0,0:0:0:0:
258,314,112130,2,0,B|347:289|417:284,1,160
439,199,112638,1,0,0:0:0:0:
412,72,112807,6,0,B|374:58|333:53,1,80
270,114,113146,1,0,0:0:0:0:
270,114,113231,1,0,0:0:0:0:
270,114,113315,1,0,0:0:0:0:
188,147,113485,2,0,B|142:138|96:144,1,80
61,212,113823,2,0,B|60:277|97:325,1,120
119,331,114162,6,0,B|198:348|279:339,1,160
313,267,114670,1,0,0:0:0:0:
392,240,114840,2,0,B|415:207|428:170,1,80
416,89,115178,1,0,0:0:0:0:
343,122,115348,5,0,0:0:0:0:
270,89,115517,1,0,0:0:0:0:
270,89,115602,1,0,0:0:0:0:
270,89,115686,1,0,0:0:0:0:
206,136,115856,2,0,B|216:180|232:216,1,80
269,282,116194,5,0,0:0:0:0:
129,316,116364,1,0,0:0:0:0:
133,236,116533,6,0,B|141:170|114:118,1,120
94,85,116872,2,0,B|31:143|23:232,2,160
112,77,117634,1,0,0:0:0:0:
130,69,117718,1,0,0:0:0:0:
148,61,117803,1,0,0:0:0:0:
166,53,117903,6,0,B|232:93|232:93|315:93,1,160,4|8,0:0|0:0,0:0:0:0:
400,240,118496,1,0,0:0:0:0:
400,240,118581,2,0,B|400:328,1,80
328,288,118920,2,0,B|328:200,1,80,8|0,0:0|0:0,0:0:0:0:
256,176,119259,1,0,0:0:0:0:
184,136,119428,1,0,0:0:0:0:
112,176,119598,2,0,B|144:232|112:296,1,120,8|0,0:0|0:0,0:0:0:0:
114,291,119937,2,0,B|197:291,1,80
354,291,120276,5,8,0:0:0:0:
424,248,120446,1,0,0:0:0:0:
408,168,120615,2,0,B|408:120|440:88,1,80
336,160,120954,2,0,B|336:208|304:240,1,80,8|0,0:0|0:0,0:0:0:0:
232,224,121293,1,0,0:0:0:0:
309,233,121463,1,0,0:0:0:0:
200,296,121632,2,0,B|160:320|120:320,1,80,8|0,0:0|0:0,0:0:0:0:
64,264,121971,1,0,0:0:0:0:
96,192,122141,1,0,0:0:0:0:
56,120,122311,2,0,B|81:87|128:80,1,80,8|0,0:0|0:0,0:0:0:0:
200,88,122650,2,0,B|272:128|360:128,1,160,0|8,0:0|0:0,0:0:0:0:
416,184,123158,1,0,0:0:0:0:
416,184,123243,1,0,0:0:0:0:
416,184,123328,5,8,0:0:0:0:
400,264,123497,2,0,B|372:296|328:304,2,80,0|8|0,0:0|0:0|0:0,0:0:0:0:
336,216,124006,2,0,B|344:176|336:128,1,80,8|0,0:0|0:0,0:0:0:0:
176,48,124345,2,0,B|168:88|176:136,1,80,8|0,0:0|0:0,0:0:0:0:
256,160,124684,1,8,0:0:0:0:
256,160,124769,1,0,0:0:0:0:
256,160,124854,1,0,0:0:0:0:
232,240,125023,2,0,B|192:256|152:264,1,80,8|0,0:0|0:0,0:0:0:0:
80,240,125362,1,8,0:0:0:0:
96,320,125532,1,0,0:0:0:0:
152,192,125701,2,0,B|160:144|152:112,1,80,8|0,0:0|0:0,0:0:0:0:
237,31,126040,6,0,B|221:115|239:195,1,160,12|0,0:0|0:0,0:0:0:0:
272,272,126549,1,0,0:0:0:0:
344,328,126719,2,0,B|384:344|424:344,1,80
512,304,127058,1,0,0:0:0:0:
440,240,127227,1,0,0:0:0:0:
464,144,127397,2,0,B|496:112|512:72,1,80
424,40,127736,2,0,B|336:40,1,80
168,64,128075,2,0,B|248:64,1,80
320,128,128414,1,0,0:0:0:0:
256,200,128583,1,0,0:0:0:0:
312,280,128753,6,0,B|340:321|340:321|340:375,1,99.9999985098839
400,256,129092,2,0,B|405:150,1,99.9999985098839
360,40,129431,1,0,0:0:0:0:
248,80,129601,1,0,0:0:0:0:
256,200,129770,2,0,B|212:226|212:226|192:272,1,99.9999985098839
56,320,130109,6,0,B|109:290|109:290|135:237,1,119.999996423721
184,104,130448,1,0,0:0:0:0:
320,152,130618,1,0,0:0:0:0:
424,56,130787,1,0,0:0:0:0:
280,48,130957,1,0,0:0:0:0:
232,184,131127,2,0,B|244:245|244:245|288:288,1,119.999996423721,8|0,0:0|0:0,0:0:0:0:
392,376,131466,5,4,0:0:0:0:
337,331,132144,1,0,0:0:0:0:
285,285,132822,1,0,0:0:0:0:
234,238,133500,6,0,B|164:276|77:266,1,160
56,202,134178,1,0,0:0:0:0:
87,135,134517,1,0,0:0:0:0:
87,135,134687,1,0,0:0:0:0:
149,93,135026,1,0,0:0:0:0:
149,93,135365,1,0,0:0:0:0:
224,79,135535,6,2,B|304:92|304:92|348:77,1,119.999996423721
449,155,136213,2,2,B|369:142|369:142|325:157,1,119.999996423721
154,316,136891,6,0,B|189:343|232:347,1,80,4|0,0:0|0:0,0:0:0:0:
301,316,137229,1,8,0:0:0:0:
379,328,137399,1,0,0:0:0:0:
451,294,137568,2,0,B|465:231|458:167,1,120
442,162,137907,2,0,B|407:188|354:182,1,80,8|0,0:0|0:0,0:0:0:0:
297,224,138246,1,0,0:0:0:0:
270,148,138416,1,0,0:0:0:0:
243,72,138585,1,8,0:0:0:0:
243,72,138670,1,0,0:0:0:0:
243,72,138755,1,0,0:0:0:0:
213,212,138924,6,0,B|196:299,1,80
20,283,139263,2,0,B|84:279|132:243,1,120,8|0,0:0|0:0,0:0:0:0:
132,243,139602,2,0,B|149:156,1,80
82,105,139941,2,0,B|65:192,1,80,8|0,0:0|0:0,0:0:0:0:
155,55,140280,2,0,B|233:33|316:54,1,160,0|8,0:0|0:0,0:0:0:0:
375,103,140789,1,0,0:0:0:0:
333,171,140958,6,0,B|355:208|391:239,1,80
235,269,141297,2,0,B|192:269|147:285,1,80,8|0,0:0|0:0,0:0:0:0:
199,135,141636,2,0,B|220:98|229:51,1,80
82,105,141975,6,0,B|60:142|52:189,1,80,8|0,0:0|0:0,0:0:0:0:
36,266,142314,1,0,0:0:0:0:
124,263,142484,1,0,0:0:0:0:
124,263,142568,1,0,0:0:0:0:
124,263,142653,1,8,0:0:0:0:
164,344,142823,2,0,B|246:340,1,80
306,278,143162,1,0,0:0:0:0:
277,195,143331,1,8,0:0:0:0:
369,53,143501,6,0,B|415:48|460:69,2,80
295,101,144009,1,8,0:0:0:0:
356,163,144179,2,0,B|363:211|338:252,1,80
264,273,144518,2,0,B|257:225|282:184,1,80,0|8,0:0|0:0,0:0:0:0:
344,240,144857,1,0,0:0:0:0:
183,292,145026,6,0,B|171:212|217:140,1,160,0|8,0:0|0:0,0:0:0:0:
227,365,145535,1,0,0:0:0:0:
139,365,145704,2,0,B|56:365,1,80
14,289,146043,2,0,B|97:289,1,80,8|0,0:0|0:0,0:0:0:0:
137,212,146382,5,8,0:0:0:0:
137,199,146467,1,8,0:0:0:0:
137,186,146552,1,0,0:0:0:0:
59,165,146721,5,0,0:0:0:0:
136,137,146890,5,0,0:0:0:0:
136,124,146975,1,8,0:0:0:0:
136,112,147060,1,8,0:0:0:0:
59,86,147229,5,0,0:0:0:0:
59,165,147399,2,0,B|51:209|60:250,1,80,8|0,0:0|0:0,0:0:0:0:
214,294,147738,6,0,B|232:214|212:130,1,160,4|8,0:0|0:0,0:0:0:0:
264,73,148247,1,0,0:0:0:0:
341,92,148417,2,0,B|384:104|427:93,1,80
476,152,148756,2,0,B|431:174|389:167,1,80,8|0,0:0|0:0,0:0:0:0:
318,175,149096,2,0,B|295:257|322:352,2,160,0|8|0,0:0|0:0|0:0,0:0:0:0:
264,115,149945,1,0,0:0:0:0:
264,115,150030,1,0,0:0:0:0:
264,115,150115,2,0,B|224:140|182:139,1,80,8|0,0:0|0:0,0:0:0:0:
26,70,150455,6,0,B|89:28|179:26,1,160,0|8,0:0|0:0,0:0:0:0:
253,276,150964,2,0,B|189:317|100:320,1,160
40,267,151474,2,0,B|42:224|60:184,1,80,8|0,0:0|0:0,0:0:0:0:
95,118,151813,1,4,0:0:0:0:
95,118,151983,1,0,0:0:0:0:
440,224,152493,5,0,0:0:0:0:
400,88,152747,1,0,0:0:0:0:
488,200,153002,1,0,0:0:0:0:
392,232,153170,6,0,B|304:220|244:300,1,160,4|0,0:0|0:0,0:0:0:0:
136,88,153763,1,0,0:0:0:0:
136,88,153848,2,0,B|109:124|56:128,1,80
192,144,154187,2,0,B|244:85|344:72,1,160
328,152,154695,1,0,0:0:0:0:
408,128,154865,2,0,B|448:112|472:80,1,80
400,40,155204,5,0,0:0:0:0:
400,40,155288,1,0,0:0:0:0:
264,104,155458,1,0,0:0:0:0:
264,104,155543,2,0,B|249:149|256:192,1,80
320,296,155882,2,0,B|404:308|480:280,2,160
248,264,156729,1,0,0:0:0:0:
192,320,156899,2,0,B|130:348|56:320,1,120,8|0,0:0|0:0,0:0:0:0:
74,326,157238,5,0,0:0:0:0:
40,256,157407,1,0,0:0:0:0:
47,241,157492,1,0,0:0:0:0:
54,226,157577,1,0,0:0:0:0:
126,192,157746,1,0,0:0:0:0:
140,186,157831,1,0,0:0:0:0:
154,180,157916,1,0,0:0:0:0:
161,165,158001,1,0,0:0:0:0:
168,150,158085,1,0,0:0:0:0:
175,135,158170,1,0,0:0:0:0:
182,120,158255,2,0,B|263:93,1,80,8|0,0:0|0:0,0:0:0:0:
464,45,158594,6,0,B|464:211,1,160,0|8,0:0|0:0,0:0:0:0:
464,332,159103,1,0,0:0:0:0:
332,191,159442,1,0,0:0:0:0:
319,286,159611,1,0,0:0:0:0:
312,300,159696,1,0,0:0:0:0:
302,312,159781,1,0,0:0:0:0:
290,322,159865,1,0,0:0:0:0:
275,328,159950,2,0,B|193:312|193:312|164:337,2,120
232,224,160628,5,0,0:0:0:0:
216,220,160713,1,0,0:0:0:0:
200,216,160798,2,0,B|121:193,1,80,8|0,0:0|0:0,0:0:0:0:
251,60,161137,1,0,0:0:0:0:
262,75,161221,1,0,0:0:0:0:
273,91,161306,1,0,0:0:0:0:
387,128,161476,1,0,0:0:0:0:
387,148,161561,1,0,0:0:0:0:
387,167,161645,1,0,0:0:0:0:
397,184,161730,1,0,0:0:0:0:
407,200,161815,1,8,0:0:0:0:
343,301,161984,5,0,0:0:0:0:
324,307,162069,1,0,0:0:0:0:
305,313,162154,1,0,0:0:0:0:
286,319,162239,1,0,0:0:0:0:
267,325,162323,2,0,B|210:302|210:302|141:309,1,120,8|0,0:0|0:0,0:0:0:0:
139,292,162662,1,0,0:0:0:0:
126,276,162747,1,0,0:0:0:0:
113,260,162832,1,0,0:0:0:0:
100,244,162917,1,0,0:0:0:0:
145,57,163171,5,0,0:0:0:0:
157,77,163256,1,0,0:0:0:0:
169,97,163340,1,0,0:0:0:0:
182,117,163425,1,0,0:0:0:0:
204,123,163510,1,8,0:0:0:0:
227,129,163595,1,8,0:0:0:0:
250,135,163679,2,0,B|304:147|304:147|336:132,1,80
427,88,164018,6,0,B|466:71|466:71|502:88|502:88|502:249,1,239.999992847443,4|8,0:0|0:0,0:0:0:0:
322,231,164527,2,0,B|168:196|168:196|143:214,1,179.999994635582
181,259,164866,2,0,B|300:288,1,119.999996423721,8|0,0:0|0:0,0:0:0:0:
290,16,165290,1,0,0:0:0:0:
290,16,165375,2,0,B|278:76|278:76|238:124,1,119.999996423721,0|8,0:0|0:0,0:0:0:0:
222,336,165714,2,0,B|234:276|234:276|274:228,1,119.999996423721,0|8,0:0|0:0,0:0:0:0:
370,124,166053,1,0,0:0:0:0:
370,124,166137,1,0,0:0:0:0:
229,89,166307,1,0,0:0:0:0:
229,89,166392,2,0,B|184:129|184:129|122:145,1,119.999996423721,0|0,0:0|0:0,0:0:0:0:
36,257,166728,6,0,B|148:228,1,99.9999985098839,8|0,0:0|0:0,0:0:0:0:
200,212,167066,1,0,0:0:0:0:
267,195,167236,2,0,B|346:264,1,99.9999985098839,8|0,0:0|0:0,0:0:0:0:
397,303,167574,2,0,B|439:212,1,99.9999985098839,0|8,0:0|0:0,0:0:0:0:
463,146,167913,1,0,0:0:0:0:
404,108,168082,2,0,B|360:85|360:85|308:95,1,99.9999985098839,0|8,0:0|0:0,0:0:0:0:
242,111,168421,2,0,B|192:120|192:120|148:97,1,99.9999985098839
181,35,168760,5,0,0:0:0:0:
242,111,168929,1,8,0:0:0:0:
256,209,169099,1,8,0:0:0:0:
205,295,169268,1,0,0:0:0:0:
119,346,169435,1,8,0:0:0:0:
119,346,169773,5,0,0:0:0:0:
205,295,169942,1,8,0:0:0:0:
205,295,170280,5,0,0:0:0:0:
242,111,170449,1,8,0:0:0:0:
242,111,170787,5,0,0:0:0:0:
256,209,170956,1,8,0:0:0:0:
256,209,171294,5,0,0:0:0:0:
181,35,171463,2,0,B|125:52|107:112,1,99.9999985098839,8|0,0:0|0:0,0:0:0:0:
160,250,171801,2,0,B|203:232|215:196,1,80,8|0,0:0|0:0,0:0:0:0:
242,111,172146,6,0,B|282:44|372:23,1,160,8|0,0:0|0:0,0:0:0:0:
447,46,172654,1,8,0:0:0:0:
422,121,172824,1,0,0:0:0:0:
422,121,172909,2,0,B|403:180|403:180|412:245,1,120,0|8,0:0|0:0,0:0:0:0:
421,317,173333,1,0,0:0:0:0:
341,325,173502,6,0,B|267:287,1,80,0|0,0:0|0:0,0:0:0:0:
201,257,173841,1,0,0:0:0:0:
311,127,174011,1,0,0:0:0:0:
242,95,174181,2,0,B|170:58,1,80,0|0,0:0|0:0,0:0:0:0:
256,192,174520,6,0,B|347:292|393:222|278:200,1,160,8|4,0:0|0:0,0:0:0:0:
160,112,185725,5,0,0:0:0:0:
320,192,185894,1,0,0:0:0:0:
160,272,186233,5,0,0:0:0:0:
241,234,186403,1,8,0:0:0:0:
320,192,186572,1,0,0:0:0:0:
241,150,186742,1,0,0:0:0:0:
241,234,186912,2,0,B|241:322,1,80,8|0,0:0|0:0,0:0:0:0:
322,348,187251,1,0,0:0:0:0:
401,311,187420,2,0,B|402:141,1,160,0|8,0:0|0:0,0:0:0:0:
200,56,188099,6,0,B|160:72|112:56,1,80
72,128,188438,1,8,0:0:0:0:
136,192,188607,1,0,0:0:0:0:
96,272,188777,2,0,B|128:304|176:296,1,80
240,240,189116,1,8,0:0:0:0:
392,117,189286,2,0,B|400:200|328:256,1,160
247,297,189795,6,0,B|272:336|312:344,1,80,8|0,0:0|0:0,0:0:0:0:
208,224,190134,2,0,B|176:247|133:247,1,80,8|0,0:0|0:0,0:0:0:0:
328,256,190473,2,0,B|272:192|304:96,1,160,8|0,0:0|0:0,0:0:0:0:
300,105,190982,1,0,0:0:0:0:
432,152,191151,6,0,B|464:232,1,80,8|0,0:0|0:0,0:0:0:0:
392,344,191489,2,0,B|312:376,1,80,8|0,0:0|0:0,0:0:0:0:
192,304,191828,2,0,B|162:229,1,80,8|0,0:0|0:0,0:0:0:0:
224,88,192166,2,0,B|304:56,1,80,8|0,0:0|0:0,0:0:0:0:
232,216,192505,6,0,B|152:248,1,80,8|0,0:0|0:0,0:0:0:0:
408,232,192843,2,0,B|488:200,1,80,8|0,0:0|0:0,0:0:0:0:
328,144,193182,2,0,B|296:64,1,80,8|0,0:0|0:0,0:0:0:0:
312,304,193520,2,0,B|341:378,2,80,8|0|8,0:0|0:0|0:0,0:0:0:0:
312,304,193943,1,0,0:0:0:0:
168,240,194112,5,0,0:0:0:0:
168,240,194197,2,0,B|140:275|88:280,1,80
72,128,194536,2,0,B|112:88|176:88,1,99.9999985098839,0|8,0:0|0:0,0:0:0:0:
288,176,194874,2,0,B|336:216|408:208,2,119.999996423721,0|8|0,0:0|0:0|0:0,0:0:0:0:
288,176,195297,1,8,0:0:0:0:
200,48,195466,5,0,0:0:0:0:
195,71,195551,1,0,0:0:0:0:
190,94,195636,1,0,0:0:0:0:
185,117,195720,1,8,0:0:0:0:
180,140,195805,1,0,0:0:0:0:
176,163,195890,5,0,0:0:0:0:
192,180,195974,1,0,0:0:0:0:
208,197,196059,1,0,0:0:0:0:
224,214,196143,5,0,0:0:0:0:
227,237,196228,1,8,0:0:0:0:
230,260,196313,1,0,0:0:0:0:
233,283,196397,1,0,0:0:0:0:
246,302,196482,1,0,0:0:0:0:
260,321,196568,6,0,B|292:357|292:357|372:357,2,119.999996423721,4|0|8,0:0|0:0|0:0,0:0:0:0:
170,241,197076,1,0,0:0:0:0:
268,135,197246,2,0,B|325:117|325:117|368:72,1,119.999996423721
294,212,197585,2,0,B|216:317,1,119.999996423721,8|0,0:0|0:0,0:0:0:0:
154,70,197924,2,0,B|272:48,2,119.999996423721,0|0|8,0:0|0:0|0:0,0:0:0:0:
72,184,198432,1,0,0:0:0:0:
192,264,198602,2,0,B|250:291|250:291|296:336,1,119.999996423721
216,168,198941,2,0,B|302:181|302:181|416:152|416:152|456:160,1,239.999992847443,8|0,0:0|0:0,0:0:0:0:
384,24,199450,5,0,0:0:0:0:
373,45,199534,1,0,0:0:0:0:
362,66,199619,1,8,0:0:0:0:
358,186,199789,1,0,0:0:0:0:
399,298,199958,1,0,0:0:0:0:
373,312,200043,1,0,0:0:0:0:
346,327,200128,1,0,0:0:0:0:
320,342,200213,1,0,0:0:0:0:
293,356,200297,2,0,B|173:340,1,119.999996423721,8|0,0:0|0:0,0:0:0:0:
95,248,200636,1,0,0:0:0:0:
95,248,200721,2,0,B|149:140,1,119.999996423721
179,139,200976,2,0,B|125:249,1,119.999996423721,8|0,0:0|0:0,0:0:0:0:
32,170,201315,5,0,0:0:0:0:
101,72,201484,1,0,0:0:0:0:
220,57,201654,1,8,0:0:0:0:
318,125,201823,1,0,0:0:0:0:
338,242,201993,5,0,0:0:0:0:
338,242,202078,2,0,B|319:302|264:334,1,119.999996423721
264,333,202332,2,0,B|231:326|231:326|206:334|206:334|142:312,1,119.999996423721,8|0,0:0|0:0,0:0:0:0:
251,250,202671,2,0,B|252:129,1,119.999996423721
251,9,203010,1,8,0:0:0:0:
251,9,203180,1,0,0:0:0:0:
360,64,203349,2,0,B|395:107|395:107|387:143|387:143|421:226,1,179.999994635582
420,224,203688,1,8,0:0:0:0:
384,336,203858,1,0,0:0:0:0:
264,312,204027,2,0,B|208:344|144:336,1,119.999996423721
56,160,204366,2,0,B|157:85|288:112,1,239.999992847443,8|0,0:0|0:0,0:0:0:0:
272,232,204875,5,0,0:0:0:0:
254,351,205044,1,8,0:0:0:0:
254,351,205129,1,0,0:0:0:0:
254,351,205214,1,0,0:0:0:0:
197,244,205384,1,0,0:0:0:0:
282,158,205553,2,0,B|300:35,1,119.999996423721,0|8,0:0|0:0,0:0:0:0:
396,191,205892,5,0,0:0:0:0:
370,307,206062,1,8,0:0:0:0:
370,307,206146,1,8,0:0:0:0:
370,307,206231,2,0,B|328:288|328:288|250:292,1,119.999996423721,0|0,0:0|0:0,0:0:0:0:
81,229,206570,1,8,0:0:0:0:
81,229,206655,1,8,0:0:0:0:
81,229,206740,2,0,B|123:248|123:248|201:244,2,119.999996423721,0|0|8,0:0|0:0|0:0,0:0:0:0:
66,110,207248,1,0,0:0:0:0:
166,43,207418,6,0,B|139:165,1,119.999996423721,4|0,0:0|0:0,0:0:0:0:
171,361,207757,2,0,B|196:243,1,119.999996423721,8|0,0:0|0:0,0:0:0:0:
264,143,208096,1,0,0:0:0:0:
378,175,208266,2,0,B|486:245,2,119.999996423721,0|8|0,0:0|0:0|0:0,0:0:0:0:
309,274,208774,1,0,0:0:0:0:
309,274,208859,1,0,0:0:0:0:
138,191,209029,1,0,0:0:0:0:
138,191,209113,2,0,B|104:230|104:230|94:301,1,119.999996423721,8|0,0:0|0:0,0:0:0:0:
208,257,209452,1,0,0:0:0:0:
228,234,209537,1,0,0:0:0:0:
248,211,209622,1,0,0:0:0:0:
267,188,209707,1,0,0:0:0:0:
287,165,209792,2,0,B|366:63,1,119.999996423721,8|0,0:0|0:0,0:0:0:0:
454,145,210131,5,0,0:0:0:0:
465,147,210215,1,0,0:0:0:0:
474,153,210300,1,0,0:0:0:0:
480,163,210385,1,0,0:0:0:0:
484,174,210470,1,8,0:0:0:0:
486,185,210555,1,0,0:0:0:0:
485,197,210639,1,0,0:0:0:0:
480,208,210724,1,0,0:0:0:0:
471,216,210809,2,0,B|497:337,1,119.999996423721
398,262,211148,1,8,0:0:0:0:
282,80,211317,6,0,B|323:216|323:216|308:261|308:261|321:310,1,239.999992847443
244,216,211826,2,0,B|209:99,1,119.999996423721,8|0,0:0|0:0,0:0:0:0:
104,41,212165,1,0,0:0:0:0:
14,120,212335,1,0,0:0:0:0:
67,227,212504,2,0,B|60:295|15:344,1,119.999996423721,8|0,0:0|0:0,0:0:0:0:
135,297,212843,6,0,B|137:172|243:87,1,239.999992847443,8|0,0:0|0:0,0:0:0:0:
496,168,213352,2,0,B|494:293|388:378,1,239.999992847443,8|0,0:0|0:0,0:0:0:0:
320,280,213861,1,8,0:0:0:0:
160,72,214200,5,0,0:0:0:0:
184,192,214369,2,0,B|219:241|219:241|208:312,1,119.999996423721,8|0,0:0|0:0,0:0:0:0:
112,368,214708,1,0,0:0:0:0:
152,256,214878,2,0,B|272:232,1,119.999996423721,8|0,0:0|0:0,0:0:0:0:
445,104,215217,2,0,B|328:128,1,119.999996423721,8|0,0:0|0:0,0:0:0:0:
128,240,215556,6,0,B|369:188,1,239.999992847443,8|0,0:0|0:0,0:0:0:0:
360,72,216065,1,8,0:0:0:0:
280,352,216404,1,0,0:0:0:0:
264,232,216573,2,0,B|248:88|248:88|222:137|174:146,1,239.999992847443,8|0,0:0|0:0,0:0:0:0:
145,29,217082,1,8,0:0:0:0:
384,168,217421,1,0,0:0:0:0:
400,304,217590,1,8,0:0:0:0:
400,304,217675,1,0,0:0:0:0:
400,304,217760,2,0,B|360:280|360:280|328:293|284:293,1,119.999996423721,0|8,0:0|0:0,0:0:0:0:
184,240,218099,1,0,0:0:0:0:
296,136,218267,5,0,0:0:0:0:
298,147,218352,1,0,0:0:0:0:
300,158,218437,1,0,0:0:0:0:
302,169,218522,1,0,0:0:0:0:
304,180,218607,1,0,0:0:0:0:
213,313,218778,1,0,0:0:0:0:
209,295,218863,1,0,0:0:0:0:
205,277,218948,1,0,0:0:0:0:
201,259,219034,1,0,0:0:0:0:
197,241,219119,1,0,0:0:0:0:
250,85,219289,5,0,0:0:0:0:
253,102,219374,1,0,0:0:0:0:
256,119,219460,1,0,0:0:0:0:
259,136,219545,1,0,0:0:0:0:
262,153,219630,1,0,0:0:0:0:
166,260,219801,1,0,0:0:0:0:
157,243,219886,1,0,0:0:0:0:
148,226,219971,1,0,0:0:0:0:
139,209,220056,1,0,0:0:0:0:
130,193,220141,1,0,0:0:0:0:
168,53,220312,5,0,0:0:0:0:
294,122,220482,1,0,0:0:0:0:
314,133,220568,1,0,0:0:0:0:
337,137,220653,1,0,0:0:0:0:
439,219,220823,1,0,0:0:0:0:
421,235,220909,1,0,0:0:0:0:
401,249,220985,1,0,0:0:0:0:
380,261,221068,1,0,0:0:0:0:
357,270,221151,1,0,0:0:0:0:
334,276,221235,1,0,0:0:0:0:
310,279,221318,1,0,0:0:0:0:
142,259,221485,5,0,0:0:0:0:
151,237,221568,1,0,0:0:0:0:
157,214,221651,1,0,0:0:0:0:
160,190,221735,1,0,0:0:0:0:
159,165,221818,1,0,0:0:0:0:
224,42,221985,1,0,0:0:0:0:
372,121,222151,1,0,0:0:0:0:
363,143,222235,1,0,0:0:0:0:
360,166,222318,1,0,0:0:0:0:
259,314,222485,5,0,0:0:0:0:
269,292,222568,1,0,0:0:0:0:
276,269,222651,1,0,0:0:0:0:
282,246,222735,1,0,0:0:0:0:
285,222,222818,1,0,0:0:0:0:
286,197,222901,1,0,0:0:0:0:
284,172,222985,6,0,B|282:111|324:60,1,119.999996423721
216,208,223348,2,0,B|218:269|176:320,1,119.999996423721
216,136,223712,5,4,0:0:0:0:
344,224,224051,1,0,0:0:0:0:
80,208,224390,1,0,0:0:0:0:
120,360,224729,1,0,0:0:0:0:
472,312,225068,5,0,0:0:0:0:
344,224,225407,1,0,0:0:0:0:
63,169,225746,2,0,B|152:184|216:136,1,160
304,0,226424,5,0,0:0:0:0:
376,104,226763,1,0,0:0:0:0:
256,152,227102,1,0,0:0:0:0:
448,216,227441,1,0,0:0:0:0:
288,344,227780,5,0,0:0:0:0:
279,280,228120,1,0,0:0:0:0:
224,40,228459,1,0,0:0:0:0:
233,104,228798,1,0,0:0:0:0:
423,187,229137,5,0,0:0:0:0:
297,213,229476,1,0,0:0:0:0:
46,108,229815,1,0,0:0:0:0:
172,82,230154,1,0,0:0:0:0:
159,241,230493,6,0,B|144:334|79:379,2,160
339,81,231510,5,0,0:0:0:0:
173,303,231849,1,0,0:0:0:0:
278,99,232188,1,0,0:0:0:0:
234,285,232528,1,0,0:0:0:0:
229,59,232867,1,0,0:0:0:0:
283,325,233206,1,0,0:0:0:0:
290,40,233545,1,0,0:0:0:0:
215,346,233884,2,0,B|256:192,2,160
144,200,234900,5,8,0:0:0:0:
64,206,235070,1,0,0:0:0:0:
96,136,235239,2,0,B|136:120|152:80,1,80
264,72,235578,2,0,B|224:88|208:128,1,80,8|0,0:0|0:0,0:0:0:0:
288,152,235917,2,0,B|383:184|383:184|448:176,2,160,0|8|0,0:0|0:0|0:0,0:0:0:0:
72,288,236934,5,8,0:0:0:0:
144,328,237104,1,0,0:0:0:0:
184,256,237273,2,0,B|264:235,1,80
298,164,237612,1,8,0:0:0:0:
289,84,237782,1,0,0:0:0:0:
244,17,237951,2,0,B|196:81|220:169,1,160,0|8,0:0|0:0,0:0:0:0:
261,235,238460,1,0,0:0:0:0:
340,248,238629,6,0,B|377:274|380:320,1,80,0|0,0:0|0:0,0:0:0:0:
336,382,238968,2,0,B|299:356|296:310,1,80,8|0,0:0|0:0,0:0:0:0:
364,172,239307,2,0,B|444:211|453:299,2,160,0|8|8,0:0|0:0|0:0,0:0:0:0:
261,235,240155,5,0,0:0:0:0:
200,286,240324,2,0,B|153:290|120:317,1,80,8|0,0:0|0:0,0:0:0:0:
63,261,240663,1,8,0:0:0:0:
106,193,240833,1,0,0:0:0:0:
80,117,241002,2,0,B|81:69|51:33,1,80,8|0,0:0|0:0,0:0:0:0:
27,184,241341,5,8,0:0:0:0:
106,193,241511,1,0,0:0:0:0:
179,160,241680,2,0,B|217:139|264:144,1,80,8|0,0:0|0:0,0:0:0:0:
428,185,242019,2,0,B|370:215|299:206,1,120,8|0,0:0|0:0,0:0:0:0:
311,207,242358,2,0,B|273:228|226:223,1,80,8|0,0:0|0:0,0:0:0:0:
160,248,242692,5,8,0:0:0:0:
120,320,242861,1,0,0:0:0:0:
48,280,243030,2,0,B|24:240|32:200,1,80
152,48,243369,2,0,B|176:88|168:128,1,80
112,184,243707,1,0,0:0:0:0:
160,248,243877,1,0,0:0:0:0:
240,256,244046,2,0,B|280:232|328:240,1,80
373,295,244385,1,0,0:0:0:0:
296,320,244554,1,0,0:0:0:0:
272,168,244723,6,0,B|280:115|264:64,1,99.9999985098839,0|0,0:0|0:0,0:0:0:0:
184,16,245062,1,0,0:0:0:0:
112,80,245231,1,0,0:0:0:0:
128,240,245400,6,0,B|112:296|64:320,2,99.9999985098839
192,160,245907,1,0,0:0:0:0:
256,249,246076,1,0,0:0:0:0:
373,268,246245,1,0,0:0:0:0:
487,206,246414,2,0,B|503:158|495:102,1,99.9999985098839
302,38,246752,6,0,B|358:16|419:25,2,119.999996423721
220,126,247260,1,0,0:0:0:0:
338,183,247429,1,0,0:0:0:0:
337,315,247598,1,0,0:0:0:0:
198,352,247767,2,0,B|240:301|240:232,1,119.999996423721,8|0,0:0|0:0,0:0:0:0:
170,43,248121,6,0,B|136:38|92:36|92:36|91:79|75:131|75:131|126:131|175:141|175:141|184:103|182:83,2,320,4|0|0,0:0|0:0|0:0,0:0:0:0:
252,37,249817,1,0,0:0:0:0:
329,57,250157,1,0,0:0:0:0:
389,286,250496,5,0,0:0:0:0:
276,236,250835,5,8,0:0:0:0:
216,260,251005,1,0,0:0:0:0:
177,310,251175,1,0,0:0:0:0:
216,260,251344,1,0,0:0:0:0:
276,236,251514,5,8,0:0:0:0:
338,249,251684,1,0,0:0:0:0:
389,286,251854,1,0,0:0:0:0:
338,249,252023,1,0,0:0:0:0:
276,236,252193,5,8,0:0:0:0:
258,197,252305,1,8,0:0:0:0:
273,157,252418,1,8,0:0:0:0:
257,117,252531,1,8,0:0:0:0:
256,192,252574,12,4,253538,0:0:0:0:
284,276,253876,5,8,0:0:0:0:
396,140,254215,2,0,B|435:162|450:204,1,80
423,283,254554,2,0,B|384:261|369:219,1,80,8|0,0:0|0:0,0:0:0:0:
328,76,254893,2,0,B|259:32|170:43,2,160,0|8|0,0:0|0:0|0:0,0:0:0:0:
315,163,255741,1,0,0:0:0:0:
236,202,255910,2,0,B|196:228|192:277,1,80,8|0,0:0|0:0,0:0:0:0:
307,377,256249,6,0,B|378:334|395:248,1,160,0|8,0:0|0:0,0:0:0:0:
353,77,256927,1,0,0:0:0:0:
266,90,257097,1,0,0:0:0:0:
189,45,257266,2,0,B|141:55|109:86,1,80,8|0,0:0|0:0,0:0:0:0:
105,166,257605,1,0,0:0:0:0:
117,181,257690,1,0,0:0:0:0:
125,198,257775,1,0,0:0:0:0:
159,288,257944,6,0,B|205:294|239:255,1,80,8|0,0:0|0:0,0:0:0:0:
387,228,258283,2,0,B|369:185|319:175,1,80
221,59,258622,2,0,B|193:96|209:145,1,80,8|0,0:0|0:0,0:0:0:0:
244,224,258961,5,0,0:0:0:0:
314,289,259131,1,0,0:0:0:0:
234,342,259300,2,0,B|191:364|139:357,1,80,8|0,0:0|0:0,0:0:0:0:
83,296,259639,1,0,0:0:0:0:
117,206,259809,1,0,0:0:0:0:
111,109,259978,2,0,B|68:97|23:106,2,80,8|0|0,0:0|0:0|0:0,0:0:0:0:
202,135,260487,1,0,0:0:0:0:
277,75,260656,2,0,B|320:59|361:67,1,80,8|0,0:0|0:0,0:0:0:0:
328,158,260995,1,0,0:0:0:0:
375,241,261165,2,0,B|332:257|291:249,2,80,0|8|0,0:0|0:0|0:0,0:0:0:0:
355,66,261673,6,0,B|263:54|188:99,1,160,0|8,0:0|0:0,0:0:0:0:
129,161,262182,1,0,0:0:0:0:
198,227,262351,2,0,B|223:264|215:312,1,80
151,374,262691,2,0,B|126:337|134:289,1,80,8|0,0:0|0:0,0:0:0:0:
129,161,263030,5,8,0:0:0:0:
117,149,263115,1,8,0:0:0:0:
105,137,263200,1,0,0:0:0:0:
224,140,263369,5,0,0:0:0:0:
324,121,263539,5,0,0:0:0:0:
336,133,263624,1,8,0:0:0:0:
348,145,263709,2,0,B|384:176|376:227,1,80,8|0,0:0|0:0,0:0:0:0:
297,207,264048,1,8,0:0:0:0:
321,282,264218,1,0,0:0:0:0:
218,179,264390,6,0,B|151:137|58:158,1,160,4|8,0:0|0:0,0:0:0:0:
85,233,264898,1,0,0:0:0:0:
111,308,265067,2,0,B|106:356|67:378,1,80
34,308,265406,2,0,B|39:355|74:376,1,80,8|0,0:0|0:0,0:0:0:0:
121,219,265745,2,0,B|175:234|207:288|204:346,2,160,0|8|0,0:0|0:0|0:0,0:0:0:0:
82,148,266593,1,0,0:0:0:0:
42,217,266762,6,0,B|15:254|23:298,1,80,8|0,0:0|0:0,0:0:0:0:
149,349,267100,2,0,B|191:312|197:250|170:198,1,160,0|8,0:0|0:0,0:0:0:0:
272,33,267609,2,0,B|229:69|223:131|250:183,1,160
336,288,268119,5,8,0:0:0:0:
261,263,268289,1,0,0:0:0:0:
322,208,268459,1,4,0:0:0:0:
276,343,268628,1,0,0:0:0:0:
240,33,269138,5,8,0:0:0:0:
190,208,269393,1,8,0:0:0:0:
336,288,269648,1,8,0:0:0:0:
322,208,269824,6,0,B|353:176|392:171,1,80,4|0,0:0|0:0,0:0:0:0:
453,221,270163,1,0,0:0:0:0:
276,343,270502,1,0,0:0:0:0:
200,315,270671,1,0,0:0:0:0:
180,320,270756,1,0,0:0:0:0:
160,325,270841,1,0,0:0:0:0:
86,293,271011,1,0,0:0:0:0:
104,215,271180,2,0,B|114:169|96:129,1,80
158,14,271519,2,0,B|148:60|166:100,1,80
202,180,271859,5,0,0:0:0:0:
202,180,271943,1,0,0:0:0:0:
292,146,272113,1,0,0:0:0:0:
292,146,272198,2,0,B|375:160,1,80
441,225,272537,1,0,0:0:0:0:
323,345,272791,1,0,0:0:0:0:
323,345,272876,2,0,B|240:331,1,80
154,367,273215,1,0,0:0:0:0:
91,294,273385,1,0,0:0:0:0:
137,210,273554,2,0,B|122:172|123:118,1,80
174,40,273894,1,0,0:0:0:0:
260,98,274063,5,0,0:0:0:0:
283,94,274148,1,0,0:0:0:0:
306,91,274233,1,0,0:0:0:0:
391,135,274402,1,0,0:0:0:0:
352,224,274572,1,0,0:0:0:0:
423,299,274742,1,0,0:0:0:0:
460,184,274911,1,8,0:0:0:0:
378,64,275081,1,0,0:0:0:0:
268,154,275250,6,0,B|235:196|235:196|238:246|238:246|228:295|205:328,1,192.000004577637,4|8,0:0|0:0,0:0:0:0:
104,360,275759,2,0,B|156:284|168:240|168:240|171:208|165:178,1,192.000004577637
158,151,276183,1,0,0:0:0:0:
147,118,276268,1,0,0:0:0:0:
102,33,276437,1,8,0:0:0:0:
24,155,276607,6,0,B|54:228|134:245,1,144.000003433228,0|8,0:0|0:0,0:0:0:0:
162,251,276946,2,0,B|218:220|218:220|264:224,1,96.0000022888184,8|0,0:0|0:0,0:0:0:0:
332,271,277285,2,0,B|381:277,2,48.0000011444092,0|8|8,0:0|0:0|0:0,0:0:0:0:
250,322,277625,1,0,0:0:0:0:
467,233,277794,5,0,0:0:0:0:
406,158,277964,1,0,0:0:0:0:
387,136,278048,1,0,0:0:0:0:
375,109,278133,1,0,0:0:0:0:
367,81,278218,1,0,0:0:0:0:
364,52,278303,1,8,0:0:0:0:
280,156,278472,2,0,B|286:109,2,48.0000011444092
209,221,278812,5,0,0:0:0:0:
115,198,278981,1,0,0:0:0:0:
94,218,279066,1,0,0:0:0:0:
77,241,279151,1,0,0:0:0:0:
66,267,279236,1,0,0:0:0:0:
57,294,279320,1,8,0:0:0:0:
121,364,279490,1,0,0:0:0:0:
149,358,279575,1,0,0:0:0:0:
176,349,279660,1,0,0:0:0:0:
259,302,279829,5,8,0:0:0:0:
273,276,279914,1,0,0:0:0:0:
285,249,279999,1,0,0:0:0:0:
294,221,280084,1,0,0:0:0:0:
301,193,280168,1,0,0:0:0:0:
304,164,280253,1,0,0:0:0:0:
322,186,280338,1,8,0:0:0:0:
342,206,280423,1,0,0:0:0:0:
362,225,280508,1,0,0:0:0:0:
384,242,280592,1,0,0:0:0:0:
409,255,280682,6,0,B|452:176|449:98|449:98|408:83|394:41,1,239.999992847443,12|8,0:0|0:0,0:0:0:0:
484,8,281190,1,0,0:0:0:0:
78,156,281445,5,0,0:0:0:0:
78,156,281529,1,8,0:0:0:0:
20,232,281699,2,0,B|66:271|158:251|167:180,1,179.999994635582,0|8,0:0|0:0,0:0:0:0:
165,187,282038,1,8,0:0:0:0:
284,35,282208,2,0,B|247:159|247:159|265:218|216:273,1,239.999992847443
149,323,282717,5,0,0:0:0:0:
165,187,282886,1,0,0:0:0:0:
328,112,283056,2,0,B|312:163|312:163|320:199|308:237,2,119.999996423721,8|0|8,0:0|0:0|0:0,0:0:0:0:
424,16,283564,5,0,0:0:0:0:
480,136,283734,1,0,0:0:0:0:
480,136,283819,1,0,0:0:0:0:
392,232,283988,1,0,0:0:0:0:
392,232,284073,2,0,B|416:288|400:352,1,119.999996423721
264,296,284412,1,8,0:0:0:0:
184,176,284582,1,0,0:0:0:0:
40,200,284752,1,0,0:0:0:0:
128,304,284921,5,8,0:0:0:0:
128,304,285006,1,8,0:0:0:0:
128,304,285091,1,0,0:0:0:0:
110,172,285260,1,0,0:0:0:0:
232,125,285430,2,0,B|288:131|288:131|303:164|337:172,1,119.999996423721
466,161,285769,1,0,0:0:0:0:
358,237,285939,1,0,0:0:0:0:
354,105,286108,6,0,B|337:67|304:63|304:63|247:58,1,119.999996423721,0|0,0:0|0:0,0:0:0:0:
119,52,286447,1,8,0:0:0:0:
119,52,286617,1,0,0:0:0:0:
8,264,286787,6,0,B|25:302|58:306|58:306|115:311,1,119.999996423721,0|0,0:0|0:0,0:0:0:0:
243,317,287126,1,8,0:0:0:0:
243,317,287295,1,0,0:0:0:0:
216,168,287465,6,0,B|168:203|168:203|102:200,1,119.999996423721
264,16,287804,2,0,B|265:93|265:93|304:125,1,119.999996423721,8|0,0:0|0:0,0:0:0:0:
416,152,288143,1,0,0:0:0:0:
360,48,288313,1,0,0:0:0:0:
328,224,288483,2,0,B|325:305|325:305|344:344,1,119.999996423721,8|0,0:0|0:0,0:0:0:0:
432,264,288822,5,0,0:0:0:0:
432,264,288991,1,0,0:0:0:0:
290,114,289161,2,0,B|317:145|317:145|328:223,1,119.999996423721,8|0,0:0|0:0,0:0:0:0:
232,344,289500,1,0,0:0:0:0:
232,344,289670,1,0,0:0:0:0:
128,296,289839,2,0,B|117:217|117:217|90:186,1,119.999996423721,8|0,0:0|0:0,0:0:0:0:
120,48,290178,6,0,B|131:127|131:127|157:157,1,119.999996423721,8|0,0:0|0:0,0:0:0:0:
272,184,290518,1,8,0:0:0:0:
368,112,290687,1,0,0:0:0:0:
240,104,290857,5,8,0:0:0:0:
272,280,291026,1,8,0:0:0:0:
233,74,291196,1,8,0:0:0:0:
278,309,291366,2,0,B|256:192,1,119.999996423721,8|0,0:0|0:0,0:0:0:0:
256,192,292213,5,0,0:0:0:0:
140,247,292886,1,0,0:0:0:0:
175,369,293513,1,0,0:0:0:0:
291,314,294211,1,0,0:0:0:0:
425,303,294840,1,0,0:0:0:0:
459,211,295277,1,0,0:0:0:0:
263,223,295715,5,0,0:0:0:0:
128,54,296591,5,0,0:0:0:0:
57,197,297365,1,0,0:0:0:0:
182,352,298309,1,0,0:0:0:0:
206,40,300208,5,0,0:0:0:0:
147,120,300592,1,0,0:0:0:0:
205,201,300977,1,0,0:0:0:0:
123,288,301387,1,0,0:0:0:0:
199,380,301798,1,0,0:0:0:0:
331,335,302289,1,0,0:0:0:0:
322,164,302946,1,0,0:0:0:0:
256,192,303016,12,0,307431,0:0:0:0:
