osu file format v9

[General]
AudioFilename: supercell - Hero.mp3
AudioLeadIn: 0
PreviewTime: 50419
Countdown: 0
SampleSet: Soft
StackLeniency: 0.7
Mode: 0
LetterboxInBreaks: 1

[Editor]
Bookmarks: 75602,135602
DistanceSpacing: 0.8
BeatDivisor: 4
GridSize: 8

[Metadata]
Title:Hero
Artist:supercell
Creator:Arsenical Muse
Version:Hard2
Source:
Tags:ryo today is a perfect day my dearest

[Difficulty]
HPDrainRate:6
CircleSize:3
OverallDifficulty:4
ApproachRate:6
SliderMultiplier:1.4
SliderTickRate:2

[Events]
//Background and Video events
0,0,"14995604.jpg"
//Break Periods
2,46547,49333
//Storyboard Layer 0 (Background)
//Storyboard Layer 1 (Fail)
//Storyboard Layer 2 (Pass)
//Storyboard Layer 3 (Foreground)
//Storyboard Sound Samples
//Background Colour Transformations
3,100,163,162,255

[TimingPoints]
530,336.890333664888,4,2,1,65,1,0
40908,-100,4,2,1,10,0,0
42253,-100,4,1,0,25,0,0
43597,-100,4,1,0,40,0,0
44942,-100,4,1,0,45,0,0
45273,-100,4,1,0,63,0,0
45609,-100,4,1,0,68,0,0
45945,-100,4,2,1,70,0,0
49036,336.390333664888,4,2,1,65,1,0
50726,-200,4,2,1,10,0,0
51737,-83.3333333333333,4,2,1,65,0,0
66864,-153.846153846153,4,2,1,10,0,0
124459,-200,4,2,1,10,0,0
133879,-100,4,2,1,65,0,0
150077,-100,4,2,1,65,0,0

[Colours]
Combo1 : 233,188,188
Combo2 : 236,182,132
Combo3 : 123,81,60
Combo4 : 186,197,216

[HitObjects]
40,104,11310,1,0
48,184,11478,1,0
88,256,11647,2,0,B|128:320|216:296,1,140
320,192,12321,2,0,B|288:160|240:168,2,70
328,288,12826,1,0
416,248,12994,2,0,B|464:232|496:256,2,70
408,104,13668,1,0
288,56,14005,6,0,B|208:72|184:152,1,140
216,232,14510,1,0
128,296,14679,2,0,B|88:264|112:216,1,70
104,128,15016,2,0,B|56:128|32:176,1,70
40,248,15353,1,0
40,248,15521,1,0
128,320,15690,1,0
128,320,15858,1,0
224,288,16026,2,0,B|296:232|288:144,1,140
368,72,16700,6,0,B|448:112|472:200,1,140
432,256,17206,1,0
336,280,17374,2,0,B|296:240|320:192,1,70
216,216,17711,2,0,B|224:160|272:144,1,70
312,80,18048,2,0,B|264:24|168:40,1,140
104,184,18722,2,0,B|192:184|224:120,1,140
360,64,19395,6,0,B|384:176|288:264,1,210
216,256,20069,2,0,B|184:232|200:184,3,70
264,136,20743,2,0,B|216:64|120:64,1,140
24,128,21417,1,0
128,216,21585,1,0
128,216,21669,1,0
128,216,21754,2,0,B|192:272|272:256,1,140
408,192,22427,6,0,B|392:112|320:80,2,140
352,312,23438,1,0
144,256,23775,1,0
208,40,24112,1,0
400,88,24449,1,0
400,88,24617,6,0,B|416:136|392:176,2,70
368,40,25122,2,0,B|296:56|280:152,1,140
288,176,25628,2,0,B|320:240|272:312,1,140
240,336,26133,1,0
48,224,26470,1,0
144,32,26807,1,0
328,136,27144,1,0
240,336,27481,5,0
240,336,27649,2,0,B|216:264,2,70
304,352,28155,2,0,B|376:336|392:232,1,140
464,192,28660,1,0
384,144,28828,2,0,B|368:64|288:32,2,140
256,192,29839,1,0
112,88,30176,6,0,B|128:40|184:32,2,70
56,152,30681,1,0
120,216,30850,1,0
56,280,31018,1,0
120,344,31187,1,0
208,320,31355,1,0
208,320,31523,6,0,B|280:288|296:208,1,140
376,272,32197,2,0,B|392:184|336:120,1,140
264,64,32703,5,0
264,64,32787,1,8
264,64,32871,2,0,B|192:64|160:144,1,140,2|8
160,143,33376,1,0
144,256,33545,5,2
56,304,33713,1,0
144,256,33882,1,8
368,224,34219,2,0,B|448:256|504:208,2,140
232,184,35229,1,0
272,80,35566,6,0,B|328:40|424:48,2,140
138,170,36577,1,0
256,248,36914,2,0,B|256:328|176:352,1,140
48,264,37587,2,0,B|56:184|152:168,1,140
240,200,38093,6,0,B|200:168,2,35
360,112,38598,1,0
456,224,38935,1,0
344,320,39272,1,0
120,168,39609,5,0
256,72,39946,1,0
360,200,40283,1,0
240,288,40619,1,0
56,112,40956,5,0
128,216,41293,2,0,B|80:296,2,70
176,144,41799,1,0
176,144,41967,2,0,B|216:216,1,70
256,280,42304,1,0
256,280,42472,2,0,B|296:208,1,70
336,144,42809,1,0
336,144,42978,2,0,B|376:216,1,70
416,280,43315,1,0
416,280,43483,1,0
456,184,43651,6,0,B|480:128|400:144,1,70
376,232,43988,2,0,B|400:288|320:272,1,70
304,168,44325,2,0,B|328:112|248:128,1,70
232,232,44662,2,0,B|256:288|176:272,1,70
112,224,44999,5,0
64,128,45167,1,0
152,80,45336,1,0
208,168,45504,1,0
312,168,45673,1,0
368,80,45841,1,0
456,136,46010,1,0
400,224,46178,1,0
400,224,46347,5,4
168,88,50383,5,2
328,88,50552,1,2
320,232,51057,2,0,B|256:280|184:232,1,140,2|0
96,176,51899,5,0
144,64,52068,2,0,B|208:88|208:144,1,84.0000020027161,8|0
208,248,52405,2,0,B|312:232|328:112,1,168.000004005432,2|8
344,32,52910,1,0
432,104,53072,6,0,B|464:152|432:200,1,84.0000020027161,2|0
344,256,53415,2,0,B|312:208|344:160,1,84.0000020027161,8|0
496,176,53752,2,0,B|528:224|496:272,1,84.0000020027161,2|0
304,312,54089,2,0,B|272:264|304:216,1,84.0000020027161,8|0
360,136,54426,6,0,B|288:72|168:80,1,168.000004005432,2|8
112,144,54931,1,0
96,256,55100,2,0,B|120:304|176:304,2,84.0000020027161,2|0|8
32,136,55605,1,0
128,48,55774,2,0,B|184:32|224:96,1,84.0000020027161,2|0
256,168,56110,1,8
256,168,56279,1,0
328,288,56447,6,2,B|392:256|376:192,1,84.0000020027161,0|0
360,104,56784,1,8
360,104,56953,2,0,B|320:72|256:88,1,84.0000020027161,0|2
168,120,57290,1,0
216,264,57458,6,2,B|192:200,2,42.0000010013581,8|0|0
216,264,57795,2,0,B|120:288|56:184,1,168.000004005432,0|8
168,120,58300,2,0,B|264:112|320:192,1,168.000004005432
344,272,58806,1,8
440,224,58974,1,0
384,136,59142,1,2
272,168,59311,6,0,B|232:224|232:224|184:184|120:208,1,168.000004005432,0|0
128,288,59816,2,2,B|64:288|8:192|72:112|136:112,1,252.000006008148
240,128,60490,1,2
256,248,60658,1,0
240,128,60827,1,8
352,176,60995,1,0
376,80,61164,5,10
352,64,61248,1,8
320,56,61314,2,0,B|272:40|232:72,1,84.0000020027161,8|8
152,128,61669,5,8
128,152,61753,1,8
128,192,61838,1,8
184,272,62006,5,0
256,200,62174,1,8
376,272,62491,6,0,B|424:256|424:256|400:208|424:128|472:104|472:104|424:72,2,252.000006008148,4|0|12
256,272,63668,2,0,B|224:168|312:128,1,168.000004005432
400,104,64173,1,8
400,104,64341,1,0
320,24,64509,6,0,B|256:16|232:80,1,84.0000020027161,2|0
312,120,64846,1,8
312,120,65014,1,0
360,208,65182,2,0,B|288:272|184:208,1,168.000004005432,2|8
80,136,65687,5,8
272,32,66023,1,8
248,264,66360,1,12
248,264,66444,1,12
248,264,66528,1,12
368,80,67201,6,0,B|416:80|432:120,2,68.2499987795949,10|0|0
280,128,67873,2,0,B|256:192|296:232,1,90.9999983727932
384,208,68378,1,0
432,304,68546,2,0,B|368:360|296:352,1,136.49999755919
200,320,69219,5,0
224,232,69387,1,0
136,208,69555,1,0
112,288,69724,1,0
200,320,69892,6,0,B|272:280|248:184,1,136.49999755919
224,104,70564,2,0,B|304:96|344:160,1,136.49999755919
352,256,71237,2,0,B|416:240|424:192,2,90.9999983727932
352,256,72078,1,0
272,336,72246,6,0,B|232:304|248:240,1,90.9999983727932
288,176,72751,1,0
344,104,72919,1,0
272,56,73087,1,0
208,128,73256,6,0,B|144:144|144:200,1,90.9999983727932
240,232,73928,2,0,B|216:280|168:288,1,90.9999983727932
80,248,74433,1,0
80,248,74601,1,0
80,248,74769,1,0
112,152,74938,5,0
112,152,75106,2,0,B|128:120|160:112,2,45.4999991863966
80,248,75610,2,0,B|128:288|168:256,1,90.9999983727932
232,168,76115,1,0
232,168,76283,2,0,B|312:208|272:288,1,136.49999755919
275,280,77124,5,0
416,136,77460,1,0
416,288,77797,1,0
272,136,78133,1,0
160,304,78470,5,0
160,304,78638,2,0,B|96:240|136:160,2,136.49999755919
272,304,79815,1,0
360,248,79983,1,0
352,152,80152,5,0
296,56,80320,2,0,B|192:64|176:184,1,181.999996745586
240,248,81161,2,0,B|208:296|160:288,1,90.9999983727932
80,232,81665,1,0
136,152,81834,1,0
192,72,82002,6,0,B|256:128|248:200,1,136.49999755919
232,288,82675,1,0
328,256,82843,2,0,B|384:240|424:288,1,90.9999983727932
496,328,83347,1,0
416,184,83516,1,0
416,184,83684,6,0,B|368:96,1,90.9999983727932
256,192,84104,12,0,85534
