osu file format v14

[General]
AudioFilename: supercellwww.mp3
AudioLeadIn: 0
PreviewTime: 62403
Countdown: 0
SampleSet: Soft
StackLeniency: 0.7
Mode: 0
LetterboxInBreaks: 0
WidescreenStoryboard: 0

[Editor]
Bookmarks: 30786
DistanceSpacing: 1.1
BeatDivisor: 4
GridSize: 4
TimelineZoom: 2.3

[Metadata]
Title:Hakushu Kassai Utaawase (TV Edit)
TitleUnicode:拍手喝采歌合 (TV Edit)
Artist:supercell
ArtistUnicode:supercell
Creator:Regraz
Version:Insane
Source:刀語
Tags:Katanagatari op opening ryo koeda yf_bmp Euny abhor [_Abhor_] Crystal
BeatmapID:736172
BeatmapSetID:332515

[Difficulty]
HPDrainRate:6.5
CircleSize:4.1
OverallDifficulty:7
ApproachRate:8.5
SliderMultiplier:1.7
SliderTickRate:1

[Events]
//Background and Video events
0,0,"BG_3.jpg",0,0
Video,0,"PV_Muted.flv"
//Break Periods
//Storyboard Layer 0 (Background)
//Storyboard Layer 1 (Fail)
//Storyboard Layer 2 (Pass)
//Storyboard Layer 3 (Foreground)
//Storyboard Sound Samples

[TimingPoints]
25757,359.281437125748,4,2,0,50,1,0
30786,-100,4,2,0,50,0,0
31505,-100,4,2,0,60,0,0
34559,-100,4,2,0,40,0,0
34918,-100,4,2,0,45,0,0
35098,-100,4,2,0,50,0,0
35816,-100,4,2,0,50,0,0
37254,-166.666666666667,4,2,0,40,0,0
40397,-100,4,2,0,30,0,0
40667,-100,4,2,0,20,0,0
40846,-166.666666666667,4,2,0,40,0,0
42553,-166.666666666667,4,2,0,30,0,0
42822,-166.666666666667,4,2,0,20,0,0
43002,-166.666666666667,4,2,0,40,0,0
43271,-166.666666666667,4,2,0,30,0,0
43541,-166.666666666667,4,2,0,20,0,0
43721,-166.666666666667,4,2,0,40,0,0
45158,-166.666666666667,4,2,0,20,0,0
45876,-166.666666666667,4,2,0,40,0,0
46146,-166.666666666667,4,2,0,30,0,0
46415,-166.666666666667,4,2,0,20,0,0
46595,-166.666666666667,4,2,0,40,0,0
48032,-125,4,2,0,50,0,0
48391,-125,4,2,0,50,0,0
48661,-125,4,2,0,20,0,0
48751,-100,4,2,0,55,0,0
61685,-100,4,2,0,60,0,0
62403,-166.666666666667,4,2,0,60,0,0
62673,-166.666666666667,4,2,0,20,0,0
62762,-166.666666666667,4,2,0,50,0,0
63122,-100,4,2,0,65,0,1
68152,-100,4,2,0,50,0,1
68331,-100,4,2,0,55,0,1
68511,-100,4,2,0,65,0,1
74619,-100,4,2,0,50,0,1
74798,-100,4,2,0,55,0,1
74978,-100,4,2,0,65,0,1
76056,-166.666666666667,4,2,0,50,0,0
77493,-166.666666666667,4,2,0,40,0,0
80367,-166.666666666667,4,2,0,50,0,0
82523,-100,4,2,0,50,0,0
83242,-100,4,2,0,55,0,0
87553,-100,4,2,0,55,0,0
88631,-100,4,2,0,20,0,0

[Colours]
Combo1 : 242,24,57
Combo2 : 0,202,0
Combo3 : 18,124,255

[HitObjects]
80,70,25756,6,0,P|139:52|197:91,1,127.5,4|2,0:0|0:0,0:0:0:0:
234,62,26116,2,0,P|280:95|316:96,1,85,4|2,0:3|0:0,0:0:0:0:
387,49,26475,1,2,0:0:0:0:
397,63,26834,1,4,0:3:0:0:
460,131,27014,1,0,0:0:0:0:
369,154,27194,6,0,L|259:149,1,85,2|0,0:0|0:0,0:0:0:0:
270,242,27553,2,0,L|160:237,1,85,2|0,0:0|0:0,0:0:0:0:
123,167,27912,2,0,P|167:96|136:17,1,170,2|4,0:0|0:3,0:0:0:0:
73,87,28451,1,2,0:0:0:0:
139,20,28631,6,0,B|202:18|202:18|230:47|304:61,1,170,2|4,0:0|0:3,0:0:0:0:
387,29,29170,1,2,0:0:0:0:
457,90,29349,2,0,P|494:146|423:229,1,170,2|4,0:0|0:3,0:0:0:0:
354,200,29888,1,2,0:0:0:0:
263,222,30068,6,0,L|150:201,1,85,2|0,0:0|0:0,0:0:0:0:
168,299,30427,2,0,L|55:278,1,85,4|0,0:3|0:0,0:0:0:0:
41,200,30786,1,0,1:0:0:0:
41,200,30876,1,0,1:0:0:0:
41,200,30966,2,0,L|34:145,1,42.5,0|0,1:0|1:0,0:0:0:0:
100,108,31146,1,0,1:0:0:0:
100,108,31236,1,0,1:0:0:0:
100,108,31326,2,0,L|107:53,1,42.5,0|0,1:0|1:0,0:0:0:0:
188,43,31505,6,0,P|254:31|321:73,1,127.5,4|2,0:0|0:0,0:0:0:0:
335,93,31864,2,0,L|345:189,1,85,0|2,1:0|0:0,0:0:0:0:
289,254,32224,1,2,1:2:0:0:
173,168,32403,1,0,0:0:0:0:
290,226,32583,1,2,1:2:0:0:
174,194,32762,1,0,0:0:0:0:
289,197,32942,6,0,P|300:138|287:100,1,85,2|2,1:2|0:0,0:0:0:0:
175,225,33301,2,0,P|164:284|177:322,1,85,2|0,1:2|0:0,0:0:0:0:
320,290,33661,2,0,P|376:248|379:328,1,170,2|0,1:2|1:0,0:0:0:0:
321,381,34200,1,2,1:2:0:0:
243,349,34379,5,2,1:2:0:0:
221,351,34468,1,0,0:0:0:0:
200,353,34558,1,0,1:0:0:0:
179,355,34648,1,0,1:0:0:0:
158,358,34739,5,0,1:0:0:0:
129,326,34828,1,0,1:0:0:0:
120,285,34918,1,0,1:0:0:0:
131,245,35008,1,0,1:0:0:0:
162,223,35098,6,0,L|156:176,1,42.5,0|0,1:0|1:0,0:0:0:0:
237,188,35277,2,0,L|243:141,1,42.5,0|0,1:0|1:0,0:0:0:0:
313,214,35457,2,0,L|318:256,1,42.5,8|8,1:3|1:3,0:0:0:0:
398,249,35637,2,0,L|392:291,1,42.5,4|0,0:3|0:3,0:0:0:0:
401,169,35816,6,0,B|468:170|468:170|410:137,2,127.5,4|2|2,1:2|1:1|1:1,0:0:0:0:
414,262,36535,2,0,B|346:232|308:288|220:247,1,170,4|2,1:2|0:0,0:0:0:0:
366,68,37254,6,0,P|317:102|226:57,1,152.999995330811,4|0,0:0|0:0,0:0:0:0:
173,35,37972,2,0,L|99:40,2,50.9999984436036,2|0|0,0:0|0:0|0:0,0:0:0:0:
235,72,38511,1,0,0:0:0:0:
219,141,38691,6,0,P|245:183|149:285,1,203.999993774414,2|0,0:0|0:0,0:0:0:0:
37,357,39768,1,0,0:0:0:0:
37,357,40128,6,0,B|147:362|147:362|206:350,1,152.999995330811,2|2,0:0|0:0,0:0:0:0:
232,296,40846,2,0,P|276:280|299:289,1,50.9999984436036,2|0,0:0|0:0,0:0:0:0:
341,315,41206,1,0,0:0:0:0:
404,282,41385,1,0,0:0:0:0:
459,327,41565,6,0,P|476:278|361:224,1,203.999993774414,2|2,0:0|0:0,0:0:0:0:
230,268,42643,1,0,0:0:0:0:
96,208,43002,6,0,B|71:189|71:189|43:134|82:65,1,152.999995330811,2|2,0:0|0:0,0:0:0:0:
134,26,43721,2,0,L|200:17,1,50.9999984436036,2|0,0:0|0:0,0:0:0:0:
197,89,44080,2,0,L|269:98,1,50.9999984436036,0|0,0:0|0:0,0:0:0:0:
301,48,44439,6,0,P|344:20|454:101,1,203.999993774414,2|2,0:0|0:0,0:0:0:0:
402,229,45517,1,0,0:0:0:0:
402,229,45697,1,0,0:0:0:0:
349,276,45876,6,0,P|264:245|200:282,1,152.999995330811,2|2,0:0|0:0,0:0:0:0:
164,323,46595,2,0,L|94:321,2,50.9999984436036,2|0|0,0:0|0:0|0:0,0:0:0:0:
228,353,47134,1,0,0:0:0:0:
296,332,47313,6,0,P|364:315|435:362,1,152.999995330811,2|0,0:0|0:0,0:0:0:0:
431,356,48032,6,0,L|412:220,1,136,2|8,0:0|1:3,0:0:0:0:
291,78,48751,6,0,P|272:139|283:170,1,85,4|2,0:0|0:0,0:0:0:0:
310,189,49020,1,0,0:0:0:0:
310,189,49110,1,4,0:3:0:0:
395,152,49289,1,2,0:0:0:0:
479,193,49469,2,0,L|489:303,1,85,4|0,0:3|0:0,0:0:0:0:
409,330,49828,1,4,0:3:0:0:
327,283,50008,1,2,0:0:0:0:
249,335,50188,6,0,P|211:354|167:351,1,85,4|2,0:3|0:0,0:0:0:0:
116,228,50547,2,0,P|150:254|192:260,1,85,4|2,0:3|0:0,0:0:0:0:
188,164,50906,2,0,P|212:87|308:86,1,170,4|4,0:3|0:3,0:0:0:0:
358,142,51445,1,0,0:0:0:0:
452,146,51625,6,0,L|454:248,1,85,4|2,0:0|0:0,0:0:0:0:
424,267,51894,1,0,0:0:0:0:
424,267,51984,1,4,0:3:0:0:
337,302,52164,1,2,0:0:0:0:
244,315,52343,2,0,B|206:340|206:340|65:322,1,170,4|4,0:3|0:3,0:0:0:0:
63,232,52882,1,2,0:0:0:0:
121,158,53062,6,0,P|173:178|223:170,1,85,4|2,0:3|0:0,0:0:0:0:
264,107,53421,1,4,0:3:0:0:
341,158,53601,1,2,0:0:0:0:
341,158,53780,2,0,B|459:149|459:149|418:184,1,170,0|0,3:0|1:0,0:0:0:0:
410,275,54319,1,0,0:0:0:0:
325,315,54499,6,0,L|172:340,1,127.5,4|0,1:2|1:0,0:0:0:0:
158,312,54858,1,0,1:0:0:0:
75,356,55038,1,0,1:2:0:0:
101,266,55218,2,0,L|254:291,1,127.5,0|0,1:0|1:0,0:0:0:0:
268,263,55577,1,0,1:0:0:0:
351,307,55757,1,0,1:0:0:0:
322,218,55936,6,0,L|169:243,1,127.5,0|0,1:0|1:0,0:0:0:0:
155,215,56295,1,0,1:0:0:0:
72,259,56475,1,0,1:0:0:0:
98,169,56655,2,0,L|251:194,1,127.5,0|0,1:0|1:0,0:0:0:0:
265,166,57014,1,0,1:0:0:0:
348,210,57194,1,0,1:0:0:0:
417,148,57373,6,0,P|452:94|419:35,1,127.5,4|0,1:2|1:0,0:0:0:0:
385,22,57733,2,0,L|294:41,1,85,0|2,1:0|1:2,0:0:0:0:
208,33,58092,2,0,P|116:57|56:26,1,127.5,4|0,1:2|1:0,0:0:0:0:
43,32,58451,2,0,P|60:95|45:144,1,85,0|2,1:0|1:2,0:0:0:0:
52,207,58810,6,0,P|33:287|64:331,1,127.5,4|0,1:2|1:0,0:0:0:0:
102,314,59170,2,0,L|217:302,1,85,0|2,1:0|1:2,0:0:0:0:
221,218,59529,1,4,1:2:0:0:
250,220,59618,1,0,1:0:0:0:
280,222,59708,1,0,1:0:0:0:
310,224,59798,1,0,1:0:0:0:
339,226,59888,1,8,1:3:0:0:
409,289,60068,1,2,0:2:0:0:
426,196,60248,5,4,0:0:0:0:
426,196,60607,1,2,0:0:0:0:
426,196,60966,1,0,0:0:0:0:
426,196,61325,1,2,0:0:0:0:
280,100,61685,6,0,P|207:137|152:117,2,127.5,0|0|0,1:0|1:0|1:0,0:0:0:0:
343,35,62403,6,0,L|431:29,1,76.4999976654053,0|0,1:0|0:0,0:0:0:0:
466,60,62762,2,0,L|389:65,1,76.4999976654053,2|0,0:0|0:0,0:0:0:0:
363,147,63122,6,0,P|396:205|359:285,1,127.5,4|0,1:0|1:0,0:0:0:0:
345,289,63481,1,2,1:2:0:0:
268,235,63661,1,0,1:0:0:0:
204,302,63840,2,0,L|57:319,1,127.5,0|0,1:0|1:0,0:0:0:0:
42,284,64200,1,2,1:2:0:0:
97,209,64379,1,2,1:2:0:0:
188,186,64559,5,2,1:2:0:0:
178,49,64739,1,0,0:0:0:0:
266,155,64918,1,0,1:0:0:0:
133,121,65098,1,2,0:2:0:0:
260,70,65277,2,0,B|371:54|371:54|356:89,1,127.5,2|0,1:2|1:0,0:0:0:0:
364,114,65637,2,0,P|346:153|356:198,1,85,2|2,1:2|1:2,0:0:0:0:
439,155,65996,6,0,L|441:315,1,127.5,4|0,1:0|1:0,0:0:0:0:
399,304,66355,2,0,P|333:291|307:315,1,85,2|2,1:2|1:2,0:0:0:0:
232,327,66715,1,0,1:0:0:0:
92,312,66984,1,0,1:0:0:0:
92,312,67074,2,0,P|69:260|78:207,1,85,2|2,1:2|1:2,0:0:0:0:
134,165,67433,6,0,L|271:175,1,127.5,2|0,1:2|1:0,0:0:0:0:
239,132,67792,2,0,L|366:122,1,127.5,2|0,1:2|0:0,0:0:0:0:
402,152,68152,2,0,P|456:189|438:264,1,127.5,2|0,1:2|1:0,0:0:0:0:
414,272,68511,1,0,1:0:0:0:
388,269,68600,1,0,1:0:0:0:
363,267,68690,1,0,1:0:0:0:
337,265,68780,1,0,1:0:0:0:
305,299,68870,6,0,P|217:281|187:302,1,127.5,6|0,1:2|1:0,0:0:0:0:
149,273,69230,2,0,P|108:302|52:297,1,85,0|2,1:0|1:2,0:0:0:0:
82,210,69589,1,0,1:0:0:0:
110,54,69768,1,2,0:0:0:0:
110,196,69948,1,0,1:0:0:0:
77,41,70128,1,2,1:2:0:0:
147,197,70307,6,0,P|192:225|281:206,1,127.5,0|0,1:0|1:0,0:0:0:0:
289,178,70667,2,0,L|397:191,1,85,2|2,1:2|1:2,0:0:0:0:
450,129,71026,1,2,0:0:0:0:
390,56,71206,1,0,1:0:0:0:
302,89,71385,2,0,L|154:100,1,127.5,2|0,1:2|1:0,0:0:0:0:
128,105,71745,6,0,P|77:160|97:227,1,127.5,4|0,1:2|1:0,0:0:0:0:
119,236,72104,1,0,1:0:0:0:
202,193,72283,1,2,1:2:0:0:
278,247,72463,2,0,L|438:259,1,127.5,4|0,1:2|1:0,0:0:0:0:
443,229,72822,1,0,1:0:0:0:
388,152,73002,1,2,1:2:0:0:
480,167,73182,6,0,B|471:270|471:270|488:317,1,127.5,4|0,1:2|1:0,0:0:0:0:
503,332,73541,1,0,1:0:0:0:
412,309,73721,1,2,1:2:0:0:
325,344,73900,2,0,P|259:332|204:370,1,127.5,4|0,1:2|1:0,0:0:0:0:
176,329,74259,2,0,P|124:351|76:339,1,85,0|2,1:0|1:2,0:0:0:0:
51,265,74619,5,4,1:2:0:0:
48,243,74708,1,0,1:0:0:0:
46,222,74798,1,0,1:0:0:0:
153,212,74978,1,0,1:0:0:0:
150,190,75067,1,0,1:0:0:0:
148,169,75157,1,0,1:0:0:0:
256,159,75337,5,0,1:0:0:0:
253,137,75426,1,0,1:0:0:0:
251,116,75516,1,0,1:0:0:0:
353,109,75696,1,8,1:3:0:0:
350,87,75785,1,8,0:3:0:0:
348,66,75875,1,4,0:3:0:0:
463,64,76056,6,0,B|438:152|496:180|467:277,1,203.999993774414,4|2,0:0|0:0,0:0:0:0:
470,265,77493,5,2,0:0:0:0:
256,192,77673,12,0,80008,0:0:0:0:
216,77,80367,6,0,L|98:97,1,101.999996887207,4|0,0:0|0:0,0:0:0:0:
292,143,81086,2,0,L|410:163,1,101.999996887207,4|0,0:0|0:0,0:0:0:0:
219,220,81804,2,0,L|101:240,1,101.999996887207,4|2,0:0|0:0,0:0:0:0:
297,283,82523,5,0,1:0:0:0:
297,283,82613,1,0,1:0:0:0:
297,283,82703,2,0,L|356:289,1,42.5,0|0,1:0|1:0,0:0:0:0:
419,227,82882,1,0,1:0:0:0:
419,227,82972,1,0,1:0:0:0:
419,227,83062,2,0,L|478:221,1,42.5,0|0,1:0|1:0,0:0:0:0:
463,127,83242,6,0,P|488:69|448:2,1,127.5,4|2,0:0|0:0,0:0:0:0:
416,19,83601,2,0,L|319:31,1,85,0|2,1:0|0:0,0:0:0:0:
280,107,83960,2,0,P|216:131|175:127,1,85,2|0,1:2|0:0,0:0:0:0:
128,70,84319,1,2,1:2:0:0:
40,107,84499,1,0,0:0:0:0:
40,107,84589,1,0,0:0:0:0:
40,107,84679,6,0,P|16:174|25:201,1,85,2|0,1:2|0:0,0:0:0:0:
92,242,85038,2,0,L|196:229,1,85,2|0,1:2|0:0,0:0:0:0:
203,269,85307,1,0,0:0:0:0:
203,269,85397,2,0,P|261:258|305:275,1,85,2|0,1:2|0:0,0:0:0:0:
371,299,85756,2,0,L|366:387,1,85,0|2,1:0|1:2,0:0:0:0:
450,342,86116,5,2,1:2:0:0:
468,331,86205,1,0,0:0:0:0:
483,316,86295,1,0,1:0:0:0:
493,297,86385,1,0,1:0:0:0:
498,277,86475,5,0,1:0:0:0:
497,256,86565,1,0,1:0:0:0:
490,236,86654,1,0,1:0:0:0:
478,218,86744,1,0,1:0:0:0:
461,205,86834,6,0,L|412:216,1,42.5,0|0,1:0|1:0,0:0:0:0:
381,148,87014,2,0,L|339:138,1,42.5,0|0,1:0|1:0,0:0:0:0:
306,209,87194,2,0,L|256:219,1,42.5,8|8,1:3|1:3,0:0:0:0:
225,151,87374,2,0,L|183:141,1,42.5,4|0,0:3|0:3,0:0:0:0:
137,223,87553,6,0,L|-1:248,2,127.5,4|2|2,1:2|1:1|1:1,0:0:0:0:
223,288,88271,2,0,P|290:273|343:355,1,170,4|0,1:2|0:0,0:0:0:0:
