osu file format v11

[General]
AudioFilename: Supercell - Giniro Hikousen.mp3
AudioLeadIn: 2000
PreviewTime: 103344
Countdown: 0
SampleSet: Soft
StackLeniency: 0.7
Mode: 0
LetterboxInBreaks: 0

[Editor]
DistanceSpacing: 1
BeatDivisor: 4
GridSize: 4

[Metadata]
Title:Giniro Hikousen (PV ver.)
TitleUnicode:銀色飛行船 (PV ver.)
Artist:supercell
ArtistUnicode:supercell
Creator:mintong89
Version:Normal
Source:Nerawareta Gakuen
Tags:ryo koeda Rirumore Azure
BeatmapID:210529
BeatmapSetID:74041

[Difficulty]
HPDrainRate:3
CircleSize:3
OverallDifficulty:4
ApproachRate:3
SliderMultiplier:1.1
SliderTickRate:1

[Events]
//Background and Video events
0,0,"BG.jpg"
Video,0,"supercell.flv"
//Break Periods
2,100873,102322
//Storyboard Layer 0 (Background)
//Storyboard Layer 1 (Fail)
//Storyboard Layer 2 (Pass)
//Storyboard Layer 3 (Foreground)
//Storyboard Sound Samples
//Background Colour Transformations
3,100,163,162,255

[TimingPoints]
2292.29411764706,882.352941176471,4,2,1,20,1,0
19939,882.352941176471,4,2,1,15,1,0
20159,-100,4,2,1,20,0,0
42880,-100,4,2,1,5,0,0
43762,-100,4,2,1,20,0,0
51704,-100,4,2,1,15,0,0
51924,-100,4,2,1,20,0,0
74645,-100,4,2,1,5,0,0
75527,-100,4,2,1,20,0,0
79939,-100,4,2,1,10,0,0
80159,-100,4,2,1,20,0,0
94718,-100,4,2,2,20,0,0
96704,-100,4,2,1,20,0,0
98248,-100,4,2,2,20,0,0
100674,-100,4,2,1,20,0,0
103542,-100,4,2,1,10,0,0
104645,-100,4,2,1,10,0,1
104865,-100,4,2,1,20,0,1
118762,-100,4,2,1,10,0,1
119645,-100,4,2,1,20,0,1
131115,882.352941176471,4,2,1,5,1,0

[Colours]
Combo1 : 37,57,82
Combo2 : 243,204,20
Combo3 : 60,114,181
Combo4 : 27,211,156
SliderBorder : 255,255,255

[HitObjects]
108,72,2292,2,0,P|92:120|124:304,1,220,4|0,0:0|0:0,0:0:0
212,236,4939,2,0,P|328:236,1,110,2|0,0:0|0:0,0:0:0
412,172,6704,6,0,P|420:112|404:60,2,110,2|0|2,0:0|0:0|0:0,0:0:0
304,148,9351,6,0,P|188:148,1,110,4|2,0:0|0:0,0:0:0
120,232,11115,1,0,0:0:0
168,332,11998,1,2,0:0:0
168,332,12880,6,0,P|280:300|376:332,1,220
436,240,15527,2,0,P|432:208|440:180,1,55,2|0,0:0|0:0,0:0:0
392,156,16409,6,0,P|276:156,1,110,0|2,0:0|0:0,0:0:0
212,240,18174,1,0,0:0:0
148,152,19057,1,2,0:0:0
148,152,19939,6,0,P|148:272,1,110,4|2,0:0|0:0,0:0:0
280,284,21703,2,0,P|352:312|400:308,1,110,0|2,0:0|0:0,0:0:0
396,248,23027,1,0,0:0:0
396,248,23468,6,0,P|408:192|400:140,1,110,4|2,0:0|0:0,0:0:0
356,108,24791,2,0,P|280:108,1,55
192,124,26115,1,2,0:0:0
136,124,26556,1,0,0:0:0
80,124,26997,6,0,P|68:176|84:240,1,110,4|2,0:0|0:0,0:0:0
184,268,28762,2,0,P|240:260|296:272,1,110,0|2,0:0|0:0,0:0:0
340,244,30086,1,0,0:0:0
368,196,30527,6,0,P|352:152|352:84,1,110,4|2,0:0|0:0,0:0:0
312,48,31850,2,0,P|248:48,1,55
160,104,33174,2,0,P|168:172|160:216,1,110,2|4,0:0|0:0,0:0:0
260,260,34939,5,2,0:0:0
312,272,35380,1,0,0:0:0
364,256,35821,2,0,P|356:196|356:140,1,110,0|2,0:0|0:0,0:0:0
256,100,37586,6,0,P|188:92|124:92,1,110,4|2,0:0|0:0,0:0:0
116,140,38909,1,0,0:0:0
116,140,39350,2,0,P|120:184|108:256,1,110,0|2,0:0|0:0,0:0:0
216,280,41115,6,0,P|206:215|210:171,1,110,4|2,0:0|0:0,0:0:0
264,156,42439,2,0,P|328:156,1,55
404,224,43762,1,2,0:0:0
404,224,44644,6,0,P|356:216|284:224,1,110,4|2,0:0|0:0,0:0:0
196,272,46409,2,0,P|144:276|72:268,1,110,0|2,0:0|0:0,0:0:0
52,228,47733,2,0,P|48:192|52:164,1,55
148,124,49056,6,0,P|196:136|260:124,1,110,2|0,0:0|0:0,0:0:0
360,160,50821,2,0,P|416:160,2,55,2|0|4,0:0|0:0|0:0,0:0:0
296,248,52586,6,0,P|248:236|184:248,1,110,2|0,0:0|0:0,0:0:0
96,188,54350,2,0,P|52:152,2,55,2|0|0,0:0|0:0|0:0,0:0:0
188,248,56115,2,0,P|187:283|191:315,1,55,2|0,0:0|0:0,0:0:0
240,328,56997,1,0,0:0:0
304,240,57880,1,2,0:0:0
368,252,58321,1,0,0:0:0
420,232,58762,6,0,P|400:176|404:116,1,110,0|2,0:0|0:0,0:0:0
296,92,60527,2,0,P|232:96,1,55
208,140,61409,2,0,P|144:144,2,55,2|0|0,0:0|0:0|0:0,0:0:0
256,240,63174,6,0,P|252:288|256:356,1,110,2|0,0:0|0:0,0:0:0
364,328,64939,2,0,P|428:320,2,55,2|0|4,0:0|0:0|0:0,0:0:0
255,349,66703,2,0,P|196:340|132:340,1,110,2|0,0:0|0:0,0:0:0
68,232,68468,2,0,P|60:160|72:120,1,110,2|0,0:0|0:0,0:0:0
132,148,69791,5,0,0:0:0
196,132,70233,1,2,0:0:0
312,68,71115,2,0,P|360:56|420:68,1,110,0|2,0:0|0:0,0:0:0
452,124,72439,2,0,P|456:156|452:192,1,55
324,172,73762,6,0,P|316:232|328:288,1,110,2|0,0:0|0:0,0:0:0
224,272,75527,2,0,P|168:264|112:272,1,110,2|0,0:0|0:0,0:0:0
68,172,77291,6,0,P|60:124|72:60,1,110,2|0,0:0|0:0,0:0:0
124,48,78615,2,0,P|184:64,1,55,0|2,0:0|0:0,0:0:0
216,100,79497,2,0,P|276:116,1,55,0|4,0:0|0:0,0:0:0
368,160,80821,6,0,P|356:204|352:284,1,110,2|0,0:0|0:0,0:0:0
240,276,82586,2,0,P|208:284|116:272,1,110,2|0,0:0|0:0,0:0:0
88,176,84350,5,2,0:0:0
88,176,85233,2,0,P|136:164|200:180,1,110,0|2,0:0|0:0,0:0:0
256,196,86556,2,0,P|320:196,1,55
432,244,87880,6,0,P|444:280|432:356,1,110,2|0,0:0|0:0,0:0:0
332,312,89644,2,0,P|276:304,1,55,2|0,0:0|0:0,0:0:0
236,268,90527,6,0,P|184:268|124:244,1,110,0|2,0:0|0:0,0:0:0
104,140,92291,1,0,0:0:0
104,140,93174,2,0,P|112:108|104:32,1,110,2|4,0:0|0:0,0:0:0
216,32,94938,6,0,P|292:68|372:40|372:40|400:112,1,220,2|2,0:0|0:0,0:0:0
332,188,97586,5,4,0:0:0
332,188,98468,2,0,P|320:244|332:292|332:292|232:264|140:280,1,275,2|0,0:0|0:0,0:0:0
168,152,103762,6,4,P|104:152,2,55
260,92,105527,2,0,P|312:84|368:92,1,110,2|0,0:0|0:0,0:0:0
436,176,107291,2,0,P|428:228|436:284,1,110,2|0,0:0|0:0,0:0:0
328,308,109056,2,0,P|272:300,1,55,2|0,0:0|0:0,0:0:0
228,268,109938,2,0,P|172:276|108:264,1,110,0|2,0:0|0:0,0:0:0
64,172,111703,6,0,P|72:116|60:56,1,110,0|2,0:0|0:0,0:0:0
108,32,113027,2,0,P|168:32,1,55
208,64,113909,1,0,0:0:0
208,64,114350,2,0,P|260:76|316:64,1,110,2|0,0:0|0:0,0:0:0
380,60,115674,5,0,0:0:0
396,124,116115,2,0,P|372:240,1,110,2|0,0:0|0:0,0:0:0
308,232,117438,1,0,0:0:0
248,204,117880,2,0,P|212:200|176:208,1,55,2|0,0:0|0:0,0:0:0
136,308,118762,6,0,P|180:320|252:304,1,110,4|2,0:0|0:0,0:0:0
276,264,120086,1,0,0:0:0
276,264,120527,2,0,P|268:208|276:156,1,110,0|2,0:0|0:0,0:0:0
328,136,121850,2,0,P|384:136,1,55
456,220,123174,5,2,0:0:0
388,308,124056,1,0,0:0:0
388,308,124938,2,0,P|332:296|280:308,1,110,2|4,0:0|0:0,0:0:0
188,248,126703,2,0,P|137:259|81:247,2,110,2|0|2,0:0|0:0|0:0,0:0:0
284,192,129350,6,0,P|368:192,2,82.5,2|2|2,0:0|0:0|0:0,0:0:0
240,160,131115,5,0,0:0:0
