osu file format v11

[General]
AudioFilename: Supercell - Giniro Hikousen.mp3
AudioLeadIn: 2000
PreviewTime: 103344
Countdown: 0
SampleSet: Soft
StackLeniency: 0.7
Mode: 0
LetterboxInBreaks: 0

[Editor]
DistanceSpacing: 1.2
BeatDivisor: 4
GridSize: 4

[Metadata]
Title:Giniro Hikousen (PV ver.)
TitleUnicode:銀色飛行船 (PV ver.)
Artist:supercell
ArtistUnicode:supercell
Creator:mintong89
Version:Mintong
Source:Nerawareta Gakuen
Tags:ryo koeda Rirumore Azure
BeatmapID:210528
BeatmapSetID:74041

[Difficulty]
HPDrainRate:5
CircleSize:4
OverallDifficulty:5
ApproachRate:5
SliderMultiplier:1.6
SliderTickRate:1

[Events]
//Background and Video events
0,0,"BG.jpg"
Video,0,"supercell.flv"
//Break Periods
2,100873,102341
//Storyboard Layer 0 (Background)
//Storyboard Layer 1 (Fail)
//Storyboard Layer 2 (Pass)
//Storyboard Layer 3 (Foreground)
//Storyboard Sound Samples
//Background Colour Transformations
3,100,163,162,255

[TimingPoints]
2292.29411764706,882.352941176471,4,2,1,20,1,0
19939,882.352941176471,4,2,1,15,1,0
20159,-100,4,2,1,20,0,0
42880,-100,4,2,1,5,0,0
43762,-100,4,2,1,20,0,0
48174,-100,4,2,1,10,0,0
48395,-100,4,2,1,20,0,0
51704,-100,4,2,1,15,0,0
51924,-100,4,2,1,20,0,0
74645,-100,4,2,1,5,0,0
75527,-100,4,2,1,20,0,0
94718,-100,4,2,2,20,0,0
96704,-100,4,2,1,20,0,0
98248,-100,4,2,2,20,0,0
100674,-100,4,2,1,20,0,0
103542,-100,4,2,1,10,0,0
104645,-100,4,2,1,10,0,1
104865,-100,4,2,1,20,0,1
118762,-100,4,2,1,10,0,1
118983,-100,4,2,1,20,0,1
130674,-83.3333333333333,4,2,1,20,0,1
131115,882.352941176471,4,2,1,5,1,0

[Colours]
Combo1 : 37,57,82
Combo2 : 243,204,20
Combo3 : 60,114,181
Combo4 : 27,211,156
SliderBorder : 255,255,255

[HitObjects]
104,96,2292,2,0,P|172:124|252:100,1,160,4|2,0:0|0:0,0:0:0
344,124,3615,2,0,P|316:192|340:272,1,160
244,288,4939,2,0,P|196:280|156:292,2,80
332,324,6262,5,0,0:0:0
420,284,6704,2,0,P|396:216|420:132,1,160,2|0,0:0|0:0,0:0:0
336,84,8027,1,0,0:0:0
252,128,8468,2,0,P|192:128,2,40,2|0|0,0:0|0:0|0:0,0:0:0
296,212,9351,6,0,P|292:264|256:368,1,160,4|2,0:0|0:0,0:0:0
167,127,11998,1,2,0:0:0
256,92,12439,2,0,P|336:92,1,80
400,164,13321,6,0,P|480:164,2,80,0|2|0,0:0|0:0|0:0,0:0:0
312,204,14645,2,0,P|368:220|404:272|404:272|384:328|292:340,1,240
224,292,16409,5,0,0:0:0
144,240,16851,2,0,P|140:192|140:152,1,80,0|2,0:0|0:0,0:0:0
212,100,17733,2,0,P|216:148|216:188,1,80,0|2,0:0|0:0,0:0:0
300,228,18615,1,0,0:0:0
384,180,19057,2,0,P|424:180,2,40,2|0|0,0:0|0:0|0:0,0:0:0
344,88,19939,6,0,P|264:100|184:88,1,160,4|2,0:0|0:0,0:0:0
104,140,21262,1,0,0:0:0
104,140,21703,2,0,P|104:184|108:228,1,80,2|0,0:0|0:0,0:0:0
204,216,22586,1,2,0:0:0
244,240,22806,1,0,0:0:0
292,248,23027,2,0,P|328:256|376:252,1,80,0|4,0:0|0:0,0:0:0
432,180,23909,6,0,P|420:136|424:96,1,80,0|2,0:0|0:0,0:0:0
332,68,24791,2,0,P|236:68,1,80
160,96,25674,1,0,0:0:0
72,136,26115,2,0,P|32:136,2,40,2|0|0,0:0|0:0|0:0,0:0:0
124,216,26997,6,0,P|160:276|248:264,1,160,4|2,0:0|0:0,0:0:0
332,236,28321,2,0,P|416:236,1,80,0|2,0:0|0:0,0:0:0
484,172,29203,1,0,0:0:0
484,172,29644,1,2,0:0:0
396,132,30086,1,0,0:0:0
396,132,30306,1,0,0:0:0
396,132,30527,6,0,P|352:144|296:132,1,80,4|0,0:0|0:0,0:0:0
232,100,31409,2,0,P|152:100,2,80,2|0|2,0:0|0:0|0:0,0:0:0
404,188,33174,1,2,0:0:0
452,188,33394,1,0,0:0:0
500,188,33615,2,0,P|496:236|500:272,1,80,0|4,0:0|0:0,0:0:0
408,300,34497,6,0,P|324:300,1,80,0|2,0:0|0:0,0:0:0
232,284,35380,2,0,P|192:292|152:284,1,80
92,212,36262,2,0,P|108:116,1,80,0|2,0:0|0:0,0:0:0
180,76,37144,1,0,0:0:0
180,76,37365,1,0,0:0:0
180,76,37586,6,0,P|220:84|288:80,1,80,4|0,0:0|0:0,0:0:0
348,112,38468,2,0,P|336:164|348:272,1,160,2|0,0:0|0:0,0:0:0
156,284,40233,2,0,P|192:280|236:288,2,80,2|0|4,0:0|0:0|0:0,0:0:0
100,208,41556,5,0,0:0:0
164,136,41997,2,0,P|236:168|308:136,1,160,2|0,0:0|0:0,0:0:0
496,172,43762,1,2,0:0:0
496,172,44203,2,0,P|480:232,1,40,2|0,0:0|0:0,0:0:0
440,228,44644,6,0,P|372:216|336:216,1,80,4|0,0:0|0:0,0:0:0
288,276,45527,2,0,P|212:300|136:276,1,160,2|0,0:0|0:0,0:0:0
176,188,46850,2,0,P|180:148|176:108,1,80,0|2,0:0|0:0,0:0:0
256,60,47733,2,0,P|252:100|256:140,1,80,0|4,0:0|0:0,0:0:0
344,180,48615,6,0,P|388:192|448:192,1,80,0|2,0:0|0:0,0:0:0
476,272,49497,1,0,0:0:0
432,356,49939,1,0,0:0:0
256,284,50821,2,0,P|208:284,2,40,2|0|0,0:0|0:0|0:0,0:0:0
324,216,51703,6,0,P|336:132|324:56,1,160,4|2,0:0|0:0,0:0:0
236,100,53027,2,0,P|192:112|148:100,1,80
88,172,53909,1,0,0:0:0
160,236,54350,2,0,P|200:252,2,40,2|0|0,0:0|0:0|0:0,0:0:0
88,172,55233,6,0,P|72:248|100:336,1,160,0|2,0:0|0:0,0:0:0
180,280,56556,2,0,P|228:276|288:288,1,80
352,308,57439,1,0,0:0:0
352,308,57880,2,0,P|408:316,2,40,2|0|0,0:0|0:0|0:0,0:0:0
259,279,58762,6,0,P|272:208|260:116,1,160,4|2,0:0|0:0,0:0:0
172,160,60086,2,0,P|124:168|84:164,1,80
40,244,60968,2,0,P|48:284|40:336,1,80,0|2,0:0|0:0,0:0:0
136,304,61850,2,0,P|176:296,1,40
224,304,62291,6,0,P|272:328|376:304,1,160,0|2,0:0|0:0,0:0:0
328,224,63615,2,0,P|324:176|328:140,1,80
392,72,64497,1,0,0:0:0
392,72,64939,2,0,P|432:68,2,40,2|0|0,0:0|0:0|0:0,0:0:0
296,64,65821,6,0,P|216:48|132:68,1,160,4|2,0:0|0:0,0:0:0
156,160,67144,2,0,P|160:200|160:248,1,80
80,292,68027,2,0,P|76:252|76:204,1,80,0|2,0:0|0:0,0:0:0
160,239,68909,1,0,0:0:0
160,239,69130,2,0,P|248:248,1,80
380,276,70233,5,2,0:0:0
424,192,70674,2,0,P|420:140|424:104,1,80
332,84,71556,1,0,0:0:0
332,84,71777,2,0,P|260:92,1,40,0|2,0:0|0:0,0:0:0
220,152,72439,1,0,0:0:0
220,152,72659,2,0,P|160:136|104:152,1,120
40,220,73762,6,0,P|36:260|40:304,2,80,2|0|0,0:0|0:0|0:0,0:0:0
228,252,75527,1,2,0:0:0
228,252,75968,2,0,P|288:260,1,40,2|0,0:0|0:0,0:0:0
312,236,76409,6,0,P|392:256|468:236,1,160,0|2,0:0|0:0,0:0:0
436,144,77733,2,0,P|432:100|436:64,1,80
344,32,78615,2,0,P|264:60,1,80,0|2,0:0|0:0,0:0:0
196,124,79497,1,0,0:0:0
196,124,79938,6,0,P|216:196|196:284,1,160,4|2,0:0|0:0,0:0:0
104,284,81262,1,0,0:0:0
104,284,81703,2,0,P|124:328|160:356,1,80,0|2,0:0|0:0,0:0:0
192,332,82365,2,0,P|248:328|332:332,1,120,0|2,0:0|0:0,0:0:0
348,300,83247,2,0,P|344:232|348:180,1,120,0|0,0:0|0:0,0:0:0
264,132,84350,6,0,P|208:124|124:136,1,120,2|0,0:0|0:0,0:0:0
100,144,85233,2,0,P|112:196|112:244,1,80,0|2,0:0|0:0,0:0:0
152,252,85894,2,0,P|188:280|256:260,1,120
288,228,86777,1,0,0:0:0
288,228,86997,6,0,P|348:236|396:236,1,80,4|2,0:0|0:0,0:0:0
408,208,87659,2,0,P|392:148|412:92,1,120,0|2,0:0|0:0,0:0:0
384,64,88541,2,0,P|340:48|256:64,1,120,0|2,0:0|0:0,0:0:0
228,96,89424,2,0,P|72:96,1,120,0|2,0:0|0:0,0:0:0
76,132,90306,2,0,P|112:224|72:320,1,200,0|2,0:0|0:0,0:0:0
120,336,91630,5,0,0:0:0
168,344,91850,1,0,0:0:0
216,344,92071,2,0,P|268:348|348:344,1,120,2|0,0:0|0:0,0:0:0
388,264,93174,2,0,P|348:260|292:264,1,80
248,188,94056,5,4,0:0:0
248,188,94497,1,2,0:0:0
248,188,94718,2,0,P|248:240|192:272|140:232|124:172|124:172|104:232|56:264|12:232|12:188,1,360
60,112,97144,5,0,0:0:0
104,100,97365,1,0,0:0:0
152,100,97586,2,0,P|200:108|256:100,1,80,4|2,0:0|0:0,0:0:0
276,120,98247,2,0,P|428:116|428:116|432:120|432:120|428:124|428:124|260:248|424:336,1,440,0|0,0:0|0:0,0:0:0
216,144,103541,6,4,P|240:144|268:152,2,40,4|4|4,0:0|0:0|0:0,0:0:0
176,172,104203,2,4,P|172:204|176:224,1,40
184,256,104644,6,0,P|260:280|344:264,1,160,4|2,0:0|0:0,0:0:0
320,172,105968,2,0,P|316:120|324:80,1,80
404,44,106850,2,0,P|408:96|400:136,1,80,0|2,0:0|0:0,0:0:0
320,92,107733,1,0,0:0:0
272,96,107953,1,0,0:0:0
224,108,108174,6,0,P|172:120|32:92,1,160,0|2,0:0|0:0,0:0:0
32,196,109497,1,0,0:0:0
32,196,109718,2,0,P|40:240,1,40,0|2,0:0|0:0,0:0:0
128,272,110380,2,0,P|176:268|236:284,1,80,0|2,0:0|0:0,0:0:0
300,304,111262,1,0,0:0:0
364,232,111703,6,0,P|352:176|360:68,1,160,0|2,0:0|0:0,0:0:0
264,56,113027,2,0,P|220:48|172:48,1,80
108,108,113909,2,0,P|84:144,1,40
100,188,114350,2,0,P|96:240|100:288,1,80,2|0,0:0|0:0,0:0:0
136,296,115012,1,0,0:0:0
184,296,115233,6,0,P|224:288|268:292,1,80
304,268,115894,2,0,P|296:224|304:164,1,80,2|0,0:0|0:0,0:0:0
344,180,116556,1,0,0:0:0
392,188,116777,1,0,0:0:0
440,180,116997,2,0,P|480:168|512:144,1,80,0|2,0:0|0:0,0:0:0
512,48,117880,2,0,P|472:60|440:84,1,80,2|0,0:0|0:0,0:0:0
352,120,118762,6,0,P|272:104|192:120,1,160,4|2,0:0|0:0,0:0:0
160,208,120086,2,0,P|168:248|164:296,1,80
84,340,120968,2,0,P|76:300|80:252,1,80,0|2,0:0|0:0,0:0:0
165,286,121850,1,0,0:0:0
165,286,122071,2,0,P|224:312,1,40
288,256,122733,6,0,P|336:268|400:264,1,80,0|2,0:0|0:0,0:0:0
420,188,123615,1,0,0:0:0
424,140,123836,1,0,0:0:0
412,92,124056,2,0,P|356:80|296:80,1,80,0|0,0:0|0:0,0:0:0
240,100,124938,2,0,P|196:128|152:132,1,80,2|0,0:0|0:0,0:0:0
72,140,125821,6,0,P|84:220|68:304,1,160,4|2,0:0|0:0,0:0:0
160,324,127144,2,0,P|208:316|252:328,1,80
332,340,128027,2,0,P|372:320,1,40,2|0,0:0|0:0,0:0:0
400,284,128468,2,0,P|392:224|396:176,1,80,2|0,0:0|0:0,0:0:0
364,164,129130,1,0,0:0:0
320,144,129350,6,0,P|256:132|228:140,1,80,2|0,0:0|0:0,0:0:0
208,168,130012,2,0,P|204:212|208:252,1,80,2|0,0:0|0:0,0:0:0
260,272,130674,6,0,P|340:280|384:280,1,95.9999970703126,2|0,0:0|0:0,0:0:0
