osu file format v5

[General]
AudioFilename: super smash bros kirby mix.mp3
AudioLeadIn: 0
PreviewTime: -1
Countdown: 1
SampleSet: Normal
StackLeniency: 0.7
Mode: 0
LetterboxInBreaks: 1

[Metadata]
Title:super smash bros kirby mix
Artist:
Creator:qtip290
Version:little star
Source:
Tags:

[Difficulty]
HPDrainRate:4
CircleSize:4
OverallDifficulty:4
SliderMultiplier:0.4
SliderTickRate:1

[Events]
//Background and Video events
//Break Periods
//Storyboard Layer 0 (Background)
//Storyboard Layer 1 (Failing)
//Storyboard Layer 2 (Passing)
//Storyboard Layer 3 (Foreground)
//Storyboard Sound Samples
//Background Colour Transformations
3,100,163,162,255

[TimingPoints]
0,80,4,1,0,100,1

[HitObjects]
128,64,2760,1,0
192,192,3960,1,0
288,192,4640,1,0
224,128,5280,5,0
128,256,6600,1,0
224,192,7200,1,0
320,96,7840,5,0
160,224,8480,1,0
352,192,9720,5,0
160,160,10400,1,0
224,128,11000,1,0
288,192,11640,1,0
160,192,12240,1,0
256,96,12920,5,0
352,96,13600,1,0
192,160,14200,1,0
96,224,14800,1,0
96,192,15600,2,0,B|288:352|512:224|416:32,1,520
128,128,16960,1,0
192,128,17280,1,0
256,160,18120,5,0
160,224,18800,1,0
288,256,19400,1,0
352,192,19640,1,0
384,160,20000,1,0
192,96,20920,2,0,B|96:160|96:224|128:256|192:288|256:288|288:224|320:160|320:96|320:96|320:64|320:32,1,500
288,32,22440,5,0
128,224,23040,5,0
352,128,24440,1,0
160,128,25120,1,0
160,128,25440,1,0
288,224,25760,1,0
416,192,26400,1,0
192,128,27040,1,0
288,96,27680,1,0
288,192,28280,1,0
128,224,28960,1,0
160,128,29560,5,0
160,128,29920,1,0
160,128,30240,1,0
384,128,30800,5,0
352,224,31440,1,0
128,160,32160,1,0
128,256,32800,1,0
64,32,33600,6,2,B|64:288,1,240
160,32,34800,6,2,B|160:288,1,240
32,192,36200,6,2,B|320:192,1,280
256,192,37640,12,2,37960
160,128,38560,5,2
320,192,39240,5,2
224,192,39880,1,2
96,224,40480,1,2
128,128,41120,1,2
224,96,41960,1,2
288,160,42400,1,2
320,224,43080,1,2
320,224,43240,1,2
128,128,44360,5,2
160,192,44680,1,2
192,192,45000,1,2
256,224,45320,1,2
288,224,45640,1,2
256,64,46160,5,2
224,128,46520,1,2
288,160,46880,1,2
256,192,47200,1,2
288,224,47560,1,2
256,256,47880,1,2
192,256,48200,1,2
192,96,48800,5,2
192,160,49080,1,2
192,160,49440,1,2
192,192,49760,1,2
192,192,50080,1,2
192,192,50400,1,2
256,224,50720,1,2
256,224,51000,1,2
256,128,51480,5,2
256,128,51760,1,2
256,128,52080,1,2
256,128,52360,1,2
256,128,52720,1,2
256,128,53000,1,2
256,128,53320,1,2
160,128,53920,5,2
160,128,54240,1,2
160,192,54520,1,2
160,192,54840,1,2
224,192,55160,1,2
224,192,55480,1,2
256,192,55800,1,2
288,96,56400,5,2
288,96,56720,1,2
192,96,57040,1,2
192,96,57400,1,2
128,128,57760,1,2
128,128,58120,1,2
128,192,58400,1,2
288,128,59000,5,2
288,128,59360,1,2
288,160,59640,1,2
288,160,60000,1,2
224,160,60280,1,2
224,160,60640,1,2
160,160,60960,1,2
128,160,61320,1,2
32,32,61800,6,2,B|32:352|32:352|480:352,1,760
256,192,63600,1,2
