osu file format v5

[General]
AudioFilename: super smash bros kirby mix.mp3
AudioLeadIn: 0
PreviewTime: -1
Countdown: 1
SampleSet: Normal
StackLeniency: 0.7
Mode: 0
LetterboxInBreaks: 1

[Metadata]
Title:super smash bros kirby mix
Artist:
Creator:qtip290
Version:grand star
Source:
Tags:

[Difficulty]
HPDrainRate:4
CircleSize:5
OverallDifficulty:5
SliderMultiplier:0.4
SliderTickRate:1

[Events]
//Background and Video events
//Break Periods
//Storyboard Layer 0 (Background)
//Storyboard Layer 1 (Failing)
//Storyboard Layer 2 (Passing)
//Storyboard Layer 3 (Foreground)
//Storyboard Sound Samples
//Background Colour Transformations
3,100,163,162,255

[TimingPoints]
0,80,4,1,0,100,1

[Colours]
Combo1 : 116,15,176
Combo2 : 0,248,37
Combo3 : 51,93,255
Combo4 : 248,40,0
Combo5 : 255,173,0

[HitObjects]
128,64,2800,1,0
128,64,3280,1,0
128,224,3960,1,0
192,224,4320,1,0
256,224,4600,1,0
192,160,5280,1,0
192,160,5560,1,0
256,128,5880,1,0
256,128,6200,1,0
320,96,6560,1,0
320,160,6840,1,0
224,192,7160,1,0
96,96,7800,1,0
96,160,7960,1,0
192,96,8440,1,0
160,128,8600,1,0
256,96,9120,1,0
288,128,9400,1,0
224,192,9720,1,0
192,224,10080,1,0
192,224,10200,1,0
288,224,10360,1,0
288,160,10680,1,0
224,96,11000,1,0
128,128,11280,1,0
128,192,11640,1,0
160,224,11920,1,0
224,288,12280,1,0
352,96,12880,5,0
256,160,13080,1,0
352,192,13560,1,0
128,160,14360,5,0
128,192,14600,1,0
224,256,14880,1,0
224,256,15080,1,0
224,256,15200,1,0
224,96,15560,1,0
224,96,15680,1,0
224,96,15800,1,0
224,96,15960,1,0
224,96,16080,1,0
256,96,16240,1,0
256,96,16480,1,0
288,160,16800,1,0
224,160,17080,1,0
96,160,17400,1,0
128,192,17960,5,0
128,192,18120,1,0
128,192,18240,1,0
224,224,18680,1,0
224,224,18880,1,0
224,224,19000,1,0
288,128,19360,1,0
352,160,19600,1,0
352,224,19960,1,0
192,160,20240,1,0
32,32,21040,2,0,B|32:64|32:352|256:352|416:320|448:256|384:96,1,680
96,128,23200,1,0
128,224,23480,1,0
256,128,23800,1,0
288,224,24120,1,0
192,128,24440,1,0
192,192,24760,1,0
352,160,25040,1,0
352,160,25200,1,0
320,192,25360,1,0
160,128,25720,1,0
128,192,26080,1,0
256,192,26320,1,0
256,128,26680,1,0
352,128,27000,1,0
352,128,27160,1,0
352,128,27280,1,0
352,128,27400,1,0
352,128,27520,1,0
128,128,28240,5,0
128,192,28720,1,0
256,224,28920,1,0
320,128,29240,1,0
256,128,29440,1,0
224,128,29640,1,0
128,192,29920,1,0
160,224,30240,1,0
352,192,30800,1,0
352,192,30960,1,0
352,192,31120,1,0
352,192,31240,1,0
352,192,31400,1,0
288,128,31760,1,0
288,128,31920,1,0
288,128,32040,1,0
160,192,32440,1,0
192,128,32760,1,0
288,224,33080,1,0
352,160,33400,1,0
352,160,33600,1,0
352,160,33760,1,0
224,96,34120,1,0
224,96,34240,1,0
224,96,34400,1,0
128,128,34760,1,0
128,128,35040,1,0
192,192,35360,1,0
192,192,35560,1,0
192,192,35680,1,0
320,160,36040,1,0
320,96,36400,1,0
320,96,36680,1,0
320,96,36840,1,0
192,96,37240,1,0
160,128,38440,5,0
256,160,38960,1,0
256,160,39120,1,0
256,160,39240,1,0
384,32,39560,1,0
384,32,39720,1,0
384,32,39840,1,0
384,128,40160,1,0
320,160,40480,1,0
192,160,40800,1,0
128,160,41120,1,0
128,160,41280,1,0
128,160,41400,1,0
128,160,41560,1,0
128,160,41720,1,0
160,224,42040,1,0
256,224,42400,1,0
352,96,43040,1,0
352,96,43200,1,0
192,96,43680,1,0
192,96,43880,1,0
192,96,44040,1,0
192,96,44160,1,0
192,96,44360,1,0
192,96,44520,1,0
192,96,44680,1,0
192,96,44840,1,0
192,96,45000,1,0
192,96,45160,1,0
192,96,45280,1,0
192,96,45480,1,0
192,96,45600,1,0
416,224,46240,5,0
288,224,46520,1,0
224,224,46800,1,0
192,160,46960,1,0
256,128,47160,1,0
320,96,47320,1,0
352,96,47440,1,0
384,96,47640,1,0
288,64,47800,1,0
224,64,47960,1,0
192,96,48120,1,0
64,192,48720,5,0
96,224,48880,1,0
128,256,49040,1,0
160,288,49200,1,0
192,288,49360,1,0
256,288,49560,1,0
288,288,49720,1,0
288,288,49880,1,0
320,288,50040,1,0
352,256,50200,1,0
352,192,50400,1,0
320,192,50560,1,0
224,160,50720,1,0
128,128,50960,1,0
128,224,51480,5,0
160,224,51680,1,0
224,256,51840,1,0
288,256,52000,1,0
320,256,52160,1,0
320,224,52320,1,0
320,160,52520,1,0
288,128,52680,1,0
192,128,52840,1,0
192,96,53040,1,0
256,64,53200,1,0
352,64,53360,1,0
352,160,53880,5,0
320,224,54040,1,0
224,256,54240,1,0
160,224,54400,1,0
160,256,54560,1,0
224,288,54760,1,0
288,320,54920,1,0
352,288,55120,1,0
384,256,55280,1,0
384,224,55480,1,0
288,160,55640,1,0
256,160,55800,1,0
160,64,56440,5,0
192,64,56600,1,0
224,64,56800,1,0
288,64,57000,1,0
320,96,57160,1,0
352,96,57320,1,0
352,128,57520,1,0
288,160,57720,1,0
256,160,57880,1,0
192,128,58080,1,0
160,160,58240,1,0
160,160,58400,1,0
128,224,58960,5,0
160,256,59120,1,0
224,256,59320,1,0
224,224,59520,1,0
256,256,59680,1,0
288,256,59840,1,0
352,224,60000,1,0
352,192,60200,1,0
320,160,60360,1,0
224,160,60520,1,0
160,128,60720,1,0
160,128,60880,1,0
224,96,61040,1,0
256,96,61200,1,0
96,64,61600,5,0
96,64,61760,1,0
128,128,61920,1,0
128,64,62120,1,0
160,96,62280,1,0
192,128,62440,1,0
192,64,62640,1,0
224,96,62760,1,0
256,96,62920,1,0
224,64,63120,1,0
256,32,63240,1,0
288,96,63440,1,0
320,128,63600,1,0
32,160,65320,2,0,B|96:288|320:288,1,320
