osu file format v7

[General]
AudioFilename: super mario galaxy-buoy base galaxy.mp3
AudioLeadIn: 0
PreviewTime: -1
Countdown: 1
SampleSet: Soft
StackLeniency: 0.7
Mode: 0
LetterboxInBreaks: 1

[Editor]
DistanceSpacing: 0.800000011920929
BeatDivisor: 8
GridSize: 32

[Metadata]
Title:buoy base galaxy
Artist:super mario galaxy
Creator:ghang2
Version:Easy
Source:
Tags:

[Difficulty]
HPDrainRate:3
CircleSize:3
OverallDifficulty:4
SliderMultiplier:1.4
SliderTickRate:4

[Events]
//Background and Video events
//Break Periods
//Storyboard Layer 0 (Background)
//Storyboard Layer 1 (Fail)
//Storyboard Layer 2 (Pass)
//Storyboard Layer 3 (Foreground)
//Storyboard Sound Samples
//Background Colour Transformations
3,100,163,162,255

[TimingPoints]
0,422.535211267606,4,2,0,100,1,0

[Colours]
Combo1 : 151,255,255
Combo2 : 255,221,221
Combo3 : 255,202,176
Combo4 : 255,255,187
Combo5 : 157,255,157

[HitObjects]
256,192,0,12,0,3274
256,192,3750,12,0,6707
256,192,7077,1,0
256,192,7552,1,0
256,192,8028,12,0,9295
256,192,9665,12,0,10616
262,200,10985,1,0
262,200,11408,1,0
256,64,12200,5,0
96,192,12992,1,0
256,288,13890,1,0
416,192,14683,1,0
256,192,15528,1,0
256,192,16373,1,0
256,192,17271,12,0,20228
64,64,20651,5,0
288,64,21549,1,0
416,224,22341,1,0
192,288,23186,1,0
128,192,23661,1,0
224,128,24084,1,0
416,128,24823,1,0
320,96,27464,5,0
128,128,28257,1,0
320,160,28996,1,0
96,192,29894,1,0
224,224,30369,1,0
320,288,30792,1,0
256,96,31584,1,0
146,147,34436,1,0
406,147,35440,1,0
175,150,36285,1,0
407,167,37183,1,0
176,160,38028,1,0
362,289,38873,1,0
275,210,39295,1,0
314,4,40088,1,0
197,195,40933,5,0
380,51,41830,1,0
197,154,42623,1,0
417,215,43468,1,0
191,176,44313,1,0
256,192,46056,12,0,48538
256,192,49436,12,0,50704
187,62,51073,2,0,B|209:54,17,17.5
256,192,52816,12,0,54031
256,192,54454,12,0,55299
250,87,56936,5,0
184,141,57253,1,0
291,135,57517,1,0
240,199,57781,1,0
288,228,58415,1,0
288,228,58626,1,0
251,49,60316,5,0
180,102,60580,1,0
265,170,60897,1,0
329,97,61109,1,0
253,260,61954,1,0
397,86,63697,5,0
351,127,63961,1,0
427,129,64225,1,0
379,176,64489,1,0
393,271,65334,1,0
111,35,67130,5,0
68,91,67447,1,0
204,98,67764,1,0
121,165,67975,1,0
210,203,68767,1,0
320,128,70457,1,0
288,160,70774,1,0
320,192,71091,1,0
352,160,71355,1,0
320,160,72992,1,0
64,128,74735,1,0
320,128,75580,5,0
64,192,76373,1,0
320,192,77218,1,0
64,256,78116,5,0
320,256,78908,1,0
64,320,79806,1,0
320,320,80651,1,0
192,96,81443,5,0
352,96,82341,1,0
352,224,83133,1,0
192,224,84031,1,0
256,192,84929,12,0,87834
128,96,88204,6,0,B|416:160,5,280
96,64,93327,2,0,B|256:288,2,262.5
224,64,96654,1,0
128,192,97500,1,0
320,192,98397,1,0
288,96,101725,5,0
128,192,102623,1,0
416,192,103415,1,0
288,288,104260,1,0
256,192,104683,1,0
256,96,105105,1,0
256,192,105950,1,0
192,128,108538,5,0
256,128,109383,1,0
192,160,110228,1,0
256,160,111073,1,0
192,160,111338,1,0
256,160,111602,1,0
192,160,111919,1,0
256,160,112658,1,0
448,128,115299,6,0,B|160:128,1,280
160,96,117042,1,0
256,96,117834,1,0
160,160,118257,1,0
256,160,118626,1,0
192,128,119524,1,0
448,64,122007,5,0
448,288,122852,1,0
64,288,123750,1,0
64,64,124647,1,0
256,192,125545,1,0
