osu file format v13

[General]
AudioFilename: Messier 333 -BOF2009 Web Compi Mix-.mp3
AudioLeadIn: 0
PreviewTime: 13900
Countdown: 0
SampleSet: Soft
StackLeniency: 0.7
Mode: 3
LetterboxInBreaks: 0
SpecialStyle: 0
WidescreenStoryboard: 1

[Editor]
DistanceSpacing: 0.8
BeatDivisor: 4
GridSize: 32
TimelineZoom: 3.599999

[Metadata]
Title:Messier 333
TitleUnicode:Messier 333
Artist:sun3
ArtistUnicode:sun3
Creator:MOONWOLF
Version:4K Hyper
Source:THE BMS OF FIGHTERS 2009 - revolutionary battles -
Tags:BOF2009 Web Compi Mix _ GD cooperate xeona, Nijigen-kun, leqek
BeatmapID:461175
BeatmapSetID:89535

[Difficulty]
HPDrainRate:7
CircleSize:4
OverallDifficulty:8
ApproachRate:5
SliderMultiplier:1.4
SliderTickRate:1

[Events]
//Background and Video events
0,0,"title_main_01.png",0,0
Video,0,"video.avi"
//Break Periods
//Storyboard Layer 0 (Background)
//Storyboard Layer 1 (Fail)
//Storyboard Layer 2 (Pass)
//Storyboard Layer 3 (Foreground)
//Storyboard Sound Samples
//Background Colour Transformations
3,100,163,162,255

[TimingPoints]
1480,352.941176470588,4,2,2,5,1,0
83362,-100,4,2,2,5,0,1
105950,-100,4,2,2,5,0,0

[HitObjects]
64,192,1480,5,0,0:0:0:0:
448,192,1480,1,0,0:0:0:0:
64,192,2009,1,0,0:0:0:0:
64,192,2538,1,0,0:0:0:0:
96,192,3068,1,0,0:0:0:0:
64,192,3421,1,0,0:0:0:0:
448,192,3597,1,0,0:0:0:0:
480,192,3862,1,0,0:0:0:0:
448,192,4127,1,0,0:0:0:0:
192,192,4303,1,0,0:0:0:0:
192,192,4479,1,0,0:0:0:0:
320,192,4656,1,0,0:0:0:0:
320,192,4832,1,0,0:0:0:0:
192,192,5009,1,0,0:0:0:0:
320,192,5274,1,0,0:0:0:0:
288,192,5362,1,0,0:0:0:0:
192,192,5538,1,0,0:0:0:0:
32,192,5715,1,0,0:0:0:0:
64,192,5891,1,0,0:0:0:0:
192,192,5979,1,0,0:0:0:0:
64,192,6068,1,0,0:0:0:0:
320,192,6068,1,0,0:0:0:0:
448,192,6244,1,0,0:0:0:0:
64,192,6421,1,0,0:0:0:0:
448,192,6421,1,0,0:0:0:0:
64,192,6685,1,0,0:0:0:0:
320,192,6685,1,0,0:0:0:0:
64,192,6950,1,0,0:0:0:0:
192,192,6950,1,0,0:0:0:0:
64,192,7127,1,0,0:0:0:0:
448,192,7127,1,0,0:0:0:0:
448,192,7479,1,0,0:0:0:0:
64,192,7479,1,4,0:0:0:0:
448,192,7656,1,0,0:0:0:0:
352,192,8185,1,0,0:0:0:0:
32,192,8538,1,0,0:0:0:0:
448,192,8538,1,0,0:0:0:0:
288,192,8715,1,0,0:0:0:0:
224,192,8891,1,0,0:0:0:0:
160,192,9068,1,0,0:0:0:0:
96,192,9244,1,0,0:0:0:0:
96,192,9509,1,0,0:0:0:0:
96,192,9774,1,0,0:0:0:0:
320,192,9950,1,0,0:0:0:0:
320,192,10127,1,0,0:0:0:0:
192,192,10303,1,0,0:0:0:0:
192,192,10479,1,0,0:0:0:0:
64,192,10656,1,0,0:0:0:0:
448,192,10656,1,0,0:0:0:0:
320,192,10744,1,0,0:0:0:0:
448,192,10832,1,0,0:0:0:0:
64,192,11009,1,0,0:0:0:0:
192,192,11097,1,0,0:0:0:0:
64,192,11185,1,0,0:0:0:0:
448,192,11362,1,0,0:0:0:0:
320,192,11450,1,0,0:0:0:0:
448,192,11538,1,0,0:0:0:0:
320,192,11627,1,0,0:0:0:0:
448,192,11715,1,0,0:0:0:0:
64,192,11715,1,0,0:0:0:0:
192,192,11803,1,0,0:0:0:0:
64,192,11891,1,0,0:0:0:0:
192,192,11979,1,0,0:0:0:0:
64,192,12068,1,0,0:0:0:0:
448,192,12068,1,0,0:0:0:0:
64,192,12332,1,0,0:0:0:0:
448,192,12332,1,0,0:0:0:0:
64,192,12597,1,0,0:0:0:0:
448,192,12597,1,0,0:0:0:0:
32,192,13127,1,0,0:0:0:0:
320,192,13127,1,0,0:0:0:0:
448,192,13215,1,0,0:0:0:0:
288,192,13303,1,0,0:0:0:0:
320,192,13479,1,0,0:0:0:0:
448,192,13479,1,0,0:0:0:0:
160,192,13568,1,0,0:0:0:0:
64,192,13656,1,0,0:0:0:0:
192,192,13744,1,0,0:0:0:0:
288,192,13832,1,0,0:0:0:0:
160,192,13921,1,0,0:0:0:0:
288,192,14009,1,0,0:0:0:0:
64,192,14185,1,0,0:0:0:0:
224,192,14185,1,0,0:0:0:0:
448,192,14274,1,0,0:0:0:0:
288,192,14362,1,0,0:0:0:0:
160,192,14450,1,0,0:0:0:0:
288,192,14538,1,0,0:0:0:0:
469,192,14627,1,0,0:0:0:0:
352,192,14891,1,0,0:0:0:0:
448,192,14891,1,0,0:0:0:0:
160,192,14979,1,0,0:0:0:0:
288,192,15068,1,0,0:0:0:0:
192,192,15156,1,0,0:0:0:0:
64,192,15244,1,0,0:0:0:0:
160,192,15332,1,0,0:0:0:0:
288,192,15421,1,0,0:0:0:0:
64,192,15597,1,0,0:0:0:0:
224,192,15597,1,0,0:0:0:0:
320,192,15685,1,0,0:0:0:0:
448,192,15774,1,0,0:0:0:0:
320,192,15862,1,0,0:0:0:0:
192,192,15950,1,0,0:0:0:0:
64,192,16038,1,0,0:0:0:0:
352,192,16303,1,0,0:0:0:0:
64,192,16303,1,0,0:0:0:0:
160,192,16391,1,0,0:0:0:0:
288,192,16479,1,0,0:0:0:0:
469,192,16568,1,0,0:0:0:0:
288,192,16656,1,0,0:0:0:0:
160,192,16744,1,0,0:0:0:0:
288,192,16832,1,0,0:0:0:0:
42,192,17009,1,0,0:0:0:0:
224,192,17009,1,0,0:0:0:0:
320,192,17097,1,0,0:0:0:0:
192,192,17185,1,0,0:0:0:0:
64,192,17274,1,0,0:0:0:0:
192,192,17362,1,0,0:0:0:0:
320,192,17450,1,0,0:0:0:0:
352,192,17715,1,0,0:0:0:0:
192,192,17715,1,0,0:0:0:0:
64,192,17803,1,0,0:0:0:0:
192,192,17891,1,0,0:0:0:0:
320,192,17979,1,0,0:0:0:0:
448,192,18068,1,0,0:0:0:0:
320,192,18156,1,0,0:0:0:0:
192,192,18244,1,0,0:0:0:0:
448,192,18421,1,0,0:0:0:0:
224,192,18421,1,0,0:0:0:0:
320,192,18509,1,0,0:0:0:0:
448,192,18597,1,0,0:0:0:0:
320,192,18685,1,0,0:0:0:0:
192,192,18774,1,0,0:0:0:0:
64,192,18862,1,0,0:0:0:0:
64,192,19127,1,0,0:0:0:0:
448,192,19127,1,0,0:0:0:0:
192,192,19215,1,0,0:0:0:0:
320,192,19303,1,0,0:0:0:0:
448,192,19391,1,0,0:0:0:0:
320,192,19479,1,0,0:0:0:0:
192,192,19568,1,0,0:0:0:0:
320,192,19656,1,0,0:0:0:0:
42,192,19832,1,0,0:0:0:0:
224,192,19832,1,0,0:0:0:0:
469,192,19921,1,0,0:0:0:0:
288,192,20009,1,0,0:0:0:0:
160,192,20097,1,0,0:0:0:0:
288,192,20185,1,0,0:0:0:0:
469,192,20274,1,0,0:0:0:0:
352,192,20538,1,0,0:0:0:0:
480,192,20538,1,0,0:0:0:0:
160,192,20627,1,0,0:0:0:0:
288,192,20715,1,0,0:0:0:0:
469,192,20803,1,0,0:0:0:0:
288,192,20891,1,0,0:0:0:0:
160,192,20979,1,0,0:0:0:0:
288,192,21068,1,0,0:0:0:0:
42,192,21244,1,0,0:0:0:0:
224,192,21244,1,0,0:0:0:0:
320,192,21332,1,0,0:0:0:0:
448,192,21421,1,0,0:0:0:0:
320,192,21509,1,0,0:0:0:0:
192,192,21597,1,0,0:0:0:0:
320,192,21685,1,0,0:0:0:0:
352,192,21950,1,0,0:0:0:0:
480,192,21950,1,0,0:0:0:0:
160,192,22038,1,0,0:0:0:0:
64,192,22127,1,0,0:0:0:0:
192,192,22215,1,0,0:0:0:0:
288,192,22303,1,0,0:0:0:0:
160,192,22391,1,0,0:0:0:0:
288,192,22479,1,0,0:0:0:0:
32,192,22656,1,0,0:0:0:0:
192,192,23009,1,0,0:0:0:0:
320,192,23362,1,0,0:0:0:0:
448,192,23715,1,0,0:0:0:0:
448,192,24068,1,0,0:0:0:0:
96,192,24068,1,0,0:0:0:0:
352,192,24068,1,0,0:0:0:0:
64,192,24244,1,0,0:0:0:0:
64,192,24421,1,0,0:0:0:0:
224,192,24421,1,0,0:0:0:0:
448,192,24421,1,0,0:0:0:0:
448,192,24597,1,0,0:0:0:0:
64,192,24774,1,0,0:0:0:0:
352,192,24774,1,0,0:0:0:0:
448,192,24774,1,0,0:0:0:0:
64,192,24950,1,0,0:0:0:0:
64,192,25127,1,0,0:0:0:0:
352,192,25127,1,0,0:0:0:0:
448,192,25127,1,0,0:0:0:0:
320,192,25303,1,0,0:0:0:0:
64,192,25479,1,0,0:0:0:0:
352,192,25479,1,0,0:0:0:0:
448,192,25479,1,0,0:0:0:0:
64,192,25656,1,0,0:0:0:0:
64,192,25832,1,0,0:0:0:0:
192,192,25832,1,0,0:0:0:0:
448,192,25832,1,0,0:0:0:0:
448,192,26009,1,0,0:0:0:0:
64,192,26185,1,0,0:0:0:0:
352,192,26185,1,0,0:0:0:0:
448,192,26185,1,0,0:0:0:0:
64,192,26362,1,0,0:0:0:0:
64,192,26538,1,0,0:0:0:0:
352,192,26538,1,0,0:0:0:0:
448,192,26538,1,0,0:0:0:0:
288,192,26715,1,0,0:0:0:0:
64,192,26891,1,0,0:0:0:0:
352,192,26891,1,0,0:0:0:0:
448,192,26891,1,0,0:0:0:0:
64,192,27068,1,0,0:0:0:0:
64,192,27244,1,0,0:0:0:0:
224,192,27244,1,0,0:0:0:0:
448,192,27244,1,0,0:0:0:0:
448,192,27421,1,0,0:0:0:0:
64,192,27597,1,0,0:0:0:0:
320,192,27597,1,0,0:0:0:0:
448,192,27597,1,0,0:0:0:0:
64,192,27774,1,0,0:0:0:0:
64,192,27950,1,0,0:0:0:0:
352,192,27950,1,0,0:0:0:0:
448,192,27950,1,0,0:0:0:0:
288,192,28127,1,0,0:0:0:0:
64,192,28303,1,0,0:0:0:0:
352,192,28303,1,0,0:0:0:0:
448,192,28303,1,0,0:0:0:0:
64,192,28479,1,0,0:0:0:0:
64,192,28656,1,0,0:0:0:0:
224,192,28656,1,0,0:0:0:0:
448,192,28656,1,0,0:0:0:0:
448,192,28832,1,0,0:0:0:0:
64,192,29009,1,0,0:0:0:0:
352,192,29009,1,0,0:0:0:0:
448,192,29009,1,0,0:0:0:0:
64,192,29185,1,0,0:0:0:0:
64,192,29362,1,0,0:0:0:0:
352,192,29362,1,0,0:0:0:0:
448,192,29362,1,0,0:0:0:0:
320,192,29538,1,0,0:0:0:0:
64,192,29715,1,0,0:0:0:0:
448,192,29715,1,0,0:0:0:0:
320,192,29715,1,0,0:0:0:0:
64,192,29891,1,0,0:0:0:0:
192,192,30068,1,0,0:0:0:0:
64,192,30068,1,0,0:0:0:0:
448,192,30068,1,0,0:0:0:0:
448,192,30244,1,0,0:0:0:0:
64,192,30421,1,0,0:0:0:0:
352,192,30421,1,0,0:0:0:0:
448,192,30421,1,0,0:0:0:0:
64,192,30597,1,0,0:0:0:0:
96,192,30774,1,0,0:0:0:0:
352,192,30774,1,0,0:0:0:0:
480,192,30774,1,0,0:0:0:0:
288,192,30950,1,0,0:0:0:0:
96,192,31127,1,0,0:0:0:0:
352,192,31127,1,0,0:0:0:0:
480,192,31127,1,0,0:0:0:0:
42,192,31303,1,0,0:0:0:0:
96,192,31479,1,0,0:0:0:0:
224,192,31479,1,0,0:0:0:0:
480,192,31479,1,0,0:0:0:0:
416,192,31656,1,0,0:0:0:0:
96,192,31832,1,0,0:0:0:0:
352,192,31832,1,0,0:0:0:0:
480,192,31832,1,0,0:0:0:0:
42,192,32009,1,0,0:0:0:0:
96,192,32185,1,0,0:0:0:0:
352,192,32185,1,0,0:0:0:0:
480,192,32185,1,0,0:0:0:0:
288,192,32362,1,0,0:0:0:0:
96,192,32538,1,0,0:0:0:0:
352,192,32538,1,0,0:0:0:0:
480,192,32538,1,0,0:0:0:0:
42,192,32715,1,0,0:0:0:0:
96,192,32891,1,0,0:0:0:0:
224,192,32891,1,0,0:0:0:0:
480,192,32891,1,0,0:0:0:0:
416,192,33068,1,0,0:0:0:0:
96,192,33244,1,0,0:0:0:0:
352,192,33244,1,0,0:0:0:0:
480,192,33244,1,0,0:0:0:0:
42,192,33421,1,0,0:0:0:0:
96,192,33597,1,0,0:0:0:0:
352,192,33597,1,0,0:0:0:0:
480,192,33597,1,0,0:0:0:0:
288,192,33774,1,0,0:0:0:0:
64,192,33950,1,0,0:0:0:0:
352,192,33950,1,0,0:0:0:0:
480,192,33950,1,0,0:0:0:0:
64,192,34127,1,0,0:0:0:0:
160,192,34303,1,0,0:0:0:0:
288,192,34303,1,0,0:0:0:0:
448,192,34303,1,0,0:0:0:0:
448,192,34479,1,0,0:0:0:0:
224,192,34656,1,0,0:0:0:0:
352,192,34656,1,0,0:0:0:0:
448,192,34656,1,0,0:0:0:0:
192,192,34832,1,0,0:0:0:0:
352,192,35009,1,0,0:0:0:0:
64,192,35009,1,0,0:0:0:0:
480,192,35009,1,0,0:0:0:0:
320,192,35185,1,0,0:0:0:0:
32,192,35362,1,0,0:0:0:0:
128,192,35362,1,0,0:0:0:0:
298,192,35450,1,0,0:0:0:0:
128,192,35538,1,0,0:0:0:0:
288,192,35627,1,0,0:0:0:0:
160,192,35715,1,0,0:0:0:0:
448,192,35803,1,0,0:0:0:0:
352,192,35979,1,0,0:0:0:0:
448,192,36068,1,0,0:0:0:0:
352,192,36156,1,0,0:0:0:0:
288,192,36421,1,0,0:0:0:0:
160,192,36509,1,0,0:0:0:0:
288,192,36597,1,0,0:0:0:0:
64,192,36685,1,0,0:0:0:0:
352,192,36774,1,0,0:0:0:0:
192,192,36862,1,0,0:0:0:0:
352,192,36950,1,0,0:0:0:0:
64,192,37038,1,0,0:0:0:0:
288,192,37127,1,0,0:0:0:0:
448,192,37215,1,0,0:0:0:0:
352,192,37391,1,0,0:0:0:0:
448,192,37479,1,0,0:0:0:0:
352,192,37568,1,0,0:0:0:0:
448,192,37832,1,0,0:0:0:0:
288,192,37921,1,0,0:0:0:0:
448,192,38009,1,0,0:0:0:0:
64,192,38097,1,0,0:0:0:0:
160,192,38185,1,0,0:0:0:0:
288,192,38274,1,0,0:0:0:0:
160,192,38362,1,0,0:0:0:0:
448,192,38450,1,0,0:0:0:0:
320,192,38538,1,0,0:0:0:0:
416,192,38627,1,0,0:0:0:0:
320,192,38803,1,0,0:0:0:0:
192,192,38891,1,0,0:0:0:0:
352,192,38979,1,0,0:0:0:0:
192,192,39244,1,0,0:0:0:0:
352,192,39332,1,0,0:0:0:0:
224,192,39421,1,0,0:0:0:0:
96,192,39509,1,0,0:0:0:0:
288,192,39597,1,0,0:0:0:0:
192,192,39685,1,0,0:0:0:0:
288,192,39774,1,0,0:0:0:0:
64,192,39862,1,0,0:0:0:0:
192,192,39950,1,0,0:0:0:0:
480,192,40038,1,0,0:0:0:0:
352,192,40215,1,0,0:0:0:0:
64,192,40303,1,0,0:0:0:0:
352,192,40391,1,0,0:0:0:0:
480,192,40656,1,0,0:0:0:0:
352,192,40744,1,0,0:0:0:0:
128,192,40832,1,0,0:0:0:0:
448,192,40921,1,0,0:0:0:0:
160,192,41009,1,0,0:0:0:0:
288,192,41097,1,0,0:0:0:0:
160,192,41185,1,0,0:0:0:0:
448,192,41274,1,0,0:0:0:0:
160,192,41362,1,0,0:0:0:0:
480,192,41450,1,0,0:0:0:0:
352,192,41627,1,0,0:0:0:0:
448,192,41715,1,0,0:0:0:0:
352,192,41803,1,0,0:0:0:0:
288,192,42068,1,0,0:0:0:0:
160,192,42156,1,0,0:0:0:0:
288,192,42244,1,0,0:0:0:0:
96,192,42332,1,0,0:0:0:0:
352,192,42421,1,0,0:0:0:0:
469,192,42509,1,0,0:0:0:0:
64,192,42597,1,0,0:0:0:0:
480,192,42685,1,0,0:0:0:0:
192,192,42774,1,0,0:0:0:0:
480,192,42862,1,0,0:0:0:0:
352,192,43038,1,0,0:0:0:0:
192,192,43127,1,0,0:0:0:0:
352,192,43215,1,0,0:0:0:0:
416,192,43479,1,0,0:0:0:0:
288,192,43568,1,0,0:0:0:0:
416,192,43656,1,0,0:0:0:0:
64,192,43744,1,0,0:0:0:0:
160,192,43832,1,0,0:0:0:0:
448,192,43921,1,0,0:0:0:0:
64,192,44009,1,0,0:0:0:0:
288,192,44097,1,0,0:0:0:0:
160,192,44185,1,0,0:0:0:0:
320,192,44274,1,0,0:0:0:0:
469,192,44362,1,0,0:0:0:0:
64,192,44450,1,0,0:0:0:0:
469,192,44538,1,0,0:0:0:0:
352,192,44627,1,0,0:0:0:0:
224,192,44891,1,0,0:0:0:0:
352,192,44979,1,0,0:0:0:0:
224,192,45068,1,0,0:0:0:0:
96,192,45156,1,0,0:0:0:0:
288,192,45244,1,0,0:0:0:0:
416,192,45332,1,0,0:0:0:0:
192,192,45421,1,0,0:0:0:0:
480,192,45509,1,0,0:0:0:0:
64,192,45597,1,0,0:0:0:0:
480,192,45685,1,0,0:0:0:0:
352,192,45862,1,0,0:0:0:0:
352,192,46038,1,0,0:0:0:0:
32,192,46127,1,0,0:0:0:0:
448,192,46127,128,0,46656:0:0:0:0:
64,192,46656,1,0,0:0:0:0:
192,192,46744,1,0,0:0:0:0:
288,192,46832,1,0,0:0:0:0:
448,192,46921,1,0,0:0:0:0:
64,192,47009,1,0,0:0:0:0:
298,192,47009,1,0,0:0:0:0:
448,192,47097,1,0,0:0:0:0:
448,192,47274,1,0,0:0:0:0:
64,192,47362,1,0,0:0:0:0:
448,192,47450,1,0,0:0:0:0:
64,192,47715,1,0,0:0:0:0:
448,192,47715,1,0,0:0:0:0:
298,192,47803,1,0,0:0:0:0:
448,192,47891,1,0,0:0:0:0:
288,192,47979,1,0,0:0:0:0:
64,192,48068,1,0,0:0:0:0:
192,192,48068,1,0,0:0:0:0:
448,192,48156,1,0,0:0:0:0:
288,192,48244,1,0,0:0:0:0:
448,192,48332,1,0,0:0:0:0:
64,192,48421,1,0,0:0:0:0:
298,192,48421,1,0,0:0:0:0:
448,192,48509,1,0,0:0:0:0:
448,192,48685,1,0,0:0:0:0:
64,192,48774,1,0,0:0:0:0:
448,192,48862,1,0,0:0:0:0:
192,192,49127,1,0,0:0:0:0:
448,192,49127,1,0,0:0:0:0:
64,192,49215,1,0,0:0:0:0:
192,192,49303,1,0,0:0:0:0:
64,192,49391,1,0,0:0:0:0:
448,192,49479,1,0,0:0:0:0:
128,192,49479,1,0,0:0:0:0:
352,192,49568,1,0,0:0:0:0:
192,192,49656,1,0,0:0:0:0:
448,192,49744,1,0,0:0:0:0:
96,192,49832,1,0,0:0:0:0:
192,192,49832,1,0,0:0:0:0:
480,192,49921,1,0,0:0:0:0:
416,192,50097,1,0,0:0:0:0:
96,192,50185,1,0,0:0:0:0:
416,192,50274,1,0,0:0:0:0:
96,192,50538,1,0,0:0:0:0:
480,192,50538,1,0,0:0:0:0:
192,192,50627,1,0,0:0:0:0:
298,192,50715,1,0,0:0:0:0:
213,192,50803,1,0,0:0:0:0:
448,192,50891,1,0,0:0:0:0:
320,192,50891,1,0,0:0:0:0:
192,192,50979,1,0,0:0:0:0:
64,192,51068,1,0,0:0:0:0:
448,192,51156,1,0,0:0:0:0:
64,192,51244,1,0,0:0:0:0:
298,192,51244,1,0,0:0:0:0:
448,192,51332,1,0,0:0:0:0:
448,192,51509,1,0,0:0:0:0:
64,192,51597,1,0,0:0:0:0:
448,192,51685,1,0,0:0:0:0:
192,192,51774,1,0,0:0:0:0:
320,192,51774,1,0,0:0:0:0:
96,192,51950,1,0,0:0:0:0:
320,192,51950,1,0,0:0:0:0:
416,192,52038,1,0,0:0:0:0:
288,192,52127,1,0,0:0:0:0:
213,192,52215,1,0,0:0:0:0:
32,192,52303,1,0,0:0:0:0:
448,192,52303,1,0,0:0:0:0:
192,192,52479,1,0,0:0:0:0:
64,192,52656,1,0,0:0:0:0:
448,192,52656,1,0,0:0:0:0:
320,192,52832,1,0,0:0:0:0:
64,192,53009,1,0,0:0:0:0:
448,192,53009,1,0,0:0:0:0:
192,192,53185,1,0,0:0:0:0:
64,192,53362,1,0,0:0:0:0:
448,192,53362,1,0,0:0:0:0:
320,192,53538,1,0,0:0:0:0:
96,192,53715,1,0,0:0:0:0:
448,192,53715,1,0,0:0:0:0:
192,192,53891,1,0,0:0:0:0:
64,192,54068,1,0,0:0:0:0:
448,192,54068,1,0,0:0:0:0:
320,192,54244,1,0,0:0:0:0:
64,192,54421,1,0,0:0:0:0:
448,192,54421,1,0,0:0:0:0:
192,192,54597,1,0,0:0:0:0:
96,192,54774,1,0,0:0:0:0:
448,192,54774,1,0,0:0:0:0:
320,192,54950,1,0,0:0:0:0:
64,192,55127,1,0,0:0:0:0:
192,192,55127,1,0,0:0:0:0:
448,192,55127,1,0,0:0:0:0:
320,192,55303,1,0,0:0:0:0:
448,192,55479,1,0,0:0:0:0:
224,192,55656,1,0,0:0:0:0:
64,192,55832,1,0,0:0:0:0:
448,192,55832,1,0,0:0:0:0:
352,192,56009,1,0,0:0:0:0:
224,192,56185,1,0,0:0:0:0:
448,192,56185,1,0,0:0:0:0:
160,192,56362,1,0,0:0:0:0:
64,192,56538,1,0,0:0:0:0:
64,192,56891,1,0,0:0:0:0:
64,192,57244,1,0,0:0:0:0:
64,192,57597,1,0,0:0:0:0:
64,192,57950,1,0,0:0:0:0:
448,192,57950,1,0,0:0:0:0:
320,192,57950,1,0,0:0:0:0:
320,192,58832,1,0,0:0:0:0:
320,192,60244,5,0,0:0:0:0:
320,192,61656,1,0,0:0:0:0:
320,192,63068,5,0,0:0:0:0:
32,192,63244,5,0,0:0:0:0:
32,192,63597,1,0,0:0:0:0:
448,192,64479,1,0,0:0:0:0:
448,192,65891,1,0,0:0:0:0:
448,192,67303,5,0,0:0:0:0:
448,192,68715,5,0,0:0:0:0:
128,192,69244,5,0,0:0:0:0:
288,192,69244,1,0,0:0:0:0:
448,192,69332,1,0,0:0:0:0:
298,192,69421,1,0,0:0:0:0:
192,192,69509,1,0,0:0:0:0:
64,192,69597,1,0,0:0:0:0:
224,192,69685,1,0,0:0:0:0:
288,192,69774,1,0,0:0:0:0:
160,192,69862,1,0,0:0:0:0:
352,192,69950,1,0,0:0:0:0:
288,192,70127,1,0,0:0:0:0:
352,192,70215,1,0,0:0:0:0:
224,192,70391,1,0,0:0:0:0:
448,192,70479,1,0,0:0:0:0:
288,192,70568,1,0,0:0:0:0:
224,192,70656,1,0,0:0:0:0:
64,192,70744,1,0,0:0:0:0:
160,192,70832,1,0,0:0:0:0:
448,192,70921,1,0,0:0:0:0:
352,192,71009,1,0,0:0:0:0:
224,192,71097,1,0,0:0:0:0:
288,192,71185,1,0,0:0:0:0:
160,192,71274,1,0,0:0:0:0:
352,192,71362,1,0,0:0:0:0:
224,192,71538,1,0,0:0:0:0:
64,192,71627,1,0,0:0:0:0:
160,192,71803,1,0,0:0:0:0:
352,192,71891,1,0,0:0:0:0:
160,192,71979,1,0,0:0:0:0:
64,192,72068,1,0,0:0:0:0:
192,192,72156,1,0,0:0:0:0:
320,192,72244,1,0,0:0:0:0:
448,192,72332,1,0,0:0:0:0:
352,192,72421,1,0,0:0:0:0:
224,192,72509,1,0,0:0:0:0:
288,192,72597,1,0,0:0:0:0:
160,192,72685,1,0,0:0:0:0:
352,192,72774,1,0,0:0:0:0:
192,192,72950,1,0,0:0:0:0:
192,192,73038,1,0,0:0:0:0:
448,192,73215,1,0,0:0:0:0:
352,192,73303,1,0,0:0:0:0:
192,192,73391,1,0,0:0:0:0:
320,192,73479,1,0,0:0:0:0:
448,192,73568,1,0,0:0:0:0:
320,192,73656,1,0,0:0:0:0:
224,192,73744,1,0,0:0:0:0:
288,192,73832,1,0,0:0:0:0:
160,192,73921,1,0,0:0:0:0:
64,192,74009,1,0,0:0:0:0:
192,192,74097,1,0,0:0:0:0:
352,192,74185,1,0,0:0:0:0:
64,192,74362,1,0,0:0:0:0:
224,192,74450,1,0,0:0:0:0:
352,192,74538,1,0,0:0:0:0:
160,192,74627,1,0,0:0:0:0:
288,192,74715,1,0,0:0:0:0:
224,192,74803,1,0,0:0:0:0:
64,192,74891,1,0,0:0:0:0:
448,192,74891,1,0,0:0:0:0:
192,192,75774,1,0,0:0:0:0:
32,192,76303,1,0,0:0:0:0:
448,192,76303,1,0,0:0:0:0:
320,192,77185,1,0,0:0:0:0:
32,192,77715,1,0,0:0:0:0:
448,192,77715,1,0,0:0:0:0:
32,192,78421,1,0,0:0:0:0:
448,192,78421,1,0,0:0:0:0:
320,192,78597,1,0,0:0:0:0:
32,192,79127,1,0,0:0:0:0:
64,192,79303,1,0,0:0:0:0:
64,192,79479,1,0,0:0:0:0:
160,192,79479,1,0,0:0:0:0:
160,192,79656,1,0,0:0:0:0:
64,192,79832,1,0,0:0:0:0:
448,192,79832,1,0,0:0:0:0:
448,192,80009,1,0,0:0:0:0:
64,192,80185,1,0,0:0:0:0:
288,192,80185,1,0,0:0:0:0:
64,192,80362,1,0,0:0:0:0:
320,192,80450,1,0,0:0:0:0:
64,192,80538,1,0,0:0:0:0:
448,192,80538,1,0,0:0:0:0:
288,192,80627,1,0,0:0:0:0:
192,192,80803,1,0,0:0:0:0:
320,192,80891,1,0,0:0:0:0:
192,192,81068,1,0,0:0:0:0:
224,192,81244,1,0,0:0:0:0:
448,192,81421,1,0,0:0:0:0:
288,192,81774,1,0,0:0:0:0:
64,192,81950,1,0,0:0:0:0:
448,192,81950,1,0,0:0:0:0:
64,192,82656,1,0,0:0:0:0:
64,192,83009,1,0,0:0:0:0:
64,192,83362,1,0,0:0:0:0:
448,192,83362,1,0,0:0:0:0:
192,192,83450,1,0,0:0:0:0:
298,192,83538,1,0,0:0:0:0:
448,192,83627,1,0,0:0:0:0:
320,192,83715,1,0,0:0:0:0:
224,192,83803,1,0,0:0:0:0:
288,192,83891,1,0,0:0:0:0:
160,192,83979,1,0,0:0:0:0:
64,192,84068,1,0,0:0:0:0:
352,192,84244,1,0,0:0:0:0:
224,192,84332,1,0,0:0:0:0:
64,192,84509,1,0,0:0:0:0:
192,192,84597,1,0,0:0:0:0:
288,192,84685,1,0,0:0:0:0:
64,192,84774,1,0,0:0:0:0:
448,192,84774,1,0,0:0:0:0:
192,192,84862,1,0,0:0:0:0:
320,192,84950,1,0,0:0:0:0:
448,192,85038,1,0,0:0:0:0:
320,192,85127,1,0,0:0:0:0:
224,192,85215,1,0,0:0:0:0:
288,192,85303,1,0,0:0:0:0:
160,192,85391,1,0,0:0:0:0:
352,192,85479,1,0,0:0:0:0:
224,192,85656,1,0,0:0:0:0:
64,192,85744,1,0,0:0:0:0:
160,192,85921,1,0,0:0:0:0:
352,192,86009,1,0,0:0:0:0:
160,192,86097,1,0,0:0:0:0:
64,192,86185,1,0,0:0:0:0:
448,192,86185,1,0,0:0:0:0:
320,192,86274,1,0,0:0:0:0:
160,192,86362,1,0,0:0:0:0:
64,192,86450,1,0,0:0:0:0:
448,192,86538,1,0,0:0:0:0:
224,192,86627,1,0,0:0:0:0:
288,192,86715,1,0,0:0:0:0:
160,192,86803,1,0,0:0:0:0:
448,192,86891,1,0,0:0:0:0:
448,192,87068,1,0,0:0:0:0:
288,192,87156,1,0,0:0:0:0:
192,192,87244,1,0,0:0:0:0:
320,192,87332,1,0,0:0:0:0:
192,192,87421,1,0,0:0:0:0:
288,192,87509,1,0,0:0:0:0:
64,192,87597,1,0,0:0:0:0:
448,192,87597,1,0,0:0:0:0:
192,192,87685,1,0,0:0:0:0:
320,192,87774,1,0,0:0:0:0:
448,192,87862,1,0,0:0:0:0:
320,192,87950,1,0,0:0:0:0:
160,192,88038,1,0,0:0:0:0:
320,192,88127,1,0,0:0:0:0:
64,192,88215,1,0,0:0:0:0:
448,192,88303,1,0,0:0:0:0:
160,192,88479,1,0,0:0:0:0:
320,192,88568,1,0,0:0:0:0:
192,192,88656,1,0,0:0:0:0:
64,192,88744,1,0,0:0:0:0:
192,192,88832,1,0,0:0:0:0:
64,192,88921,1,0,0:0:0:0:
448,192,89009,1,0,0:0:0:0:
64,192,89097,1,0,0:0:0:0:
160,192,89185,1,0,0:0:0:0:
448,192,89274,1,0,0:0:0:0:
352,192,89362,1,0,0:0:0:0:
160,192,89450,1,0,0:0:0:0:
352,192,89538,1,0,0:0:0:0:
64,192,89627,1,0,0:0:0:0:
352,192,89715,1,0,0:0:0:0:
352,192,89891,1,0,0:0:0:0:
224,192,89979,1,0,0:0:0:0:
64,192,90156,1,0,0:0:0:0:
352,192,90244,1,0,0:0:0:0:
160,192,90332,1,0,0:0:0:0:
448,192,90421,1,0,0:0:0:0:
64,192,90509,1,0,0:0:0:0:
160,192,90597,1,0,0:0:0:0:
448,192,90685,1,0,0:0:0:0:
352,192,90774,1,0,0:0:0:0:
160,192,90862,1,0,0:0:0:0:
288,192,90950,1,0,0:0:0:0:
64,192,91038,1,0,0:0:0:0:
352,192,91127,1,0,0:0:0:0:
352,192,91303,1,0,0:0:0:0:
64,192,91391,1,0,0:0:0:0:
160,192,91568,1,0,0:0:0:0:
352,192,91656,1,0,0:0:0:0:
64,192,91744,1,0,0:0:0:0:
160,192,91832,1,0,0:0:0:0:
288,192,91921,1,0,0:0:0:0:
160,192,92009,1,0,0:0:0:0:
288,192,92097,1,0,0:0:0:0:
160,192,92185,1,0,0:0:0:0:
288,192,92274,1,0,0:0:0:0:
160,192,92362,1,0,0:0:0:0:
288,192,92450,1,0,0:0:0:0:
160,192,92538,1,0,0:0:0:0:
288,192,92627,1,0,0:0:0:0:
160,192,92715,1,0,0:0:0:0:
288,192,92803,1,0,0:0:0:0:
160,192,92891,1,0,0:0:0:0:
160,192,93068,1,0,0:0:0:0:
32,192,93244,1,0,0:0:0:0:
32,192,93597,1,0,0:0:0:0:
32,192,93950,1,0,0:0:0:0:
32,192,94303,1,0,0:0:0:0:
64,192,94656,1,0,0:0:0:0:
448,192,94656,1,0,0:0:0:0:
160,192,94744,1,0,0:0:0:0:
64,192,94832,1,0,0:0:0:0:
288,192,94921,1,0,0:0:0:0:
448,192,95009,1,0,0:0:0:0:
224,192,95097,1,0,0:0:0:0:
352,192,95185,1,0,0:0:0:0:
192,192,95274,1,0,0:0:0:0:
64,192,95362,1,0,0:0:0:0:
448,192,95362,1,0,0:0:0:0:
352,192,95538,1,0,0:0:0:0:
224,192,95627,1,0,0:0:0:0:
64,192,95715,1,0,0:0:0:0:
224,192,95803,1,0,0:0:0:0:
352,192,95891,1,0,0:0:0:0:
160,192,95979,1,0,0:0:0:0:
64,192,96068,1,0,0:0:0:0:
160,192,96156,1,0,0:0:0:0:
448,192,96244,1,0,0:0:0:0:
320,192,96332,1,0,0:0:0:0:
469,192,96421,1,0,0:0:0:0:
224,192,96509,1,0,0:0:0:0:
288,192,96597,1,0,0:0:0:0:
448,192,96685,1,0,0:0:0:0:
192,192,96774,1,0,0:0:0:0:
320,192,96862,1,0,0:0:0:0:
224,192,96950,1,0,0:0:0:0:
42,192,97038,1,0,0:0:0:0:
128,192,97127,1,0,0:0:0:0:
448,192,97127,1,0,0:0:0:0:
320,192,97215,1,0,0:0:0:0:
384,192,97303,1,0,0:0:0:0:
160,192,97391,1,0,0:0:0:0:
64,192,97479,1,0,0:0:0:0:
448,192,97479,1,0,0:0:0:0:
192,192,97568,1,0,0:0:0:0:
320,192,97656,1,0,0:0:0:0:
448,192,97744,1,0,0:0:0:0:
96,192,97832,1,0,0:0:0:0:
320,192,97832,1,0,0:0:0:0:
224,192,97921,1,0,0:0:0:0:
288,192,98009,1,0,0:0:0:0:
42,192,98097,1,0,0:0:0:0:
213,192,98185,1,0,0:0:0:0:
469,192,98185,1,0,0:0:0:0:
352,192,98362,1,0,0:0:0:0:
42,192,98450,1,0,0:0:0:0:
213,192,98538,1,0,0:0:0:0:
298,192,98627,1,0,0:0:0:0:
469,192,98715,1,0,0:0:0:0:
224,192,98803,1,0,0:0:0:0:
64,192,98891,1,0,0:0:0:0:
213,192,98979,1,0,0:0:0:0:
320,192,99068,1,0,0:0:0:0:
469,192,99156,1,0,0:0:0:0:
96,192,99244,1,0,0:0:0:0:
352,192,99244,1,0,0:0:0:0:
448,192,99332,1,0,0:0:0:0:
320,192,99421,1,0,0:0:0:0:
192,192,99509,1,0,0:0:0:0:
64,192,99597,1,0,0:0:0:0:
64,192,99715,1,0,0:0:0:0:
64,192,99832,1,0,0:0:0:0:
96,192,99950,1,0,0:0:0:0:
320,192,100038,1,0,0:0:0:0:
448,192,100127,1,0,0:0:0:0:
320,192,100215,1,0,0:0:0:0:
64,192,100303,1,0,0:0:0:0:
224,192,100303,1,0,0:0:0:0:
320,192,100538,1,0,0:0:0:0:
192,192,100656,1,0,0:0:0:0:
448,192,100656,1,0,0:0:0:0:
192,192,100891,1,0,0:0:0:0:
64,192,101009,1,0,0:0:0:0:
352,192,101009,1,0,0:0:0:0:
320,192,101244,1,0,0:0:0:0:
192,192,101362,1,0,0:0:0:0:
448,192,101362,1,0,0:0:0:0:
192,192,101597,1,0,0:0:0:0:
64,192,101715,1,0,0:0:0:0:
352,192,101715,1,0,0:0:0:0:
192,192,101950,1,0,0:0:0:0:
352,192,102068,1,0,0:0:0:0:
64,192,102068,1,0,0:0:0:0:
192,192,102303,1,0,0:0:0:0:
64,192,102421,1,0,0:0:0:0:
469,192,102421,1,0,0:0:0:0:
64,192,102538,1,0,0:0:0:0:
64,192,102656,1,0,0:0:0:0:
448,192,102774,1,0,0:0:0:0:
192,192,102774,1,0,0:0:0:0:
64,192,103127,1,0,0:0:0:0:
448,192,103127,1,0,0:0:0:0:
64,192,103362,1,0,0:0:0:0:
64,192,103479,1,0,0:0:0:0:
448,192,103479,1,0,0:0:0:0:
320,192,103479,1,0,0:0:0:0:
64,192,103715,1,0,0:0:0:0:
64,192,103832,1,0,0:0:0:0:
448,192,103832,1,0,0:0:0:0:
192,192,103832,1,0,0:0:0:0:
64,192,104068,1,0,0:0:0:0:
64,192,104185,1,0,0:0:0:0:
448,192,104185,1,0,0:0:0:0:
320,192,104185,1,0,0:0:0:0:
192,192,104538,1,0,0:0:0:0:
192,192,104656,1,0,0:0:0:0:
192,192,104774,1,0,0:0:0:0:
320,192,104891,1,0,0:0:0:0:
320,192,105009,1,0,0:0:0:0:
320,192,105127,1,0,0:0:0:0:
224,192,105244,1,0,0:0:0:0:
192,192,105362,1,0,0:0:0:0:
192,192,105479,1,0,0:0:0:0:
448,192,105597,128,0,105950:0:0:0:0:
64,192,105950,1,0,0:0:0:0:
64,192,106303,1,0,0:0:0:0:
192,192,106656,1,0,0:0:0:0:
448,192,106656,1,0,0:0:0:0:
448,192,106744,1,0,0:0:0:0:
192,192,106832,1,0,0:0:0:0:
448,192,106921,1,0,0:0:0:0:
64,192,107009,1,0,0:0:0:0:
192,192,107009,1,0,0:0:0:0:
64,192,107362,1,0,0:0:0:0:
192,192,107450,1,0,0:0:0:0:
64,192,107538,1,0,0:0:0:0:
64,192,107715,1,0,0:0:0:0:
320,192,107715,1,0,0:0:0:0:
448,192,107803,1,0,0:0:0:0:
320,192,107891,1,0,0:0:0:0:
64,192,108068,1,0,0:0:0:0:
64,192,108421,1,0,0:0:0:0:
448,192,108421,1,0,0:0:0:0:
448,192,108597,1,0,0:0:0:0:
448,192,108685,1,0,0:0:0:0:
64,192,108774,1,0,0:0:0:0:
64,192,109127,1,0,0:0:0:0:
192,192,109127,1,0,0:0:0:0:
192,192,109479,1,0,0:0:0:0:
448,192,109479,1,0,0:0:0:0:
192,192,109656,1,0,0:0:0:0:
448,192,109744,1,0,0:0:0:0:
64,192,109832,1,0,0:0:0:0:
192,192,109832,1,0,0:0:0:0:
192,192,110185,1,0,0:0:0:0:
448,192,110274,1,0,0:0:0:0:
448,192,110450,1,0,0:0:0:0:
192,192,110538,1,0,0:0:0:0:
448,192,110538,1,0,0:0:0:0:
448,192,110715,1,0,0:0:0:0:
192,192,110891,1,0,0:0:0:0:
448,192,110891,1,0,0:0:0:0:
320,192,110979,1,0,0:0:0:0:
64,192,111244,1,0,0:0:0:0:
192,192,111244,1,0,0:0:0:0:
192,192,111597,1,0,0:0:0:0:
64,192,111685,1,0,0:0:0:0:
64,192,111950,1,0,0:0:0:0:
192,192,111950,1,0,0:0:0:0:
448,192,112303,1,0,0:0:0:0:
192,192,112303,1,0,0:0:0:0:
448,192,112391,1,0,0:0:0:0:
192,192,112479,1,0,0:0:0:0:
448,192,112568,1,0,0:0:0:0:
64,192,112656,1,0,0:0:0:0:
192,192,112656,1,0,0:0:0:0:
64,192,113009,1,0,0:0:0:0:
192,192,113097,1,0,0:0:0:0:
64,192,113185,1,0,0:0:0:0:
192,192,113362,1,0,0:0:0:0:
320,192,113362,1,0,0:0:0:0:
448,192,113450,1,0,0:0:0:0:
320,192,113538,1,0,0:0:0:0:
64,192,113715,1,0,0:0:0:0:
448,192,114068,1,0,0:0:0:0:
64,192,114068,1,0,0:0:0:0:
448,192,114244,1,0,0:0:0:0:
448,192,114332,1,0,0:0:0:0:
64,192,114421,1,0,0:0:0:0:
64,192,114774,1,0,0:0:0:0:
64,192,115127,1,0,0:0:0:0:
320,192,115127,1,0,0:0:0:0:
192,192,115303,1,0,0:0:0:0:
320,192,115391,1,0,0:0:0:0:
64,192,115479,128,0,115832:0:0:0:0:
192,192,115832,1,0,0:0:0:0:
320,192,115921,1,0,0:0:0:0:
320,192,116097,1,0,0:0:0:0:
64,192,116185,1,0,0:0:0:0:
320,192,116362,1,0,0:0:0:0:
448,192,116538,128,0,116891:0:0:0:0:
64,192,116891,1,0,0:0:0:0:
64,192,117244,1,0,0:0:0:0:
192,192,117332,1,0,0:0:0:0:
448,192,117421,1,0,0:0:0:0:
320,192,117421,1,0,0:0:0:0:
64,192,117597,1,0,0:0:0:0:
192,192,117597,1,0,0:0:0:0:
448,192,117774,1,0,0:0:0:0:
64,192,117950,1,0,0:0:0:0:
192,192,117950,1,0,0:0:0:0:
320,192,118038,1,0,0:0:0:0:
192,192,118127,1,0,0:0:0:0:
320,192,118215,1,0,0:0:0:0:
448,192,118303,1,0,0:0:0:0:
192,192,118303,1,0,0:0:0:0:
192,192,118656,128,0,119009:0:0:0:0:
448,192,118656,1,0,0:0:0:0:
448,192,119009,1,0,0:0:0:0:
320,192,119362,128,0,119715:0:0:0:0:
448,192,119362,1,0,0:0:0:0:
64,192,119715,128,0,120068:0:0:0:0:
192,192,119715,1,0,0:0:0:0:
448,192,120068,1,0,0:0:0:0:
96,192,120421,1,0,0:0:0:0:
192,192,120421,1,0,0:0:0:0:
64,192,120774,1,0,0:0:0:0:
192,192,120950,1,0,0:0:0:0:
448,192,120950,1,0,0:0:0:0:
320,192,121038,1,0,0:0:0:0:
64,192,121127,1,0,0:0:0:0:
192,192,121127,1,0,0:0:0:0:
448,192,121303,1,0,0:0:0:0:
192,192,121479,1,0,0:0:0:0:
320,192,121568,1,0,0:0:0:0:
448,192,121656,1,0,0:0:0:0:
320,192,121744,1,0,0:0:0:0:
64,192,121832,1,0,0:0:0:0:
320,192,122009,1,0,0:0:0:0:
448,192,122009,1,0,0:0:0:0:
192,192,122185,128,0,122538:0:0:0:0:
64,192,122538,128,0,122891:0:0:0:0:
448,192,122538,1,0,0:0:0:0:
448,192,122715,1,0,0:0:0:0:
192,192,122891,1,0,0:0:0:0:
448,192,122891,1,0,0:0:0:0:
320,192,122979,1,0,0:0:0:0:
448,192,123068,1,0,0:0:0:0:
96,192,123244,1,0,0:0:0:0:
469,192,123421,1,0,0:0:0:0:
64,192,123597,1,0,0:0:0:0:
320,192,123685,1,0,0:0:0:0:
192,192,123774,1,0,0:0:0:0:
448,192,123774,1,0,0:0:0:0:
320,192,123862,1,0,0:0:0:0:
96,192,123950,1,0,0:0:0:0:
448,192,124303,1,0,0:0:0:0:
64,192,124303,128,0,124656:0:0:0:0:
448,192,124656,1,0,0:0:0:0:
192,192,125009,128,0,125362:0:0:0:0:
448,192,125009,1,0,0:0:0:0:
64,192,125362,128,0,125715:0:0:0:0:
448,192,125362,1,0,0:0:0:0:
320,192,125715,1,0,0:0:0:0:
448,192,125891,1,0,0:0:0:0:
192,192,126068,1,0,0:0:0:0:
64,192,126068,1,0,0:0:0:0:
469,192,126244,1,0,0:0:0:0:
96,192,126421,1,0,0:0:0:0:
192,192,126597,1,0,0:0:0:0:
448,192,126597,1,0,0:0:0:0:
320,192,126685,1,0,0:0:0:0:
64,192,126774,1,0,0:0:0:0:
448,192,126774,1,0,0:0:0:0:
448,192,126950,1,0,0:0:0:0:
192,192,127127,1,0,0:0:0:0:
320,192,127215,1,0,0:0:0:0:
192,192,127303,1,0,0:0:0:0:
192,192,127479,1,0,0:0:0:0:
448,192,127656,1,0,0:0:0:0:
448,192,127832,128,0,128185:0:0:0:0:
192,192,128185,1,0,0:0:0:0:
64,192,128185,128,0,128538:0:0:0:0:
128,192,128538,1,0,0:0:0:0:
64,192,128891,1,0,0:0:0:0:
192,192,129068,1,0,0:0:0:0:
192,192,129244,1,0,0:0:0:0:
448,192,129332,1,0,0:0:0:0:
192,192,129421,1,0,0:0:0:0:
448,192,129509,1,0,0:0:0:0:
64,192,129597,1,0,0:0:0:0:
192,192,129597,1,0,0:0:0:0:
64,192,129950,128,0,130303:0:0:0:0:
448,192,130127,1,0,0:0:0:0:
192,192,130303,1,0,0:0:0:0:
448,192,130303,1,0,0:0:0:0:
320,192,130391,1,0,0:0:0:0:
64,192,130479,1,0,0:0:0:0:
448,192,130656,1,0,0:0:0:0:
192,192,130656,128,0,131009:0:0:0:0:
448,192,130891,1,0,0:0:0:0:
64,192,131009,128,0,131362:0:0:0:0:
448,192,131127,1,0,0:0:0:0:
320,192,131362,1,0,0:0:0:0:
320,192,131538,1,0,0:0:0:0:
64,192,131715,1,0,0:0:0:0:
192,192,131715,1,0,0:0:0:0:
192,192,131891,1,0,0:0:0:0:
192,192,132068,1,0,0:0:0:0:
320,192,132068,1,0,0:0:0:0:
469,192,132244,1,0,0:0:0:0:
320,192,132332,1,0,0:0:0:0:
64,192,132421,1,0,0:0:0:0:
469,192,132421,1,0,0:0:0:0:
192,192,132597,1,0,0:0:0:0:
32,192,132774,1,0,0:0:0:0:
320,192,132950,1,0,0:0:0:0:
469,192,133038,1,0,0:0:0:0:
64,192,133127,1,0,0:0:0:0:
320,192,133127,1,0,0:0:0:0:
320,192,133303,1,0,0:0:0:0:
64,192,133479,1,0,0:0:0:0:
320,192,133479,1,0,0:0:0:0:
64,192,133744,1,0,0:0:0:0:
192,192,133744,1,0,0:0:0:0:
192,192,134009,1,0,0:0:0:0:
64,192,134009,1,0,0:0:0:0:
64,192,134185,1,0,0:0:0:0:
320,192,134185,1,0,0:0:0:0:
469,192,134185,1,0,0:0:0:0:
64,192,134538,1,0,0:0:0:0:
448,192,134538,1,0,0:0:0:0:
320,192,134715,1,0,0:0:0:0:
192,192,134891,1,0,0:0:0:0:
192,192,134979,1,0,0:0:0:0:
64,192,135068,1,0,0:0:0:0:
192,192,135156,1,0,0:0:0:0:
64,192,135244,1,0,0:0:0:0:
469,192,135244,1,0,0:0:0:0:
64,192,135597,1,0,0:0:0:0:
320,192,135685,1,0,0:0:0:0:
192,192,135774,1,0,0:0:0:0:
469,192,135950,1,0,0:0:0:0:
320,192,135950,1,0,0:0:0:0:
320,192,136127,1,0,0:0:0:0:
192,192,136127,1,0,0:0:0:0:
192,192,136303,1,0,0:0:0:0:
64,192,136303,1,0,0:0:0:0:
64,192,136538,1,0,0:0:0:0:
320,192,136538,1,0,0:0:0:0:
64,192,136774,1,0,0:0:0:0:
448,192,136774,1,0,0:0:0:0:
64,192,137185,1,0,0:0:0:0:
64,192,137362,1,0,0:0:0:0:
469,192,137362,1,0,0:0:0:0:
64,192,137538,1,0,0:0:0:0:
469,192,137715,1,0,0:0:0:0:
320,192,137803,1,0,0:0:0:0:
469,192,137891,1,0,0:0:0:0:
64,192,138068,1,0,0:0:0:0:
224,192,138156,1,0,0:0:0:0:
96,192,138244,1,0,0:0:0:0:
32,192,138421,1,0,0:0:0:0:
448,192,138421,1,0,0:0:0:0:
192,192,138509,1,0,0:0:0:0:
320,192,138597,1,0,0:0:0:0:
192,192,138685,1,0,0:0:0:0:
32,192,138774,1,0,0:0:0:0:
320,192,138774,1,0,0:0:0:0:
448,192,138862,1,0,0:0:0:0:
320,192,138950,1,0,0:0:0:0:
192,192,139038,1,0,0:0:0:0:
32,192,139127,1,0,0:0:0:0:
352,192,139127,1,0,0:0:0:0:
288,192,139391,1,0,0:0:0:0:
64,192,139479,1,0,0:0:0:0:
64,192,139656,1,0,0:0:0:0:
192,192,139832,128,0,140185:0:0:0:0:
320,192,139832,128,0,140185:0:0:0:0:
64,192,140185,1,0,0:0:0:0:
448,192,140185,1,0,0:0:0:0:
