osu file format v14

[General]
AudioFilename: ApolloN.mp3
AudioLeadIn: 0
PreviewTime: 23098
Countdown: 0
SampleSet: Normal
StackLeniency: 0.7
Mode: 3
LetterboxInBreaks: 0
SpecialStyle: 0
WidescreenStoryboard: 0

[Editor]
DistanceSpacing: 1.2
BeatDivisor: 16
GridSize: 4
TimelineZoom: 3.199999

[Metadata]
Title:ApolloN
TitleUnicode:ApolloN
Artist:sun3
ArtistUnicode:sun3
Creator:bbu2
Version:7K Extreme
Source:3S:Sabin Sound Star
Tags:EZ2DJ:BE lein-
BeatmapID:654831
BeatmapSetID:290702

[Difficulty]
HPDrainRate:8.5
CircleSize:7
OverallDifficulty:8.5
ApproachRate:5
SliderMultiplier:1.4
SliderTickRate:1

[Events]
//Background and Video events
0,0,"EX.jpg",0,0
Video,-16,"bga.flv"
//Break Periods
//Storyboard Layer 0 (Background)
//Storyboard Layer 1 (Fail)
//Storyboard Layer 2 (Pass)
//Storyboard Layer 3 (Foreground)
//Storyboard Sound Samples

[TimingPoints]
1765,333.333333333333,4,1,1,70,1,0
23098,-100,4,1,1,70,0,1
44431,-100,4,1,1,70,0,0
60431,-100,4,1,1,70,0,1
65764,-100,4,1,1,70,0,0
84431,-100,4,1,1,70,0,1
111098,-100,4,1,1,70,0,0

[HitObjects]
36,192,1764,5,0,0:0:0:30:bd.wav
402,192,1764,1,0,0:0:0:30:mloop_000.wav
256,192,1764,1,0,0:0:0:20:cym-01.wav
182,192,1931,1,0,0:0:0:10:bass-01.wav
36,192,2098,1,0,0:0:0:30:bd.wav
475,192,2098,1,0,0:0:0:18:clap.wav
329,192,2098,1,0,0:0:0:30:mloop_001.wav
182,192,2264,1,0,0:0:0:10:bass-01.wav
36,192,2431,1,0,0:0:0:30:bd.wav
182,192,2598,1,0,0:0:0:10:bass-01.wav
329,192,2598,128,0,2931:0:0:0:30:mloop_002.wav
36,192,2764,1,0,0:0:0:30:bd.wav
475,192,2764,1,0,0:0:0:18:clap.wav
182,192,2931,1,0,0:0:0:10:bass-01.wav
36,192,3098,1,0,0:0:0:30:bd.wav
256,192,3098,1,0,0:0:0:30:mloop_003.wav
182,192,3264,1,0,0:0:0:10:bass-01.wav
36,192,3431,1,0,0:0:0:30:bd.wav
475,192,3431,1,0,0:0:0:18:clap.wav
329,192,3431,1,0,0:0:0:30:mloop_004.wav
182,192,3598,1,0,0:0:0:10:bass-01.wav
36,192,3764,1,0,0:0:0:30:bd.wav
182,192,3931,1,0,0:0:0:10:bass-01.wav
329,192,3931,128,0,4264:0:0:0:30:mloop_005.wav
36,192,4098,1,0,0:0:0:30:bd.wav
475,192,4098,1,0,0:0:0:18:clap.wav
182,192,4264,1,0,0:0:0:10:bass-01.wav
36,192,4431,1,0,0:0:0:30:bd.wav
256,192,4431,1,0,0:0:0:30:mloop_006.wav
182,192,4598,1,0,0:0:0:10:bass-01.wav
36,192,4764,1,0,0:0:0:30:bd.wav
475,192,4764,1,0,0:0:0:18:clap.wav
329,192,4764,1,0,0:0:0:30:mloop_007.wav
182,192,4931,1,0,0:0:0:10:bass-01.wav
36,192,5098,1,0,0:0:0:30:bd.wav
182,192,5264,1,0,0:0:0:10:bass-01.wav
329,192,5264,128,0,5598:0:0:0:30:mloop_005.wav
36,192,5431,1,0,0:0:0:30:bd.wav
475,192,5431,1,0,0:0:0:18:clap.wav
182,192,5598,1,0,0:0:0:10:bass-01.wav
36,192,5764,1,0,0:0:0:30:bd.wav
256,192,5764,1,0,0:0:0:30:mloop_009.wav
182,192,5931,1,0,0:0:0:10:bass-01.wav
36,192,6098,1,0,0:0:0:30:bd.wav
475,192,6098,1,0,0:0:0:18:clap.wav
329,192,6098,1,0,0:0:0:30:mloop_010.wav
182,192,6264,1,0,0:0:0:10:bass-01.wav
36,192,6431,1,0,0:0:0:30:bd.wav
182,192,6598,1,0,0:0:0:10:bass-01.wav
329,192,6598,128,0,6931:0:0:0:30:mloop_011.wav
36,192,6764,1,0,0:0:0:30:bd.wav
475,192,6764,1,0,0:0:0:18:clap.wav
182,192,6931,1,0,0:0:0:10:bass-01.wav
36,192,7098,1,0,0:0:0:30:bd.wav
256,192,7098,1,0,0:0:0:30:mloop_000.wav
109,192,7264,1,0,0:0:0:10:bass-01.wav
36,192,7431,1,0,0:0:0:30:bd.wav
256,192,7431,1,0,0:0:0:30:mloop_001.wav
402,192,7431,1,0,0:0:0:18:clap.wav
109,192,7598,1,0,0:0:0:10:bass-01.wav
36,192,7764,1,0,0:0:0:30:bd.wav
109,192,7931,1,0,0:0:0:10:bass-01.wav
329,192,7931,128,0,8264:0:0:0:30:mloop_002.wav
36,192,8098,1,0,0:0:0:30:bd.wav
402,192,8098,1,0,0:0:0:18:clap.wav
109,192,8264,1,0,0:0:0:10:bass-01.wav
36,192,8431,1,0,0:0:0:30:bd.wav
256,192,8431,1,0,0:0:0:30:mloop_003.wav
109,192,8598,1,0,0:0:0:10:bass-01.wav
36,192,8764,1,0,0:0:0:30:bd.wav
402,192,8764,1,0,0:0:0:18:clap.wav
256,192,8764,1,0,0:0:0:30:mloop_004.wav
109,192,8931,1,0,0:0:0:10:bass-01.wav
36,192,9098,1,0,0:0:0:30:bd.wav
109,192,9264,1,0,0:0:0:10:bass-01.wav
329,192,9264,128,0,9598:0:0:0:30:mloop_005.wav
36,192,9431,1,0,0:0:0:30:bd.wav
402,192,9431,1,0,0:0:0:18:clap.wav
109,192,9598,1,0,0:0:0:10:bass-01.wav
36,192,9764,1,0,0:0:0:30:bd.wav
256,192,9764,1,0,0:0:0:30:mloop_006.wav
109,192,9931,1,0,0:0:0:10:bass-01.wav
36,192,10098,1,0,0:0:0:30:bd.wav
402,192,10098,1,0,0:0:0:18:clap.wav
256,192,10098,1,0,0:0:0:30:mloop_007.wav
109,192,10264,1,0,0:0:0:10:bass-01.wav
36,192,10431,1,0,0:0:0:30:bd.wav
109,192,10598,1,0,0:0:0:10:bass-01.wav
329,192,10598,128,0,10931:0:0:0:30:mloop_005.wav
36,192,10764,1,0,0:0:0:30:bd.wav
402,192,10764,1,0,0:0:0:18:clap.wav
109,192,10931,1,0,0:0:0:10:bass-01.wav
36,192,11098,1,0,0:0:0:30:bd.wav
256,192,11098,1,0,0:0:0:30:mloop_009.wav
109,192,11264,1,0,0:0:0:10:bass-01.wav
36,192,11431,1,0,0:0:0:30:bd.wav
402,192,11431,1,0,0:0:0:18:clap.wav
256,192,11431,1,0,0:0:0:30:mloop_010.wav
109,192,11598,1,0,0:0:0:10:bass-01.wav
36,192,11764,1,0,0:0:0:30:bd.wav
109,192,11931,1,0,0:0:0:10:bass-01.wav
329,192,11931,128,0,12264:0:0:0:30:mloop_011.wav
36,192,12098,1,0,0:0:0:30:bd.wav
182,192,12098,1,0,0:0:0:18:clap.wav
36,192,12264,1,0,0:0:0:30:bd.wav
182,192,12264,1,0,0:0:0:10:bass-01.wav
36,192,12431,1,0,0:0:0:30:bd.wav
256,192,12431,1,0,0:0:0:30:mloop_000.wav
402,192,12431,1,0,0:0:0:20:cym-01.wav
182,192,12598,1,0,0:0:0:10:bass-01.wav
36,192,12764,1,0,0:0:0:30:bd.wav
475,192,12764,1,0,0:0:0:18:clap.wav
329,192,12764,1,0,0:0:0:30:mloop_001.wav
182,192,12931,1,0,0:0:0:10:bass-01.wav
36,192,13098,1,0,0:0:0:30:bd.wav
182,192,13264,1,0,0:0:0:10:bass-01.wav
329,192,13264,128,0,13598:0:0:0:30:mloop_002.wav
36,192,13431,1,0,0:0:0:30:bd.wav
475,192,13431,1,0,0:0:0:18:clap.wav
182,192,13598,1,0,0:0:0:10:bass-01.wav
36,192,13764,1,0,0:0:0:30:bd.wav
256,192,13764,1,0,0:0:0:30:mloop_003.wav
182,192,13931,1,0,0:0:0:10:bass-01.wav
36,192,14098,1,0,0:0:0:30:bd.wav
475,192,14098,1,0,0:0:0:18:clap.wav
329,192,14098,1,0,0:0:0:30:mloop_004.wav
182,192,14264,1,0,0:0:0:10:bass-01.wav
36,192,14431,1,0,0:0:0:30:bd.wav
182,192,14598,1,0,0:0:0:10:bass-01.wav
329,192,14598,128,0,14931:0:0:0:30:mloop_005.wav
36,192,14764,1,0,0:0:0:30:bd.wav
475,192,14764,1,0,0:0:0:18:clap.wav
182,192,14931,1,0,0:0:0:10:bass-01.wav
36,192,15098,1,0,0:0:0:30:bd.wav
256,192,15098,1,0,0:0:0:30:mloop_006.wav
182,192,15264,1,0,0:0:0:10:bass-01.wav
36,192,15431,1,0,0:0:0:30:bd.wav
475,192,15431,1,0,0:0:0:18:clap.wav
329,192,15431,1,0,0:0:0:30:mloop_007.wav
182,192,15598,1,0,0:0:0:10:bass-01.wav
36,192,15764,1,0,0:0:0:30:bd.wav
182,192,15931,1,0,0:0:0:10:bass-01.wav
329,192,15931,128,0,16264:0:0:0:30:mloop_005.wav
36,192,16098,1,0,0:0:0:30:bd.wav
475,192,16098,1,0,0:0:0:18:clap.wav
182,192,16264,1,0,0:0:0:10:bass-01.wav
36,192,16431,1,0,0:0:0:30:bd.wav
256,192,16431,1,0,0:0:0:30:mloop_009.wav
182,192,16598,1,0,0:0:0:10:bass-01.wav
36,192,16764,1,0,0:0:0:30:bd.wav
475,192,16764,1,0,0:0:0:18:clap.wav
329,192,16764,1,0,0:0:0:30:mloop_010.wav
182,192,16931,1,0,0:0:0:10:bass-01.wav
36,192,17098,1,0,0:0:0:30:bd.wav
182,192,17264,1,0,0:0:0:10:bass-01.wav
329,192,17264,128,0,17598:0:0:0:30:mloop_011.wav
36,192,17431,1,0,0:0:0:30:bd.wav
475,192,17431,1,0,0:0:0:18:clap.wav
36,192,17598,1,0,0:0:0:30:bd.wav
182,192,17598,1,0,0:0:0:10:bass-01.wav
329,192,17764,1,0,0:0:0:15:sn.wav
36,192,17764,1,0,0:0:0:30:bd2.wav
109,192,17764,1,0,0:0:0:50:muon.wav
182,192,17931,1,0,0:0:0:15:sn.wav
36,192,17931,1,0,0:0:0:30:bd2.wav
329,192,18098,1,0,0:0:0:15:sn.wav
36,192,18098,1,0,0:0:0:30:bd2.wav
475,192,18098,1,0,0:0:0:20:clap.wav
182,192,18264,1,0,0:0:0:15:sn.wav
36,192,18264,1,0,0:0:0:30:bd2.wav
402,192,18431,1,0,0:0:0:15:sn.wav
109,192,18431,1,0,0:0:0:30:bd2.wav
256,192,18598,1,0,0:0:0:15:sn.wav
109,192,18598,1,0,0:0:0:30:bd2.wav
402,192,18764,1,0,0:0:0:15:sn.wav
109,192,18764,1,0,0:0:0:30:bd2.wav
475,192,18764,1,0,0:0:0:20:clap.wav
256,192,18931,1,0,0:0:0:15:sn.wav
109,192,18931,1,0,0:0:0:30:bd2.wav
182,192,19098,1,0,0:0:0:15:sn.wav
475,192,19098,1,0,0:0:0:30:bd2.wav
329,192,19264,1,0,0:0:0:15:sn.wav
475,192,19264,1,0,0:0:0:30:bd2.wav
182,192,19431,1,0,0:0:0:15:sn.wav
475,192,19431,1,0,0:0:0:30:bd2.wav
36,192,19431,1,0,0:0:0:20:clap.wav
329,192,19598,1,0,0:0:0:15:sn.wav
475,192,19598,1,0,0:0:0:30:bd2.wav
109,192,19764,1,0,0:0:0:15:sn.wav
402,192,19764,1,0,0:0:0:30:bd2.wav
256,192,19931,1,0,0:0:0:15:sn.wav
402,192,19931,1,0,0:0:0:30:bd2.wav
109,192,20098,1,0,0:0:0:15:sn.wav
402,192,20098,1,0,0:0:0:30:bd2.wav
329,192,20431,1,0,0:0:0:15:sn.wav
475,192,20431,1,0,0:0:0:30:bd2.wav
36,192,20514,1,0,0:0:0:15:sn.wav
182,192,20514,1,0,0:0:0:30:bd2.wav
329,192,20598,1,0,0:0:0:15:sn.wav
475,192,20598,1,0,0:0:0:30:bd2.wav
36,192,20681,1,0,0:0:0:15:sn.wav
182,192,20681,1,0,0:0:0:30:bd2.wav
256,192,20764,1,0,0:0:0:15:sn.wav
402,192,20764,1,0,0:0:0:30:bd2.wav
329,192,20848,1,0,0:0:0:15:sn.wav
182,192,20848,1,0,0:0:0:30:bd2.wav
256,192,20931,1,0,0:0:0:15:sn.wav
109,192,20931,1,0,0:0:0:30:bd2.wav
182,192,21014,1,0,0:0:0:15:sn.wav
36,192,21014,1,0,0:0:0:30:bd2.wav
475,192,21098,1,0,0:0:0:15:sn.wav
329,192,21098,1,0,0:0:0:30:bd2.wav
36,192,21181,1,0,0:0:0:15:sn.wav
182,192,21181,1,0,0:0:0:30:bd2.wav
475,192,21264,1,0,0:0:0:15:sn.wav
329,192,21264,1,0,0:0:0:30:bd2.wav
256,192,21348,1,0,0:0:0:15:sn.wav
109,192,21348,1,0,0:0:0:30:bd2.wav
329,192,21431,1,0,0:0:0:15:sn.wav
182,192,21431,1,0,0:0:0:30:bd2.wav
256,192,21514,1,0,0:0:0:15:sn.wav
402,192,21514,1,0,0:0:0:30:bd2.wav
475,192,21598,1,0,0:0:0:15:sn.wav
329,192,21598,1,0,0:0:0:30:bd2.wav
182,192,21681,1,0,0:0:0:15:sn.wav
36,192,21681,1,0,0:0:0:30:bd2.wav
402,192,21764,1,0,0:0:0:30:bd2.wav
329,192,21806,1,0,0:0:0:30:bd2.wav
256,192,21848,1,0,0:0:0:30:bd2.wav
182,192,21889,1,0,0:0:0:30:bd2.wav
109,192,21931,1,0,0:0:0:30:sn.wav
475,192,22014,1,0,0:0:0:30:bd2.wav
329,192,22014,1,0,0:0:0:30:sn.wav
256,192,22098,1,0,0:0:0:30:bd2.wav
109,192,22098,1,0,0:0:0:30:sn.wav
182,192,22181,1,0,0:0:0:30:bd2.wav
329,192,22181,1,0,0:0:0:30:sn.wav
256,192,22264,1,0,0:0:0:30:bd2.wav
402,192,22264,1,0,0:0:0:30:sn.wav
36,192,22348,1,0,0:0:0:30:bd2.wav
182,192,22348,1,0,0:0:0:30:sn.wav
402,192,22431,1,0,0:0:0:30:bd2.wav
256,192,22431,1,0,0:0:0:30:sn.wav
182,192,22514,1,0,0:0:0:30:bd2.wav
329,192,22514,1,0,0:0:0:30:sn.wav
256,192,22598,1,0,0:0:0:30:bd2.wav
109,192,22598,1,0,0:0:0:30:sn.wav
475,192,22681,1,0,0:0:0:30:bd2.wav
329,192,22681,1,0,0:0:0:30:sn.wav
182,192,22764,1,0,0:0:0:30:bd2.wav
36,192,22764,1,0,0:0:0:30:sn.wav
256,192,22848,1,0,0:0:0:30:sn.wav
109,192,22931,1,0,0:0:0:30:sn.wav
182,192,23014,1,0,0:0:0:30:sn.wav
475,192,23098,1,0,0:0:0:50:vo-05.wav
329,192,23098,1,0,0:0:0:10:soft-hitnormal.wav
36,192,23098,1,0,0:0:0:30:bd.wav
256,192,23181,1,0,0:0:0:10:soft-hitnormal.wav
182,192,23264,1,0,0:0:0:10:soft-hitnormal.wav
109,192,23264,1,0,0:0:0:10:bass-01.wav
475,192,23348,1,0,0:0:0:50:vo-05.wav
329,192,23348,1,0,0:0:0:10:soft-hitnormal.wav
402,192,23431,1,0,0:0:0:10:soft-hitnormal.wav
36,192,23431,1,0,0:0:0:30:bd.wav
256,192,23431,1,0,0:0:0:15:clap.wav
475,192,23598,1,0,0:0:0:50:vo-05.wav
329,192,23598,1,0,0:0:0:10:soft-hitnormal.wav
182,192,23598,1,0,0:0:0:10:bass-01.wav
402,192,23764,1,0,0:0:0:50:vo-07.wav
475,192,23764,1,0,0:0:0:10:soft-hitnormal.wav
36,192,23764,1,0,0:0:0:30:bd.wav
182,192,23848,1,0,0:0:0:10:soft-hitnormal.wav
329,192,23931,1,0,0:0:0:10:soft-hitnormal.wav
109,192,23931,1,0,0:0:0:10:bass-01.wav
256,192,24014,1,0,0:0:0:10:soft-hitnormal.wav
475,192,24098,1,0,0:0:0:50:vo-06.wav
402,192,24098,1,0,0:0:0:10:soft-hitnormal.wav
36,192,24098,1,0,0:0:0:30:bd.wav
182,192,24098,1,0,0:0:0:15:clap.wav
256,192,24264,1,0,0:0:0:10:soft-hitnormal.wav
182,192,24264,1,0,0:0:0:10:bass-01.wav
475,192,24431,1,0,0:0:0:50:vo-05.wav
329,192,24431,1,0,0:0:0:10:soft-hitnormal.wav
36,192,24431,1,0,0:0:0:30:bd.wav
256,192,24514,1,0,0:0:0:10:soft-hitnormal.wav
475,192,24598,1,0,0:0:0:50:vo-05.wav
109,192,24598,1,0,0:0:0:10:soft-hitnormal.wav
329,192,24598,1,0,0:0:0:10:bass-01.wav
182,192,24681,1,0,0:0:0:10:soft-hitnormal.wav
475,192,24764,1,0,0:0:0:50:vo-07.wav
402,192,24764,1,0,0:0:0:10:soft-hitnormal.wav
36,192,24764,1,0,0:0:0:30:bd.wav
256,192,24764,1,0,0:0:0:15:clap.wav
256,192,24931,1,0,0:0:0:10:soft-hitnormal.wav
109,192,24931,1,0,0:0:0:10:bass-01.wav
475,192,25098,1,0,0:0:0:50:vo-05.wav
329,192,25098,1,0,0:0:0:10:soft-hitnormal.wav
36,192,25098,1,0,0:0:0:30:bd.wav
182,192,25181,1,0,0:0:0:10:soft-hitnormal.wav
402,192,25264,1,0,0:0:0:20:vo-12.wav
329,192,25264,1,0,0:0:0:10:soft-hitnormal.wav
109,192,25264,1,0,0:0:0:10:bass-01.wav
182,192,25348,1,0,0:0:0:10:soft-hitnormal.wav
475,192,25431,1,0,0:0:0:20:muon.wav
329,192,25431,1,0,0:0:0:10:soft-hitnormal.wav
36,192,25431,1,0,0:0:0:30:bd.wav
109,192,25431,1,0,0:0:0:15:clap.wav
256,192,25514,1,0,0:0:0:10:soft-hitnormal.wav
402,192,25598,1,0,0:0:0:10:soft-hitnormal.wav
182,192,25598,1,0,0:0:0:10:bass-01.wav
329,192,25681,1,0,0:0:0:10:soft-hitnormal.wav
475,192,25764,1,0,0:0:0:50:vo-05.wav
182,192,25764,1,0,0:0:0:10:soft-hitnormal.wav
36,192,25764,1,0,0:0:0:30:bd.wav
402,192,25848,1,0,0:0:0:10:soft-hitnormal.wav
329,192,25931,1,0,0:0:0:10:soft-hitnormal.wav
109,192,25931,1,0,0:0:0:10:bass-01.wav
475,192,26014,1,0,0:0:0:50:vo-05.wav
182,192,26014,1,0,0:0:0:10:soft-hitnormal.wav
402,192,26098,1,0,0:0:0:10:soft-hitnormal.wav
36,192,26098,1,0,0:0:0:30:bd.wav
256,192,26098,1,0,0:0:0:15:clap.wav
475,192,26264,1,0,0:0:0:50:vo-05.wav
329,192,26264,1,0,0:0:0:10:soft-hitnormal.wav
182,192,26264,1,0,0:0:0:10:bass-01.wav
475,192,26431,1,0,0:0:0:50:vo-07.wav
402,192,26431,1,0,0:0:0:10:soft-hitnormal.wav
36,192,26431,1,0,0:0:0:30:bd.wav
109,192,26514,1,0,0:0:0:10:soft-hitnormal.wav
329,192,26598,1,0,0:0:0:10:soft-hitnormal.wav
256,192,26598,1,0,0:0:0:10:bass-01.wav
182,192,26681,1,0,0:0:0:10:soft-hitnormal.wav
402,192,26764,1,0,0:0:0:50:vo-06.wav
329,192,26764,1,0,0:0:0:10:soft-hitnormal.wav
36,192,26764,1,0,0:0:0:30:bd.wav
109,192,26764,1,0,0:0:0:15:clap.wav
256,192,26931,1,0,0:0:0:10:soft-hitnormal.wav
182,192,26931,1,0,0:0:0:10:bass-01.wav
475,192,27098,1,0,0:0:0:50:vo-05.wav
329,192,27098,1,0,0:0:0:10:soft-hitnormal.wav
36,192,27098,1,0,0:0:0:30:bd.wav
182,192,27181,1,0,0:0:0:10:soft-hitnormal.wav
475,192,27264,1,0,0:0:0:50:vo-05.wav
256,192,27264,1,0,0:0:0:10:soft-hitnormal.wav
109,192,27264,1,0,0:0:0:10:bass-01.wav
329,192,27348,1,0,0:0:0:10:soft-hitnormal.wav
475,192,27431,1,0,0:0:0:50:vo-07.wav
402,192,27431,1,0,0:0:0:10:soft-hitnormal.wav
36,192,27431,1,0,0:0:0:30:bd.wav
182,192,27431,1,0,0:0:0:15:clap.wav
329,192,27598,1,0,0:0:0:10:soft-hitnormal.wav
182,192,27598,1,0,0:0:0:10:bass-01.wav
402,192,27764,1,0,0:0:0:20:vo-15.wav
256,192,27764,1,0,0:0:0:10:soft-hitnormal.wav
36,192,27764,1,0,0:0:0:30:bd.wav
182,192,27848,1,0,0:0:0:10:soft-hitnormal.wav
402,192,27931,1,0,0:0:0:20:vo-14.wav
329,192,27931,1,0,0:0:0:10:soft-hitnormal.wav
109,192,27931,1,0,0:0:0:10:bass-01.wav
256,192,28014,1,0,0:0:0:10:soft-hitnormal.wav
475,192,28098,1,0,0:0:0:20:vo-13.wav
402,192,28098,1,0,0:0:0:10:soft-hitnormal.wav
36,192,28098,1,0,0:0:0:30:bd.wav
109,192,28098,1,0,0:0:0:15:clap.wav
182,192,28181,1,0,0:0:0:10:soft-hitnormal.wav
329,192,28264,1,0,0:0:0:10:soft-hitnormal.wav
109,192,28264,1,0,0:0:0:10:bass-01.wav
256,192,28348,1,0,0:0:0:10:soft-hitnormal.wav
475,192,28431,1,0,0:0:0:50:vo-05.wav
329,192,28431,1,0,0:0:0:10:soft-hitnormal.wav
36,192,28431,1,0,0:0:0:30:bd.wav
182,192,28514,1,0,0:0:0:10:soft-hitnormal.wav
256,192,28598,1,0,0:0:0:10:soft-hitnormal.wav
109,192,28598,1,0,0:0:0:10:bass-01.wav
475,192,28681,1,0,0:0:0:50:vo-05.wav
329,192,28681,1,0,0:0:0:10:soft-hitnormal.wav
402,192,28764,1,0,0:0:0:10:soft-hitnormal.wav
36,192,28764,1,0,0:0:0:30:bd.wav
182,192,28764,1,0,0:0:0:15:clap.wav
475,192,28931,1,0,0:0:0:50:vo-05.wav
329,192,28931,1,0,0:0:0:10:soft-hitnormal.wav
109,192,28931,1,0,0:0:0:10:bass-01.wav
475,192,29098,1,0,0:0:0:50:vo-07.wav
402,192,29098,1,0,0:0:0:10:soft-hitnormal.wav
36,192,29098,1,0,0:0:0:30:bd.wav
182,192,29181,1,0,0:0:0:10:soft-hitnormal.wav
329,192,29264,1,0,0:0:0:10:soft-hitnormal.wav
109,192,29264,1,0,0:0:0:10:bass-01.wav
256,192,29348,1,0,0:0:0:10:soft-hitnormal.wav
475,192,29431,1,0,0:0:0:50:vo-06.wav
182,192,29431,1,0,0:0:0:10:soft-hitnormal.wav
36,192,29431,1,0,0:0:0:30:bd.wav
402,192,29431,1,0,0:0:0:15:clap.wav
256,192,29598,1,0,0:0:0:10:soft-hitnormal.wav
182,192,29598,1,0,0:0:0:10:bass-01.wav
475,192,29764,1,0,0:0:0:50:vo-05.wav
329,192,29764,1,0,0:0:0:10:soft-hitnormal.wav
36,192,29764,1,0,0:0:0:30:bd.wav
256,192,29848,1,0,0:0:0:10:soft-hitnormal.wav
475,192,29931,1,0,0:0:0:50:vo-05.wav
329,192,29931,1,0,0:0:0:10:soft-hitnormal.wav
109,192,29931,1,0,0:0:0:10:bass-01.wav
256,192,30014,1,0,0:0:0:10:soft-hitnormal.wav
475,192,30098,1,0,0:0:0:50:vo-07.wav
402,192,30098,1,0,0:0:0:10:soft-hitnormal.wav
36,192,30098,1,0,0:0:0:30:bd.wav
182,192,30098,1,0,0:0:0:15:clap.wav
109,192,30264,1,0,0:0:0:10:soft-hitnormal.wav
256,192,30264,1,0,0:0:0:10:bass-01.wav
475,192,30431,1,0,0:0:0:50:vo-05.wav
329,192,30431,1,0,0:0:0:10:soft-hitnormal.wav
36,192,30431,1,0,0:0:0:30:bd.wav
182,192,30514,1,0,0:0:0:10:soft-hitnormal.wav
402,192,30598,1,0,0:0:0:20:vo-12.wav
329,192,30598,1,0,0:0:0:10:soft-hitnormal.wav
109,192,30598,1,0,0:0:0:10:bass-01.wav
256,192,30681,1,0,0:0:0:10:soft-hitnormal.wav
475,192,30764,1,0,0:0:0:20:muon.wav
402,192,30764,1,0,0:0:0:10:soft-hitnormal.wav
36,192,30764,1,0,0:0:0:30:bd.wav
109,192,30764,1,0,0:0:0:15:clap.wav
256,192,30848,1,0,0:0:0:10:soft-hitnormal.wav
329,192,30931,1,0,0:0:0:10:soft-hitnormal.wav
109,192,30931,1,0,0:0:0:10:bass-01.wav
182,192,31014,1,0,0:0:0:10:soft-hitnormal.wav
475,192,31098,1,0,0:0:0:50:vo-05.wav
329,192,31098,1,0,0:0:0:10:soft-hitnormal.wav
36,192,31098,1,0,0:0:0:30:bd.wav
256,192,31181,1,0,0:0:0:10:soft-hitnormal.wav
109,192,31264,1,0,0:0:0:10:soft-hitnormal.wav
182,192,31264,1,0,0:0:0:10:bass-01.wav
475,192,31348,1,0,0:0:0:50:vo-05.wav
329,192,31348,1,0,0:0:0:10:soft-hitnormal.wav
256,192,31431,1,0,0:0:0:10:soft-hitnormal.wav
36,192,31431,1,0,0:0:0:30:bd.wav
109,192,31431,1,0,0:0:0:15:clap.wav
475,192,31598,1,0,0:0:0:50:vo-05.wav
329,192,31598,1,0,0:0:0:10:soft-hitnormal.wav
182,192,31598,1,0,0:0:0:10:bass-01.wav
475,192,31764,1,0,0:0:0:50:vo-07.wav
402,192,31764,1,0,0:0:0:50:muon.wav
36,192,31764,1,0,0:0:0:30:bd.wav
329,192,31764,1,0,0:0:0:10:soft-hitnormal.wav
182,192,31848,1,0,0:0:0:10:soft-hitnormal.wav
256,192,31931,1,0,0:0:0:10:soft-hitnormal.wav
109,192,31931,1,0,0:0:0:10:bass-01.wav
402,192,32014,1,0,0:0:0:10:soft-hitnormal.wav
475,192,32098,1,0,0:0:0:50:vo-06.wav
329,192,32098,1,0,0:0:0:10:soft-hitnormal.wav
36,192,32098,1,0,0:0:0:30:bd.wav
109,192,32098,1,0,0:0:0:15:clap.wav
256,192,32264,1,0,0:0:0:10:soft-hitnormal.wav
182,192,32264,1,0,0:0:0:10:bass-01.wav
475,192,32431,1,0,0:0:0:50:vo-05.wav
329,192,32431,1,0,0:0:0:10:soft-hitnormal.wav
36,192,32431,1,0,0:0:0:30:bd.wav
182,192,32514,1,0,0:0:0:10:soft-hitnormal.wav
475,192,32598,1,0,0:0:0:50:vo-05.wav
329,192,32598,1,0,0:0:0:10:soft-hitnormal.wav
109,192,32598,1,0,0:0:0:10:bass-01.wav
182,192,32681,1,0,0:0:0:10:soft-hitnormal.wav
475,192,32764,1,0,0:0:0:50:vo-07.wav
329,192,32764,1,0,0:0:0:10:soft-hitnormal.wav
36,192,32764,1,0,0:0:0:30:bd.wav
256,192,32764,1,0,0:0:0:15:clap.wav
256,192,32931,1,0,0:0:0:10:bass-01.wav
402,192,32931,1,0,0:0:0:10:soft-hitnormal.wav
402,192,33098,1,0,0:0:0:50:vo-15.wav
329,192,33098,1,0,0:0:0:10:soft-hitnormal.wav
109,192,33098,1,0,0:0:0:30:bd.wav
182,192,33098,1,0,0:0:0:20:cym-02.wav
329,192,33264,1,0,0:0:0:50:vo-14.wav
182,192,33264,1,0,0:0:0:10:bass-01.wav
402,192,33348,1,0,0:0:0:10:soft-hitnormal.wav
109,192,33348,1,0,0:0:0:30:bd.wav
256,192,33348,1,0,0:0:0:20:cym-02.wav
475,192,33348,1,0,0:0:0:50:muon.wav
109,192,33514,1,0,0:0:0:10:bass-01.wav
256,192,33514,1,0,0:0:0:10:soft-hitnormal.wav
182,192,33598,1,0,0:0:0:10:soft-hitnormal.wav
402,192,33598,1,0,0:0:0:30:bd.wav
36,192,33598,1,0,0:0:0:20:cym-02.wav
329,192,33598,1,0,0:0:0:10:soft-hitnormal.wav
36,192,33764,1,0,0:0:0:50:vo-05.wav
182,192,33764,1,0,0:0:0:10:soft-hitnormal.wav
475,192,33764,1,0,0:0:0:30:bd.wav
329,192,33848,1,0,0:0:0:10:soft-hitnormal.wav
402,192,33931,1,0,0:0:0:10:bass-01.wav
256,192,33931,1,0,0:0:0:10:soft-hitnormal.wav
36,192,34014,1,0,0:0:0:50:vo-05.wav
182,192,34014,1,0,0:0:0:10:soft-hitnormal.wav
475,192,34098,1,0,0:0:0:30:bd.wav
329,192,34098,1,0,0:0:0:15:clap.wav
109,192,34098,1,0,0:0:0:10:soft-hitnormal.wav
36,192,34264,1,0,0:0:0:50:vo-05.wav
182,192,34264,1,0,0:0:0:10:soft-hitnormal.wav
329,192,34264,1,0,0:0:0:10:bass-01.wav
36,192,34431,1,0,0:0:0:10:soft-hitnormal.wav
109,192,34431,1,0,0:0:0:50:vo-07.wav
475,192,34431,1,0,0:0:0:30:bd.wav
256,192,34514,1,0,0:0:0:10:soft-hitnormal.wav
402,192,34598,1,0,0:0:0:10:bass-01.wav
182,192,34598,1,0,0:0:0:10:soft-hitnormal.wav
329,192,34681,1,0,0:0:0:10:soft-hitnormal.wav
36,192,34764,1,0,0:0:0:50:vo-06.wav
109,192,34764,1,0,0:0:0:10:soft-hitnormal.wav
475,192,34764,1,0,0:0:0:30:bd.wav
256,192,34764,1,0,0:0:0:15:clap.wav
329,192,34931,1,0,0:0:0:10:bass-01.wav
256,192,34931,1,0,0:0:0:10:soft-hitnormal.wav
36,192,35098,1,0,0:0:0:50:vo-05.wav
475,192,35098,1,0,0:0:0:30:bd.wav
182,192,35098,1,0,0:0:0:10:soft-hitnormal.wav
329,192,35181,1,0,0:0:0:10:soft-hitnormal.wav
402,192,35264,1,0,0:0:0:10:soft-hitnormal.wav
182,192,35264,1,0,0:0:0:10:bass-01.wav
36,192,35264,1,0,0:0:0:50:vo-05.wav
329,192,35348,1,0,0:0:0:10:soft-hitnormal.wav
36,192,35431,1,0,0:0:0:50:vo-07.wav
109,192,35431,1,0,0:0:0:10:soft-hitnormal.wav
475,192,35431,1,0,0:0:0:30:bd.wav
256,192,35431,1,0,0:0:0:15:clap.wav
402,192,35598,1,0,0:0:0:10:bass-01.wav
256,192,35598,1,0,0:0:0:10:soft-hitnormal.wav
36,192,35764,1,0,0:0:0:50:vo-05.wav
475,192,35764,1,0,0:0:0:30:bd.wav
182,192,35764,1,0,0:0:0:10:soft-hitnormal.wav
329,192,35848,1,0,0:0:0:10:soft-hitnormal.wav
109,192,35931,1,0,0:0:0:20:vo-12.wav
182,192,35931,1,0,0:0:0:10:soft-hitnormal.wav
402,192,35931,1,0,0:0:0:10:bass-01.wav
256,192,36014,1,0,0:0:0:10:soft-hitnormal.wav
36,192,36098,1,0,0:0:0:20:muon.wav
182,192,36098,1,0,0:0:0:10:soft-hitnormal.wav
402,192,36098,1,0,0:0:0:15:clap.wav
475,192,36098,1,0,0:0:0:30:bd.wav
329,192,36181,1,0,0:0:0:10:soft-hitnormal.wav
256,192,36264,1,0,0:0:0:10:bass-01.wav
109,192,36264,1,0,0:0:0:10:soft-hitnormal.wav
182,192,36348,1,0,0:0:0:10:soft-hitnormal.wav
36,192,36431,1,0,0:0:0:50:vo-05.wav
475,192,36431,1,0,0:0:0:30:bd.wav
256,192,36431,1,0,0:0:0:10:soft-hitnormal.wav
402,192,36514,1,0,0:0:0:10:soft-hitnormal.wav
182,192,36598,1,0,0:0:0:10:soft-hitnormal.wav
329,192,36598,1,0,0:0:0:10:bass-01.wav
36,192,36681,1,0,0:0:0:50:vo-05.wav
402,192,36681,1,0,0:0:0:10:soft-hitnormal.wav
475,192,36764,1,0,0:0:0:30:bd.wav
109,192,36764,1,0,0:0:0:10:soft-hitnormal.wav
256,192,36764,1,0,0:0:0:15:clap.wav
36,192,36931,1,0,0:0:0:50:vo-05.wav
182,192,36931,1,0,0:0:0:10:soft-hitnormal.wav
329,192,36931,1,0,0:0:0:10:bass-01.wav
36,192,37098,1,0,0:0:0:50:vo-07.wav
475,192,37098,1,0,0:0:0:30:bd.wav
109,192,37098,1,0,0:0:0:10:soft-hitnormal.wav
329,192,37181,1,0,0:0:0:10:soft-hitnormal.wav
182,192,37264,1,0,0:0:0:10:soft-hitnormal.wav
256,192,37264,1,0,0:0:0:10:bass-01.wav
402,192,37348,1,0,0:0:0:10:soft-hitnormal.wav
475,192,37431,1,0,0:0:0:30:bd.wav
182,192,37431,1,0,0:0:0:50:vo-06.wav
109,192,37431,1,0,0:0:0:10:soft-hitnormal.wav
329,192,37431,1,0,0:0:0:15:clap.wav
256,192,37598,1,0,0:0:0:10:soft-hitnormal.wav
402,192,37598,1,0,0:0:0:10:bass-01.wav
36,192,37764,1,0,0:0:0:50:vo-05.wav
475,192,37764,1,0,0:0:0:30:bd.wav
182,192,37764,1,0,0:0:0:10:soft-hitnormal.wav
329,192,37848,1,0,0:0:0:10:soft-hitnormal.wav
36,192,37931,1,0,0:0:0:50:vo-05.wav
256,192,37931,1,0,0:0:0:10:soft-hitnormal.wav
402,192,37931,1,0,0:0:0:10:bass-01.wav
182,192,38014,1,0,0:0:0:10:soft-hitnormal.wav
329,192,38098,1,0,0:0:0:15:clap.wav
36,192,38098,1,0,0:0:0:50:vo-07.wav
109,192,38098,1,0,0:0:0:10:soft-hitnormal.wav
475,192,38098,1,0,0:0:0:30:bd.wav
329,192,38264,1,0,0:0:0:10:bass-01.wav
182,192,38264,1,0,0:0:0:10:soft-hitnormal.wav
475,192,38431,1,0,0:0:0:30:bd.wav
109,192,38431,1,0,0:0:0:20:vo-15.wav
256,192,38431,1,0,0:0:0:10:soft-hitnormal.wav
329,192,38514,1,0,0:0:0:10:soft-hitnormal.wav
402,192,38598,1,0,0:0:0:10:bass-01.wav
109,192,38598,1,0,0:0:0:20:vo-14.wav
182,192,38598,1,0,0:0:0:10:soft-hitnormal.wav
256,192,38681,1,0,0:0:0:10:soft-hitnormal.wav
36,192,38764,1,0,0:0:0:20:vo-13.wav
475,192,38764,1,0,0:0:0:30:bd.wav
109,192,38764,1,0,0:0:0:10:soft-hitnormal.wav
402,192,38764,1,0,0:0:0:15:clap.wav
329,192,38848,1,0,0:0:0:10:soft-hitnormal.wav
402,192,38931,1,0,0:0:0:10:bass-01.wav
182,192,38931,1,0,0:0:0:10:soft-hitnormal.wav
256,192,39014,1,0,0:0:0:10:soft-hitnormal.wav
36,192,39098,1,0,0:0:0:50:vo-05.wav
182,192,39098,1,0,0:0:0:10:soft-hitnormal.wav
475,192,39098,1,0,0:0:0:30:bd.wav
329,192,39181,1,0,0:0:0:10:soft-hitnormal.wav
402,192,39264,1,0,0:0:0:10:bass-01.wav
256,192,39264,1,0,0:0:0:10:soft-hitnormal.wav
182,192,39348,1,0,0:0:0:10:soft-hitnormal.wav
36,192,39348,1,0,0:0:0:50:vo-05.wav
329,192,39431,1,0,0:0:0:15:clap.wav
109,192,39431,1,0,0:0:0:10:soft-hitnormal.wav
475,192,39431,1,0,0:0:0:30:bd.wav
402,192,39598,1,0,0:0:0:10:bass-01.wav
256,192,39598,1,0,0:0:0:10:soft-hitnormal.wav
36,192,39598,1,0,0:0:0:50:vo-05.wav
109,192,39764,1,0,0:0:0:10:soft-hitnormal.wav
475,192,39764,1,0,0:0:0:30:bd.wav
36,192,39764,1,0,0:0:0:50:vo-07.wav
256,192,39848,1,0,0:0:0:10:soft-hitnormal.wav
182,192,39931,1,0,0:0:0:10:soft-hitnormal.wav
329,192,39931,1,0,0:0:0:10:bass-01.wav
402,192,40014,1,0,0:0:0:10:soft-hitnormal.wav
475,192,40098,1,0,0:0:0:30:bd.wav
36,192,40098,1,0,0:0:0:50:vo-06.wav
256,192,40098,1,0,0:0:0:10:soft-hitnormal.wav
109,192,40098,1,0,0:0:0:15:clap.wav
329,192,40264,1,0,0:0:0:10:bass-01.wav
256,192,40264,1,0,0:0:0:10:soft-hitnormal.wav
475,192,40431,1,0,0:0:0:30:bd.wav
36,192,40431,1,0,0:0:0:50:vo-05.wav
182,192,40431,1,0,0:0:0:10:soft-hitnormal.wav
256,192,40514,1,0,0:0:0:10:soft-hitnormal.wav
182,192,40598,1,0,0:0:0:10:soft-hitnormal.wav
402,192,40598,1,0,0:0:0:10:bass-01.wav
36,192,40598,1,0,0:0:0:50:vo-05.wav
256,192,40681,1,0,0:0:0:10:soft-hitnormal.wav
36,192,40764,1,0,0:0:0:50:vo-07.wav
329,192,40764,1,0,0:0:0:15:clap.wav
475,192,40764,1,0,0:0:0:30:bd.wav
109,192,40764,1,0,0:0:0:10:soft-hitnormal.wav
256,192,40931,1,0,0:0:0:10:bass-01.wav
402,192,40931,1,0,0:0:0:10:soft-hitnormal.wav
36,192,41098,1,0,0:0:0:50:vo-05.wav
182,192,41098,1,0,0:0:0:10:soft-hitnormal.wav
475,192,41098,1,0,0:0:0:30:bd.wav
329,192,41181,1,0,0:0:0:10:soft-hitnormal.wav
109,192,41264,1,0,0:0:0:20:vo-12.wav
182,192,41264,1,0,0:0:0:10:soft-hitnormal.wav
402,192,41264,1,0,0:0:0:10:bass-01.wav
256,192,41348,1,0,0:0:0:10:soft-hitnormal.wav
475,192,41431,1,0,0:0:0:30:bd.wav
329,192,41431,1,0,0:0:0:15:clap.wav
36,192,41431,1,0,0:0:0:20:muon.wav
109,192,41431,1,0,0:0:0:10:soft-hitnormal.wav
256,192,41514,1,0,0:0:0:10:soft-hitnormal.wav
402,192,41598,1,0,0:0:0:10:bass-01.wav
182,192,41598,1,0,0:0:0:10:soft-hitnormal.wav
329,192,41681,1,0,0:0:0:10:soft-hitnormal.wav
182,192,41764,1,0,0:0:0:10:soft-hitnormal.wav
475,192,41764,1,0,0:0:0:30:bd.wav
36,192,41764,1,0,0:0:0:50:vo-05.wav
256,192,41848,1,0,0:0:0:10:soft-hitnormal.wav
402,192,41931,1,0,0:0:0:10:soft-hitnormal.wav
329,192,41931,1,0,0:0:0:10:bass-01.wav
182,192,42014,1,0,0:0:0:10:soft-hitnormal.wav
36,192,42014,1,0,0:0:0:50:vo-05.wav
475,192,42098,1,0,0:0:0:30:bd.wav
256,192,42098,1,0,0:0:0:10:soft-hitnormal.wav
402,192,42098,1,0,0:0:0:15:clap.wav
36,192,42264,1,0,0:0:0:50:vo-05.wav
182,192,42264,1,0,0:0:0:10:soft-hitnormal.wav
329,192,42264,1,0,0:0:0:10:bass-01.wav
475,192,42431,1,0,0:0:0:30:bd.wav
109,192,42431,1,0,0:0:0:50:muon.wav
182,192,42431,1,0,0:0:0:10:soft-hitnormal.wav
36,192,42431,1,0,0:0:0:50:vo-07.wav
329,192,42514,1,0,0:0:0:10:soft-hitnormal.wav
256,192,42598,1,0,0:0:0:10:soft-hitnormal.wav
402,192,42598,1,0,0:0:0:10:bass-01.wav
109,192,42681,1,0,0:0:0:10:soft-hitnormal.wav
182,192,42764,1,0,0:0:0:10:soft-hitnormal.wav
475,192,42764,1,0,0:0:0:30:bd.wav
36,192,42764,1,0,0:0:0:50:vo-06.wav
329,192,42764,1,0,0:0:0:15:clap.wav
329,192,42931,1,0,0:0:0:10:bass-01.wav
256,192,42931,1,0,0:0:0:10:soft-hitnormal.wav
36,192,43098,1,0,0:0:0:50:vo-05.wav
475,192,43098,1,0,0:0:0:30:bd.wav
182,192,43098,1,0,0:0:0:10:soft-hitnormal.wav
329,192,43181,1,0,0:0:0:10:soft-hitnormal.wav
182,192,43264,1,0,0:0:0:10:soft-hitnormal.wav
402,192,43264,1,0,0:0:0:10:bass-01.wav
36,192,43264,1,0,0:0:0:50:vo-05.wav
329,192,43348,1,0,0:0:0:10:soft-hitnormal.wav
182,192,43431,1,0,0:0:0:10:soft-hitnormal.wav
109,192,43431,1,0,0:0:0:50:vo-07.wav
475,192,43431,1,0,0:0:0:30:bd.wav
256,192,43431,1,0,0:0:0:15:clap.wav
402,192,43598,1,0,0:0:0:10:bass-01.wav
256,192,43598,1,0,0:0:0:10:soft-hitnormal.wav
109,192,43598,1,0,0:0:0:20:cymr.wav
475,192,43764,1,0,0:0:0:50:vo-15.wav
36,192,43764,1,0,0:0:0:30:bd.wav
329,192,43764,1,0,0:0:0:10:soft-hitnormal.wav
182,192,43764,1,0,0:0:0:20:cym-02.wav
329,192,43931,1,0,0:0:0:50:vo-14.wav
182,192,43931,1,0,0:0:0:10:bass-01.wav
36,192,44014,1,0,0:0:0:10:soft-hitnormal.wav
109,192,44014,1,0,0:0:0:30:bd.wav
402,192,44014,1,0,0:0:0:50:muon.wav
256,192,44014,1,0,0:0:0:20:cym-02.wav
256,192,44181,1,0,0:0:0:10:soft-hitnormal.wav
109,192,44181,1,0,0:0:0:10:bass-01.wav
182,192,44264,1,0,0:0:0:10:soft-hitnormal.wav
36,192,44264,1,0,0:0:0:20:cym-02.wav
329,192,44264,1,0,0:0:0:10:soft-hitnormal.wav
402,192,44264,1,0,0:0:0:30:bd.wav
109,192,44431,1,0,0:0:0:40:moop2_000.wav
36,192,44431,1,0,0:0:0:20:bd.wav
329,192,44431,1,0,0:0:0:20:normal-hitwhistle.wav
475,192,44431,1,0,0:0:0:20:soft-hitnormal.wav
182,192,44431,1,0,0:0:0:20:cym-01.wav
256,192,44514,1,0,0:0:0:40:moop2_001.wav
402,192,44598,1,0,0:0:0:40:moop2_002.wav
475,192,44681,1,0,0:0:0:40:moop2_003.wav
36,192,44764,1,0,0:0:0:30:moop2_000.wav
182,192,44848,1,0,0:0:0:30:moop2_001.wav
329,192,44931,1,0,0:0:0:30:moop2_002.wav
402,192,45014,1,0,0:0:0:30:moop2_003.wav
109,192,45098,1,0,0:0:0:20:moop2_000.wav
256,192,45181,1,0,0:0:0:20:moop2_001.wav
402,192,45264,1,0,0:0:0:20:moop2_002.wav
475,192,45348,1,0,0:0:0:20:moop2_003.wav
36,192,45431,1,0,0:0:0:10:moop2_000.wav
182,192,45514,1,0,0:0:0:10:moop2_001.wav
329,192,45598,1,0,0:0:0:10:moop2_002.wav
402,192,45681,1,0,0:0:0:10:moop2_003.wav
475,192,47098,1,0,0:0:0:40:moop2_017.wav
402,192,47181,1,0,0:0:0:40:moop2_018.wav
256,192,47264,1,0,0:0:0:40:moop2_019.wav
109,192,47348,1,0,0:0:0:40:moop2_020.wav
402,192,47431,1,0,0:0:0:30:moop2_017.wav
329,192,47514,1,0,0:0:0:30:moop2_018.wav
182,192,47598,1,0,0:0:0:30:moop2_019.wav
36,192,47681,1,0,0:0:0:30:moop2_020.wav
475,192,47764,1,0,0:0:0:20:moop2_017.wav
402,192,47848,1,0,0:0:0:20:moop2_018.wav
256,192,47931,1,0,0:0:0:20:moop2_019.wav
109,192,48014,1,0,0:0:0:20:moop2_020.wav
402,192,48098,1,0,0:0:0:10:moop2_017.wav
329,192,48181,1,0,0:0:0:10:moop2_018.wav
182,192,48264,1,0,0:0:0:10:moop2_019.wav
36,192,48348,1,0,0:0:0:10:moop2_020.wav
109,192,49764,1,0,0:0:0:40:moop2_000.wav
256,192,49848,1,0,0:0:0:40:moop2_001.wav
402,192,49931,1,0,0:0:0:40:moop2_002.wav
475,192,50014,1,0,0:0:0:40:moop2_003.wav
36,192,50098,1,0,0:0:0:30:moop2_000.wav
182,192,50181,1,0,0:0:0:30:moop2_001.wav
329,192,50264,1,0,0:0:0:30:moop2_002.wav
402,192,50348,1,0,0:0:0:30:moop2_003.wav
109,192,50431,1,0,0:0:0:20:moop2_000.wav
256,192,50514,1,0,0:0:0:20:moop2_001.wav
402,192,50598,1,0,0:0:0:20:moop2_002.wav
475,192,50681,1,0,0:0:0:20:moop2_003.wav
36,192,50764,1,0,0:0:0:10:moop2_000.wav
182,192,50848,1,0,0:0:0:10:moop2_001.wav
329,192,50931,1,0,0:0:0:10:moop2_002.wav
402,192,51014,1,0,0:0:0:10:moop2_003.wav
475,192,52431,1,0,0:0:0:40:moop2_017.wav
329,192,52514,1,0,0:0:0:40:moop2_018.wav
182,192,52598,1,0,0:0:0:40:moop2_019.wav
109,192,52681,1,0,0:0:0:40:moop2_020.wav
402,192,52764,1,0,0:0:0:30:moop2_017.wav
256,192,52848,1,0,0:0:0:30:moop2_018.wav
109,192,52931,1,0,0:0:0:30:moop2_019.wav
36,192,53014,1,0,0:0:0:30:moop2_020.wav
475,192,53098,1,0,0:0:0:20:moop2_017.wav
329,192,53181,1,0,0:0:0:20:moop2_018.wav
182,192,53264,1,0,0:0:0:20:moop2_019.wav
109,192,53348,1,0,0:0:0:20:moop2_020.wav
402,192,53431,1,0,0:0:0:10:moop2_017.wav
256,192,53514,1,0,0:0:0:10:moop2_018.wav
109,192,53598,1,0,0:0:0:10:moop2_019.wav
36,192,53681,1,0,0:0:0:10:moop2_020.wav
475,192,53764,1,0,0:0:0:50:sn.wav
329,192,53764,1,0,0:0:0:20:soft-hitnormal.wav
329,192,53931,1,0,0:0:0:20:bass-01.wav
475,192,53931,1,0,0:0:0:50:sn.wav
475,192,54431,1,0,0:0:0:50:sn.wav
329,192,54431,1,0,0:0:0:20:soft-hitnormal.wav
329,192,54598,1,0,0:0:0:20:bass-01.wav
475,192,54598,1,0,0:0:0:50:sn.wav
182,192,54931,1,0,0:0:0:20:bass-01.wav
36,192,54931,1,0,0:0:0:80:bd.wav
329,192,54931,1,0,0:0:0:50:sn.wav
36,192,55098,1,0,0:0:0:80:bd.wav
109,192,55098,1,0,0:0:0:70:fx-01.wav
256,192,55098,1,0,0:0:0:20:soft-hitnormal.wav
402,192,55098,1,0,0:0:0:50:sn.wav
475,192,55098,1,0,0:0:0:15:cym-01.wav
329,192,55181,1,0,0:0:0:20:normal-hitwhistle.wav
182,192,55264,1,0,0:0:0:20:normal-hitwhistle.wav
329,192,55348,1,0,0:0:0:20:normal-hitwhistle.wav
182,192,55431,1,0,0:0:0:10:soft-hitnormal.wav
402,192,55431,1,0,0:0:0:30:sn.wav
475,192,55431,1,0,0:0:0:20:normal-hitwhistle.wav
36,192,55431,1,0,0:0:0:50:muon.wav
182,192,55598,1,0,0:0:0:10:soft-hitnormal.wav
329,192,55598,1,0,0:0:0:20:normal-hitwhistle.wav
109,192,55598,1,0,0:0:0:20:muon.wav
256,192,55598,1,0,0:0:0:50:muon.wav
182,192,55764,1,0,0:0:0:10:soft-hitnormal.wav
402,192,55764,1,0,0:0:0:30:sn.wav
475,192,55764,1,0,0:0:0:20:normal-hitwhistle.wav
36,192,55764,1,0,0:0:0:20:soft-hitnormal.wav
256,192,55848,1,0,0:0:0:20:normal-hitwhistle.wav
402,192,55931,1,0,0:0:0:10:soft-hitnormal.wav
256,192,56014,1,0,0:0:0:20:normal-hitwhistle.wav
36,192,56098,1,0,0:0:0:10:soft-hitnormal.wav
329,192,56098,1,0,0:0:0:30:sn.wav
475,192,56098,1,0,0:0:0:20:normal-hitwhistle.wav
182,192,56098,1,0,0:0:0:50:muon.wav
256,192,56264,1,0,0:0:0:10:soft-hitnormal.wav
402,192,56264,1,0,0:0:0:50:sn.wav
109,192,56264,1,0,0:0:0:20:normal-hitwhistle.wav
329,192,56348,1,0,0:0:0:50:sn.wav
36,192,56431,1,0,0:0:0:10:soft-hitnormal.wav
402,192,56431,1,0,0:0:0:50:sn.wav
475,192,56431,1,0,0:0:0:20:normal-hitwhistle.wav
109,192,56431,1,0,0:0:0:50:muon.wav
256,192,56514,1,0,0:0:0:10:soft-hitnormal.wav
109,192,56598,1,0,0:0:0:10:soft-hitnormal.wav
256,192,56681,1,0,0:0:0:10:soft-hitnormal.wav
182,192,56764,1,0,0:0:0:10:soft-hitnormal.wav
329,192,56764,1,0,0:0:0:30:sn.wav
475,192,56764,1,0,0:0:0:20:normal-hitwhistle.wav
36,192,56764,1,0,0:0:0:50:muon.wav
256,192,56931,1,0,0:0:0:10:soft-hitnormal.wav
329,192,56931,1,0,0:0:0:20:normal-hitwhistle.wav
109,192,56931,1,0,0:0:0:20:muon.wav
402,192,56931,1,0,0:0:0:20:muon.wav
36,192,57098,1,0,0:0:0:10:soft-hitnormal.wav
402,192,57098,1,0,0:0:0:30:sn.wav
475,192,57098,1,0,0:0:0:20:normal-hitwhistle.wav
182,192,57098,1,0,0:0:0:50:muon.wav
329,192,57181,1,0,0:0:0:20:normal-hitwhistle.wav
182,192,57264,1,0,0:0:0:10:soft-hitnormal.wav
329,192,57348,1,0,0:0:0:20:normal-hitwhistle.wav
109,192,57431,1,0,0:0:0:10:soft-hitnormal.wav
402,192,57431,1,0,0:0:0:30:sn.wav
36,192,57431,1,0,0:0:0:50:bd.wav
475,192,57431,1,0,0:0:0:20:normal-hitwhistle.wav
402,192,57598,1,0,0:0:0:20:bd.wav
329,192,57639,1,0,0:0:0:20:bd.wav
256,192,57681,1,0,0:0:0:20:bd.wav
182,192,57723,1,0,0:0:0:20:bd.wav
36,192,57764,1,0,0:0:0:10:soft-hitnormal.wav
109,192,57764,1,0,0:0:0:50:bd.wav
475,192,57764,1,0,0:0:0:20:cym-01.wav
402,192,57764,1,0,0:0:0:30:sn.wav
256,192,57848,1,0,0:0:0:10:soft-hitnormal.wav
329,192,57931,1,0,0:0:0:10:soft-hitnormal.wav
182,192,58014,1,0,0:0:0:10:soft-hitnormal.wav
256,192,58098,1,0,0:0:0:10:soft-hitnormal.wav
402,192,58098,1,0,0:0:0:30:sn.wav
475,192,58098,1,0,0:0:0:20:normal-hitwhistle.wav
36,192,58098,1,0,0:0:0:20:normal-hitwhistle.wav
402,192,58264,1,0,0:0:0:10:soft-hitnormal.wav
329,192,58264,1,0,0:0:0:20:normal-hitwhistle.wav
109,192,58264,1,0,0:0:0:20:muon.wav
182,192,58264,1,0,0:0:0:50:muon.wav
36,192,58431,1,0,0:0:0:10:soft-hitnormal.wav
402,192,58431,1,0,0:0:0:30:sn.wav
475,192,58431,1,0,0:0:0:20:normal-hitwhistle.wav
256,192,58431,1,0,0:0:0:20:muon.wav
182,192,58514,1,0,0:0:0:10:soft-hitnormal.wav
109,192,58598,1,0,0:0:0:10:soft-hitnormal.wav
329,192,58598,1,0,0:0:0:20:normal-hitwhistle.wav
256,192,58681,1,0,0:0:0:10:soft-hitnormal.wav
182,192,58764,1,0,0:0:0:10:soft-hitnormal.wav
402,192,58764,1,0,0:0:0:30:sn.wav
475,192,58764,1,0,0:0:0:20:normal-hitwhistle.wav
36,192,58764,1,0,0:0:0:20:normal-hitwhistle.wav
256,192,58931,1,0,0:0:0:10:soft-hitnormal.wav
402,192,58931,1,0,0:0:0:30:sn.wav
109,192,58931,1,0,0:0:0:20:muon.wav
329,192,59014,1,0,0:0:0:30:sn.wav
36,192,59098,1,0,0:0:0:10:soft-hitnormal.wav
402,192,59098,1,0,0:0:0:30:sn.wav
475,192,59098,1,0,0:0:0:20:normal-hitwhistle.wav
182,192,59181,1,0,0:0:0:10:soft-hitnormal.wav
109,192,59264,1,0,0:0:0:10:soft-hitnormal.wav
256,192,59264,1,0,0:0:0:20:normal-hitwhistle.wav
329,192,59348,1,0,0:0:0:10:soft-hitnormal.wav
182,192,59431,1,0,0:0:0:10:soft-hitnormal.wav
402,192,59431,1,0,0:0:0:30:sn.wav
475,192,59431,1,0,0:0:0:20:normal-hitwhistle.wav
36,192,59431,1,0,0:0:0:20:normal-hitwhistle.wav
182,192,59598,1,0,0:0:0:10:soft-hitnormal.wav
329,192,59598,1,0,0:0:0:20:normal-hitwhistle.wav
256,192,59598,1,0,0:0:0:20:muon.wav
109,192,59598,1,0,0:0:0:50:muon.wav
182,192,59764,1,0,0:0:0:10:soft-hitnormal.wav
402,192,59764,1,0,0:0:0:30:sn.wav
36,192,59764,1,0,0:0:0:20:normal-hitwhistle.wav
329,192,59848,1,0,0:0:0:10:soft-hitnormal.wav
256,192,59931,1,0,0:0:0:10:soft-hitnormal.wav
402,192,59931,1,0,0:0:0:30:sn.wav
475,192,59931,1,0,0:0:0:20:normal-hitwhistle.wav
109,192,59931,1,0,0:0:0:20:normal-hitwhistle.wav
182,192,60014,1,0,0:0:0:10:soft-hitnormal.wav
329,192,60098,1,0,0:0:0:10:soft-hitnormal.wav
36,192,60098,1,0,0:0:0:50:bd.wav
475,192,60098,1,0,0:0:0:20:normal-hitwhistle.wav
402,192,60181,1,0,0:0:0:10:soft-hitnormal.wav
256,192,60181,1,0,0:0:0:20:normal-hitwhistle.wav
475,192,60264,1,0,0:0:0:30:sn.wav
109,192,60264,1,0,0:0:0:50:bd.wav
402,192,60306,1,0,0:0:0:30:sn.wav
329,192,60348,1,0,0:0:0:30:sn.wav
256,192,60389,1,0,0:0:0:30:sn.wav
36,192,60431,1,0,0:0:0:50:bd.wav
475,192,60431,1,0,0:0:0:20:cym-01.wav
182,192,60431,1,0,0:0:0:50:muon.wav
329,192,60514,1,0,0:0:0:10:soft-hitnormal.wav
402,192,60598,1,0,0:0:0:10:soft-hitnormal.wav
109,192,60598,1,0,0:0:0:30:sn.wav
256,192,60681,1,0,0:0:0:80:sn.wav
402,192,60764,1,0,0:0:0:10:soft-hitnormal.wav
36,192,60764,1,0,0:0:0:20:bd.wav
182,192,60764,1,0,0:0:0:20:normal-hitwhistle.wav
329,192,60848,1,0,0:0:0:10:soft-hitnormal.wav
402,192,60931,1,0,0:0:0:10:soft-hitnormal.wav
182,192,60931,1,0,0:0:0:30:sn.wav
256,192,61014,1,0,0:0:0:10:soft-hitnormal.wav
402,192,61098,1,0,0:0:0:10:soft-hitnormal.wav
109,192,61098,1,0,0:0:0:20:cym-01.wav
36,192,61098,1,0,0:0:0:20:bd.wav
182,192,61098,1,0,0:0:0:20:normal-hitwhistle.wav
329,192,61181,1,0,0:0:0:10:soft-hitnormal.wav
402,192,61264,1,0,0:0:0:10:soft-hitnormal.wav
109,192,61264,1,0,0:0:0:30:sn.wav
256,192,61348,1,0,0:0:0:80:sn.wav
402,192,61431,1,0,0:0:0:10:soft-hitnormal.wav
36,192,61431,1,0,0:0:0:20:bd.wav
182,192,61431,1,0,0:0:0:20:normal-hitwhistle.wav
329,192,61514,1,0,0:0:0:10:soft-hitnormal.wav
402,192,61598,1,0,0:0:0:10:soft-hitnormal.wav
182,192,61598,1,0,0:0:0:30:sn.wav
256,192,61681,1,0,0:0:0:10:soft-hitnormal.wav
475,192,61764,1,0,0:0:0:10:soft-hitnormal.wav
109,192,61764,1,0,0:0:0:20:cym-01.wav
36,192,61764,1,0,0:0:0:20:bd.wav
182,192,61764,1,0,0:0:0:20:normal-hitwhistle.wav
402,192,61848,1,0,0:0:0:10:soft-hitnormal.wav
475,192,61931,1,0,0:0:0:10:soft-hitnormal.wav
109,192,61931,1,0,0:0:0:30:sn.wav
256,192,62014,1,0,0:0:0:80:sn.wav
475,192,62098,1,0,0:0:0:10:soft-hitnormal.wav
36,192,62098,1,0,0:0:0:20:bd.wav
182,192,62098,1,0,0:0:0:20:normal-hitwhistle.wav
402,192,62181,1,0,0:0:0:10:soft-hitnormal.wav
475,192,62264,1,0,0:0:0:10:soft-hitnormal.wav
182,192,62264,1,0,0:0:0:30:sn.wav
256,192,62348,1,0,0:0:0:10:soft-hitnormal.wav
475,192,62431,1,0,0:0:0:10:soft-hitnormal.wav
109,192,62431,1,0,0:0:0:20:cym-01.wav
36,192,62431,1,0,0:0:0:20:bd.wav
182,192,62431,1,0,0:0:0:20:normal-hitwhistle.wav
402,192,62514,1,0,0:0:0:10:soft-hitnormal.wav
475,192,62598,1,0,0:0:0:10:soft-hitnormal.wav
109,192,62598,1,0,0:0:0:30:sn.wav
256,192,62681,1,0,0:0:0:80:sn.wav
475,192,62764,1,0,0:0:0:10:soft-hitnormal.wav
36,192,62764,1,0,0:0:0:20:bd.wav
182,192,62764,1,0,0:0:0:20:normal-hitwhistle.wav
402,192,62848,1,0,0:0:0:10:soft-hitnormal.wav
475,192,62931,1,0,0:0:0:10:soft-hitnormal.wav
182,192,62931,1,0,0:0:0:20:sn.wav
256,192,63014,1,0,0:0:0:10:soft-hitnormal.wav
329,192,63098,1,0,0:0:0:20:sn.wav
402,192,63098,1,0,0:0:0:20:bd.wav
36,192,63098,1,0,0:0:0:20:cym-01.wav
475,192,63098,1,0,0:0:0:20:normal-hitwhistle.wav
402,192,63181,1,0,0:0:0:20:sn.wav
329,192,63181,1,0,0:0:0:20:bd.wav
182,192,63264,1,0,0:0:0:20:bd.wav
109,192,63264,1,0,0:0:0:20:sn.wav
182,192,63348,1,0,0:0:0:20:bd.wav
109,192,63348,1,0,0:0:0:20:sn.wav
329,192,63431,1,0,0:0:0:20:bd.wav
402,192,63431,1,0,0:0:0:20:sn.wav
402,192,63514,1,0,0:0:0:20:sn.wav
329,192,63514,1,0,0:0:0:20:bd.wav
109,192,63598,1,0,0:0:0:20:sn.wav
182,192,63598,1,0,0:0:0:20:bd.wav
182,192,63681,1,0,0:0:0:20:bd.wav
109,192,63681,1,0,0:0:0:20:sn.wav
402,192,63764,1,0,0:0:0:20:sn.wav
475,192,63764,1,0,0:0:0:20:bd.wav
402,192,63848,1,0,0:0:0:20:sn.wav
475,192,63848,1,0,0:0:0:20:bd.wav
36,192,63931,1,0,0:0:0:20:bd.wav
109,192,63931,1,0,0:0:0:20:sn.wav
109,192,64014,1,0,0:0:0:20:bd.wav
36,192,64014,1,0,0:0:0:20:sn.wav
402,192,64098,1,0,0:0:0:20:bd.wav
329,192,64098,1,0,0:0:0:20:sn.wav
329,192,64181,1,0,0:0:0:20:bd.wav
402,192,64181,1,0,0:0:0:20:sn.wav
182,192,64264,1,0,0:0:0:20:bd.wav
109,192,64264,1,0,0:0:0:20:sn.wav
182,192,64348,1,0,0:0:0:20:bd.wav
109,192,64348,1,0,0:0:0:20:sn.wav
475,192,64431,1,0,0:0:0:10:soft-hitnormal.wav
256,192,64431,1,0,0:0:0:20:bd2.wav
36,192,64431,1,0,0:0:0:20:normal-hitwhistle.wav
182,192,64514,1,0,0:0:0:20:bd2.wav
329,192,64514,1,0,0:0:0:50:muon.wav
475,192,64598,1,0,0:0:0:10:soft-hitnormal.wav
256,192,64598,1,0,0:0:0:20:bd2.wav
36,192,64598,1,0,0:0:0:20:normal-hitwhistle.wav
329,192,64681,1,0,0:0:0:20:bd2.wav
182,192,64681,1,0,0:0:0:50:muon.wav
109,192,64764,1,0,0:0:0:20:bd2.wav
36,192,64764,1,0,0:0:0:20:normal-hitwhistle.wav
475,192,64764,1,0,0:0:0:50:muon.wav
402,192,64764,1,0,0:0:0:20:cym-01.wav
182,192,64848,1,0,0:0:0:10:soft-hitnormal.wav
329,192,64848,1,0,0:0:0:20:normal-hitwhistle.wav
109,192,64931,1,0,0:0:0:20:bd2.wav
36,192,64931,1,0,0:0:0:20:normal-hitwhistle.wav
475,192,64931,1,0,0:0:0:50:muon.wav
402,192,64931,1,0,0:0:0:20:cym-01.wav
256,192,65014,1,0,0:0:0:20:bd2.wav
329,192,65098,1,0,0:0:0:20:cym-01.wav
182,192,65098,1,0,0:0:0:50:bd2.wav
182,192,65264,1,0,0:0:0:20:normal-hitwhistle.wav
329,192,65264,1,0,0:0:0:10:soft-hitnormal.wav
256,192,65348,1,0,0:0:0:20:cym-01.wav
109,192,65348,1,0,0:0:0:20:bd.wav
402,192,65348,1,0,0:0:0:20:normal-hitwhistle.wav
182,192,65514,1,0,0:0:0:20:normal-hitwhistle.wav
329,192,65514,1,0,0:0:0:20:sn.wav
475,192,65598,1,0,0:0:0:20:cym-01.wav
36,192,65598,1,0,0:0:0:20:bd.wav
256,192,65681,1,0,0:0:0:20:soft-hitnormal.wav
402,192,65764,1,0,0:0:0:10:soft-hitnormal.wav
182,192,65764,1,0,0:0:0:20:normal-hitwhistle.wav
475,192,65764,1,0,0:0:0:20:cym-01.wav
36,192,65764,1,0,0:0:0:20:bd.wav
109,192,65764,1,0,0:0:0:20:sn.wav
329,192,65764,1,0,0:0:0:20:sn.wav
36,192,67098,1,0,0:0:0:20:riff-04_000.wav
109,192,67181,1,0,0:0:0:20:riff-04_001.wav
182,192,67264,1,0,0:0:0:20:riff-04_002.wav
256,192,67348,1,0,0:0:0:20:riff-04_003.wav
109,192,67431,1,0,0:0:0:20:riff-04_004.wav
182,192,67514,1,0,0:0:0:20:riff-04_005.wav
256,192,67598,1,0,0:0:0:20:riff-04_006.wav
329,192,67681,1,0,0:0:0:20:riff-04_007.wav
475,192,67764,1,0,0:0:0:20:riff-04_008.wav
256,192,67764,1,0,0:0:0:20:normal-hitwhistle.wav
402,192,67848,1,0,0:0:0:20:riff-04_009.wav
182,192,67848,1,0,0:0:0:20:normal-hitwhistle.wav
329,192,67931,1,0,0:0:0:20:riff-04_010.wav
109,192,67931,1,0,0:0:0:20:normal-hitwhistle.wav
256,192,68014,1,0,0:0:0:20:riff-04_011.wav
182,192,68014,1,0,0:0:0:20:normal-hitwhistle.wav
36,192,68098,1,0,0:0:0:20:normal-hitwhistle.wav
475,192,68098,1,0,0:0:0:20:riff-04_012.wav
109,192,68181,1,0,0:0:0:20:normal-hitwhistle.wav
402,192,68181,1,0,0:0:0:20:riff-04_013.wav
182,192,68264,1,0,0:0:0:20:normal-hitwhistle.wav
329,192,68264,1,0,0:0:0:20:riff-04_014.wav
256,192,68348,1,0,0:0:0:20:riff-04_015.wav
475,192,68431,1,0,0:0:0:10:soft-hitnormal.wav
36,192,68431,1,0,0:0:0:30:bd.wav
109,192,68431,1,0,0:0:0:20:normal-hitwhistle.wav
256,192,68514,1,0,0:0:0:10:soft-hitnormal.wav
402,192,68514,1,0,0:0:0:20:normal-hitwhistle.wav
329,192,68598,1,0,0:0:0:10:soft-hitnormal.wav
182,192,68598,1,0,0:0:0:20:normal-hitwhistle.wav
256,192,68681,1,0,0:0:0:10:soft-hitnormal.wav
402,192,68681,1,0,0:0:0:20:normal-hitwhistle.wav
475,192,68764,1,0,0:0:0:10:soft-hitnormal.wav
36,192,68764,1,0,0:0:0:30:bd.wav
109,192,68764,1,0,0:0:0:20:normal-hitwhistle.wav
329,192,68848,1,0,0:0:0:20:normal-hitwhistle.wav
182,192,68931,1,0,0:0:0:10:soft-hitnormal.wav
329,192,69014,1,0,0:0:0:20:normal-hitwhistle.wav
475,192,69098,1,0,0:0:0:10:soft-hitnormal.wav
36,192,69098,1,0,0:0:0:30:bd.wav
109,192,69098,1,0,0:0:0:20:normal-hitwhistle.wav
402,192,69181,1,0,0:0:0:10:soft-hitnormal.wav
256,192,69181,1,0,0:0:0:20:normal-hitwhistle.wav
182,192,69264,1,0,0:0:0:10:soft-hitnormal.wav
329,192,69264,1,0,0:0:0:20:normal-hitwhistle.wav
256,192,69348,1,0,0:0:0:10:soft-hitnormal.wav
402,192,69348,1,0,0:0:0:20:normal-hitwhistle.wav
475,192,69431,1,0,0:0:0:10:soft-hitnormal.wav
36,192,69431,1,0,0:0:0:30:bd.wav
109,192,69431,1,0,0:0:0:20:normal-hitwhistle.wav
329,192,69514,1,0,0:0:0:20:normal-hitwhistle.wav
182,192,69598,1,0,0:0:0:20:normal-hitwhistle.wav
329,192,69681,1,0,0:0:0:20:normal-hitwhistle.wav
475,192,69764,1,0,0:0:0:10:soft-hitnormal.wav
36,192,69764,1,0,0:0:0:30:bd.wav
109,192,69764,1,0,0:0:0:20:normal-hitwhistle.wav
402,192,69848,1,0,0:0:0:10:soft-hitnormal.wav
256,192,69848,1,0,0:0:0:20:normal-hitwhistle.wav
329,192,69931,1,0,0:0:0:10:soft-hitnormal.wav
182,192,69931,1,0,0:0:0:20:normal-hitwhistle.wav
402,192,70014,1,0,0:0:0:10:soft-hitnormal.wav
256,192,70014,1,0,0:0:0:20:normal-hitwhistle.wav
475,192,70098,1,0,0:0:0:10:soft-hitnormal.wav
36,192,70098,1,0,0:0:0:30:bd.wav
109,192,70098,1,0,0:0:0:20:normal-hitwhistle.wav
329,192,70181,1,0,0:0:0:20:normal-hitwhistle.wav
182,192,70264,1,0,0:0:0:20:normal-hitwhistle.wav
329,192,70348,1,0,0:0:0:20:normal-hitwhistle.wav
475,192,70431,1,0,0:0:0:10:soft-hitnormal.wav
36,192,70431,1,0,0:0:0:30:bd.wav
109,192,70431,1,0,0:0:0:20:normal-hitwhistle.wav
329,192,70514,1,0,0:0:0:10:soft-hitnormal.wav
256,192,70514,1,0,0:0:0:20:normal-hitwhistle.wav
109,192,70598,1,0,0:0:0:10:soft-hitnormal.wav
182,192,70598,1,0,0:0:0:20:normal-hitwhistle.wav
402,192,70681,1,0,0:0:0:10:soft-hitnormal.wav
329,192,70681,1,0,0:0:0:20:normal-hitwhistle.wav
256,192,70764,1,0,0:0:0:10:soft-hitnormal.wav
36,192,70764,1,0,0:0:0:30:bd.wav
182,192,70764,1,0,0:0:0:20:normal-hitwhistle.wav
475,192,70848,1,0,0:0:0:10:soft-hitnormal.wav
402,192,70848,1,0,0:0:0:20:normal-hitwhistle.wav
329,192,70931,1,0,0:0:0:10:soft-hitnormal.wav
256,192,70931,1,0,0:0:0:20:normal-hitwhistle.wav
182,192,71014,1,0,0:0:0:10:soft-hitnormal.wav
109,192,71014,1,0,0:0:0:20:normal-hitwhistle.wav
475,192,71098,1,0,0:0:0:10:soft-hitnormal.wav
36,192,71098,1,0,0:0:0:30:bd.wav
402,192,71098,1,0,0:0:0:20:normal-hitwhistle.wav
329,192,71181,1,0,0:0:0:10:soft-hitnormal.wav
182,192,71181,1,0,0:0:0:20:normal-hitwhistle.wav
109,192,71264,1,0,0:0:0:10:soft-hitnormal.wav
256,192,71264,1,0,0:0:0:20:normal-hitwhistle.wav
329,192,71348,1,0,0:0:0:10:soft-hitnormal.wav
182,192,71348,1,0,0:0:0:20:normal-hitwhistle.wav
475,192,71431,1,0,0:0:0:10:soft-hitnormal.wav
36,192,71431,1,0,0:0:0:30:bd.wav
402,192,71431,1,0,0:0:0:20:normal-hitwhistle.wav
256,192,71514,1,0,0:0:0:20:normal-hitwhistle.wav
109,192,71598,1,0,0:0:0:20:normal-hitwhistle.wav
256,192,71681,1,0,0:0:0:20:normal-hitwhistle.wav
475,192,71764,1,0,0:0:0:10:soft-hitnormal.wav
36,192,71764,1,0,0:0:0:30:bd.wav
402,192,71764,1,0,0:0:0:20:normal-hitwhistle.wav
329,192,71848,1,0,0:0:0:10:soft-hitnormal.wav
182,192,71848,1,0,0:0:0:20:normal-hitwhistle.wav
256,192,71931,1,0,0:0:0:10:soft-hitnormal.wav
109,192,71931,1,0,0:0:0:20:normal-hitwhistle.wav
329,192,72014,1,0,0:0:0:10:soft-hitnormal.wav
182,192,72014,1,0,0:0:0:20:normal-hitwhistle.wav
475,192,72098,1,0,0:0:0:10:soft-hitnormal.wav
36,192,72098,1,0,0:0:0:30:bd.wav
402,192,72098,1,0,0:0:0:20:normal-hitwhistle.wav
256,192,72181,1,0,0:0:0:20:normal-hitwhistle.wav
109,192,72264,1,0,0:0:0:20:normal-hitwhistle.wav
256,192,72348,1,0,0:0:0:20:normal-hitwhistle.wav
475,192,72431,1,0,0:0:0:10:soft-hitnormal.wav
36,192,72431,1,0,0:0:0:30:bd.wav
402,192,72431,1,0,0:0:0:20:normal-hitwhistle.wav
329,192,72514,1,0,0:0:0:10:soft-hitnormal.wav
182,192,72514,1,0,0:0:0:20:normal-hitwhistle.wav
256,192,72598,1,0,0:0:0:10:soft-hitnormal.wav
109,192,72598,1,0,0:0:0:20:normal-hitwhistle.wav
329,192,72681,1,0,0:0:0:10:soft-hitnormal.wav
182,192,72681,1,0,0:0:0:20:normal-hitwhistle.wav
475,192,72764,1,0,0:0:0:10:soft-hitnormal.wav
36,192,72764,1,0,0:0:0:30:bd.wav
402,192,72764,1,0,0:0:0:20:normal-hitwhistle.wav
256,192,72848,1,0,0:0:0:20:normal-hitwhistle.wav
109,192,72931,1,0,0:0:0:10:soft-hitnormal.wav
256,192,73014,1,0,0:0:0:20:normal-hitwhistle.wav
475,192,73098,1,0,0:0:0:10:soft-hitnormal.wav
36,192,73098,1,0,0:0:0:30:bd.wav
402,192,73098,1,0,0:0:0:20:normal-hitwhistle.wav
182,192,73181,1,0,0:0:0:10:soft-hitnormal.wav
109,192,73181,1,0,0:0:0:20:normal-hitwhistle.wav
329,192,73264,1,0,0:0:0:10:soft-hitnormal.wav
256,192,73264,1,0,0:0:0:20:normal-hitwhistle.wav
475,192,73348,1,0,0:0:0:10:soft-hitnormal.wav
402,192,73348,1,0,0:0:0:20:normal-hitwhistle.wav
256,192,73431,1,0,0:0:0:10:soft-hitnormal.wav
36,192,73431,1,0,0:0:0:30:bd.wav
182,192,73431,1,0,0:0:0:20:normal-hitwhistle.wav
402,192,73514,1,0,0:0:0:10:soft-hitnormal.wav
329,192,73514,1,0,0:0:0:20:normal-hitwhistle.wav
182,192,73598,1,0,0:0:0:10:soft-hitnormal.wav
109,192,73598,1,0,0:0:0:20:normal-hitwhistle.wav
329,192,73681,1,0,0:0:0:10:soft-hitnormal.wav
256,192,73681,1,0,0:0:0:20:normal-hitwhistle.wav
475,192,73764,1,0,0:0:0:10:soft-hitnormal.wav
36,192,73764,1,0,0:0:0:30:bd.wav
402,192,73764,1,0,0:0:0:20:normal-hitwhistle.wav
256,192,73848,1,0,0:0:0:10:soft-hitnormal.wav
109,192,73848,1,0,0:0:0:20:normal-hitwhistle.wav
329,192,73931,1,0,0:0:0:10:soft-hitnormal.wav
182,192,73931,1,0,0:0:0:20:normal-hitwhistle.wav
256,192,74014,1,0,0:0:0:10:soft-hitnormal.wav
109,192,74014,1,0,0:0:0:20:normal-hitwhistle.wav
475,192,74098,1,0,0:0:0:10:soft-hitnormal.wav
36,192,74098,1,0,0:0:0:30:bd.wav
402,192,74098,1,0,0:0:0:20:normal-hitwhistle.wav
182,192,74181,1,0,0:0:0:20:normal-hitwhistle.wav
329,192,74264,1,0,0:0:0:10:soft-hitnormal.wav
182,192,74348,1,0,0:0:0:20:normal-hitwhistle.wav
475,192,74431,1,0,0:0:0:10:soft-hitnormal.wav
36,192,74431,1,0,0:0:0:30:bd.wav
402,192,74431,1,0,0:0:0:20:normal-hitwhistle.wav
256,192,74514,1,0,0:0:0:10:soft-hitnormal.wav
109,192,74514,1,0,0:0:0:20:normal-hitwhistle.wav
329,192,74598,1,0,0:0:0:10:soft-hitnormal.wav
182,192,74598,1,0,0:0:0:20:normal-hitwhistle.wav
256,192,74681,1,0,0:0:0:10:soft-hitnormal.wav
109,192,74681,1,0,0:0:0:20:normal-hitwhistle.wav
475,192,74764,1,0,0:0:0:10:soft-hitnormal.wav
36,192,74764,1,0,0:0:0:30:bd.wav
402,192,74764,1,0,0:0:0:20:normal-hitwhistle.wav
182,192,74848,1,0,0:0:0:20:normal-hitwhistle.wav
329,192,74931,1,0,0:0:0:10:soft-hitnormal.wav
182,192,75014,1,0,0:0:0:20:normal-hitwhistle.wav
475,192,75098,1,0,0:0:0:10:soft-hitnormal.wav
36,192,75098,1,0,0:0:0:30:bd.wav
402,192,75098,1,0,0:0:0:20:normal-hitwhistle.wav
256,192,75181,1,0,0:0:0:10:soft-hitnormal.wav
109,192,75181,1,0,0:0:0:20:normal-hitwhistle.wav
329,192,75264,1,0,0:0:0:10:soft-hitnormal.wav
182,192,75264,1,0,0:0:0:20:normal-hitwhistle.wav
256,192,75348,1,0,0:0:0:10:soft-hitnormal.wav
109,192,75348,1,0,0:0:0:20:normal-hitwhistle.wav
475,192,75431,1,0,0:0:0:10:soft-hitnormal.wav
36,192,75431,1,0,0:0:0:30:bd.wav
402,192,75431,1,0,0:0:0:20:normal-hitwhistle.wav
182,192,75514,1,0,0:0:0:20:normal-hitwhistle.wav
329,192,75598,1,0,0:0:0:10:soft-hitnormal.wav
182,192,75681,1,0,0:0:0:20:normal-hitwhistle.wav
475,192,75764,1,0,0:0:0:10:soft-hitnormal.wav
36,192,75764,1,0,0:0:0:30:bd.wav
402,192,75764,1,0,0:0:0:20:normal-hitwhistle.wav
256,192,75848,1,0,0:0:0:10:soft-hitnormal.wav
109,192,75848,1,0,0:0:0:20:normal-hitwhistle.wav
475,192,75931,1,0,0:0:0:10:soft-hitnormal.wav
329,192,75931,1,0,0:0:0:20:normal-hitwhistle.wav
182,192,76014,1,0,0:0:0:10:soft-hitnormal.wav
36,192,76014,1,0,0:0:0:20:normal-hitwhistle.wav
402,192,76098,1,0,0:0:0:10:soft-hitnormal.wav
475,192,76098,1,0,0:0:0:30:bd.wav
256,192,76098,1,0,0:0:0:20:normal-hitwhistle.wav
36,192,76181,1,0,0:0:0:10:soft-hitnormal.wav
182,192,76181,1,0,0:0:0:20:normal-hitwhistle.wav
402,192,76264,1,0,0:0:0:10:soft-hitnormal.wav
329,192,76264,1,0,0:0:0:20:normal-hitwhistle.wav
256,192,76348,1,0,0:0:0:10:soft-hitnormal.wav
109,192,76348,1,0,0:0:0:20:normal-hitwhistle.wav
475,192,76431,1,0,0:0:0:10:soft-hitnormal.wav
36,192,76431,1,0,0:0:0:30:bd.wav
402,192,76431,1,0,0:0:0:20:normal-hitwhistle.wav
256,192,76514,1,0,0:0:0:10:soft-hitnormal.wav
329,192,76514,1,0,0:0:0:20:normal-hitwhistle.wav
109,192,76598,1,0,0:0:0:10:soft-hitnormal.wav
182,192,76598,1,0,0:0:0:20:normal-hitwhistle.wav
329,192,76681,1,0,0:0:0:10:soft-hitnormal.wav
256,192,76681,1,0,0:0:0:20:normal-hitwhistle.wav
475,192,76764,1,0,0:0:0:10:soft-hitnormal.wav
36,192,76764,1,0,0:0:0:30:bd.wav
402,192,76764,1,0,0:0:0:20:normal-hitwhistle.wav
182,192,76848,1,0,0:0:0:20:normal-hitwhistle.wav
109,192,76931,1,0,0:0:0:20:normal-hitwhistle.wav
256,192,77014,1,0,0:0:0:20:normal-hitwhistle.wav
475,192,77098,1,0,0:0:0:10:soft-hitnormal.wav
36,192,77098,1,0,0:0:0:30:bd.wav
402,192,77098,1,0,0:0:0:20:normal-hitwhistle.wav
329,192,77181,1,0,0:0:0:10:soft-hitnormal.wav
256,192,77181,1,0,0:0:0:20:normal-hitwhistle.wav
109,192,77264,1,0,0:0:0:10:soft-hitnormal.wav
182,192,77264,1,0,0:0:0:20:normal-hitwhistle.wav
329,192,77348,1,0,0:0:0:10:soft-hitnormal.wav
256,192,77348,1,0,0:0:0:20:normal-hitwhistle.wav
475,192,77431,1,0,0:0:0:10:soft-hitnormal.wav
36,192,77431,1,0,0:0:0:30:bd.wav
402,192,77431,1,0,0:0:0:20:normal-hitwhistle.wav
182,192,77514,1,0,0:0:0:20:normal-hitwhistle.wav
329,192,77598,1,0,0:0:0:20:normal-hitwhistle.wav
182,192,77681,1,0,0:0:0:20:normal-hitwhistle.wav
475,192,77764,1,0,0:0:0:10:soft-hitnormal.wav
36,192,77764,1,0,0:0:0:30:bd.wav
402,192,77764,1,0,0:0:0:20:normal-hitwhistle.wav
329,192,77848,1,0,0:0:0:10:soft-hitnormal.wav
256,192,77848,1,0,0:0:0:20:normal-hitwhistle.wav
109,192,77931,1,0,0:0:0:10:soft-hitnormal.wav
182,192,77931,1,0,0:0:0:20:normal-hitwhistle.wav
329,192,78014,1,0,0:0:0:10:soft-hitnormal.wav
256,192,78014,1,0,0:0:0:20:normal-hitwhistle.wav
475,192,78098,1,0,0:0:0:10:soft-hitnormal.wav
36,192,78098,1,0,0:0:0:30:bd.wav
402,192,78098,1,0,0:0:0:20:normal-hitwhistle.wav
109,192,78181,1,0,0:0:0:20:normal-hitwhistle.wav
329,192,78264,1,0,0:0:0:10:soft-hitnormal.wav
182,192,78264,1,0,0:0:0:20:normal-hitwhistle.wav
402,192,78348,1,0,0:0:0:20:normal-hitwhistle.wav
475,192,78431,1,0,0:0:0:10:soft-hitnormal.wav
36,192,78431,1,0,0:0:0:30:bd.wav
109,192,78431,1,0,0:0:0:20:normal-hitwhistle.wav
182,192,78431,1,0,0:0:0:30:normal-hitwhistle.wav
256,192,78431,1,0,0:0:0:10:normal-hitwhistle.wav
109,192,78598,1,0,0:0:0:20:bass-01.wav
256,192,78681,1,0,0:0:0:10:soft-hitnormal.wav
475,192,78681,1,0,0:0:0:10:soft-hitnormal.wav
329,192,78681,1,0,0:0:0:30:normal-hitwhistle.wav
36,192,78764,1,0,0:0:0:30:bd.wav
182,192,78764,1,0,0:0:0:20:normal-hitwhistle.wav
475,192,78931,1,0,0:0:0:10:soft-hitnormal.wav
36,192,78931,1,0,0:0:0:30:bd.wav
256,192,78931,1,0,0:0:0:20:normal-hitwhistle.wav
402,192,78931,1,0,0:0:0:30:normal-hitwhistle.wav
182,192,78931,1,0,0:0:0:10:normal-hitwhistle.wav
475,192,79098,1,0,0:0:0:10:soft-hitnormal.wav
36,192,79098,1,0,0:0:0:30:bd.wav
182,192,79098,1,0,0:0:0:20:normal-hitwhistle.wav
329,192,79098,1,0,0:0:0:20:cym-01.wav
402,192,79181,1,0,0:0:0:20:soft-hitnormal.wav
329,192,79264,1,0,0:0:0:20:soft-hitnormal.wav
109,192,79264,1,0,0:0:0:20:bass-01.wav
256,192,79348,1,0,0:0:0:20:soft-hitnormal.wav
36,192,79431,1,0,0:0:0:20:bd.wav
182,192,79431,1,0,0:0:0:20:clap.wav
475,192,79431,1,0,0:0:0:20:soft-hitnormal.wav
329,192,79598,1,0,0:0:0:20:soft-hitnormal.wav
182,192,79598,1,0,0:0:0:20:bass-01.wav
36,192,79764,1,0,0:0:0:20:bd.wav
256,192,79764,1,0,0:0:0:20:soft-hitnormal.wav
329,192,79848,1,0,0:0:0:20:soft-hitnormal.wav
402,192,79931,1,0,0:0:0:20:soft-hitnormal.wav
109,192,79931,1,0,0:0:0:20:bass-01.wav
256,192,80014,1,0,0:0:0:20:soft-hitnormal.wav
475,192,80098,1,0,0:0:0:50:vo-05.wav
36,192,80098,1,0,0:0:0:20:bd.wav
182,192,80098,1,0,0:0:0:20:clap.wav
329,192,80098,1,0,0:0:0:20:soft-hitnormal.wav
329,192,80264,1,0,0:0:0:50:vo-06.wav
182,192,80264,1,0,0:0:0:20:bd.wav
256,192,80264,1,0,0:0:0:20:normal-hitwhistle.wav
475,192,80431,1,0,0:0:0:50:vo-07.wav
36,192,80431,1,0,0:0:0:20:bd.wav
329,192,80431,1,0,0:0:0:20:soft-hitnormal.wav
182,192,80431,1,0,0:0:0:20:cym-01.wav
256,192,80514,1,0,0:0:0:20:soft-hitnormal.wav
182,192,80598,1,0,0:0:0:20:soft-hitnormal.wav
109,192,80681,1,0,0:0:0:20:soft-hitnormal.wav
36,192,80764,1,0,0:0:0:20:bd.wav
256,192,80764,1,0,0:0:0:20:clap.wav
402,192,80764,1,0,0:0:0:20:soft-hitnormal.wav
256,192,80931,1,0,0:0:0:20:soft-hitnormal.wav
109,192,80931,1,0,0:0:0:20:bass-01.wav
475,192,81098,1,0,0:0:0:50:vo-15.wav
36,192,81098,1,0,0:0:0:20:bd.wav
329,192,81098,1,0,0:0:0:20:soft-hitnormal.wav
182,192,81098,1,0,0:0:0:20:soft-hitnormal.wav
329,192,81264,1,0,0:0:0:50:vo-15.wav
109,192,81264,1,0,0:0:0:20:bd.wav
402,192,81264,1,0,0:0:0:20:soft-hitnormal.wav
182,192,81264,1,0,0:0:0:20:soft-hitnormal.wav
475,192,81431,1,0,0:0:0:50:vo-14.wav
36,192,81431,1,0,0:0:0:20:bd.wav
109,192,81431,1,0,0:0:0:20:clap.wav
402,192,81431,1,0,0:0:0:20:soft-hitnormal.wav
329,192,81514,1,0,0:0:0:20:bd.wav
182,192,81514,1,0,0:0:0:20:soft-hitnormal.wav
36,192,81598,1,0,0:0:0:20:bd.wav
475,192,81598,1,0,0:0:0:20:soft-hitnormal.wav
182,192,81681,1,0,0:0:0:20:bd.wav
329,192,81681,1,0,0:0:0:20:soft-hitnormal.wav
36,192,81764,1,0,0:0:0:20:bd.wav
475,192,81764,1,0,0:0:0:20:soft-hitnormal.wav
256,192,81764,1,0,0:0:0:20:cym-01.wav
109,192,81764,1,0,0:0:0:20:soft-hitnormal.wav
402,192,81848,1,0,0:0:0:20:soft-hitnormal.wav
329,192,81931,1,0,0:0:0:20:soft-hitnormal.wav
109,192,81931,1,0,0:0:0:20:bass-01.wav
256,192,82014,1,0,0:0:0:20:soft-hitnormal.wav
36,192,82098,1,0,0:0:0:20:bd.wav
182,192,82098,1,0,0:0:0:20:clap.wav
402,192,82098,1,0,0:0:0:20:soft-hitnormal.wav
402,192,82264,1,0,0:0:0:20:soft-hitnormal.wav
256,192,82264,1,0,0:0:0:20:bass-01.wav
36,192,82431,1,0,0:0:0:20:bd.wav
182,192,82431,1,0,0:0:0:20:soft-hitnormal.wav
329,192,82514,1,0,0:0:0:20:soft-hitnormal.wav
256,192,82598,1,0,0:0:0:20:soft-hitnormal.wav
109,192,82598,1,0,0:0:0:20:bass-01.wav
402,192,82681,1,0,0:0:0:20:soft-hitnormal.wav
475,192,82764,1,0,0:0:0:50:vo-05.wav
36,192,82764,1,0,0:0:0:20:bd.wav
182,192,82764,1,0,0:0:0:20:clap.wav
329,192,82764,1,0,0:0:0:20:soft-hitnormal.wav
329,192,82931,1,0,0:0:0:50:vo-06.wav
182,192,82931,1,0,0:0:0:20:bd.wav
256,192,82931,1,0,0:0:0:20:bass-01.wav
475,192,83098,1,0,0:0:0:50:vo-07.wav
36,192,83098,1,0,0:0:0:20:bd.wav
329,192,83098,1,0,0:0:0:20:soft-hitnormal.wav
182,192,83098,1,0,0:0:0:20:cym-01.wav
256,192,83181,1,0,0:0:0:20:soft-hitnormal.wav
109,192,83264,1,0,0:0:0:20:soft-hitnormal.wav
182,192,83348,1,0,0:0:0:20:soft-hitnormal.wav
36,192,83431,1,0,0:0:0:20:bd.wav
256,192,83431,1,0,0:0:0:20:clap.wav
402,192,83431,1,0,0:0:0:20:soft-hitnormal.wav
256,192,83598,1,0,0:0:0:20:soft-hitnormal.wav
109,192,83598,1,0,0:0:0:20:bass-01.wav
475,192,83764,1,0,0:0:0:50:vo-15.wav
36,192,83764,1,0,0:0:0:20:bd.wav
329,192,83764,1,0,0:0:0:20:soft-hitnormal.wav
182,192,83764,1,0,0:0:0:20:normal-hitwhistle.wav
475,192,83931,1,0,0:0:0:50:vo-15.wav
36,192,83931,1,0,0:0:0:20:bd.wav
329,192,83931,1,0,0:0:0:20:soft-hitnormal.wav
182,192,83931,1,0,0:0:0:20:bass-01.wav
475,192,84098,1,0,0:0:0:50:vo-14.wav
36,192,84098,1,0,0:0:0:20:bd.wav
402,192,84098,1,0,0:0:0:20:clap.wav
329,192,84098,1,0,0:0:0:20:soft-hitnormal.wav
109,192,84139,1,0,0:0:0:50:normal-hitwhistle.wav
182,192,84181,1,0,0:0:0:50:normal-hitwhistle.wav
256,192,84223,1,0,0:0:0:50:normal-hitwhistle.wav
329,192,84264,1,0,0:0:0:50:normal-hitwhistle.wav
402,192,84306,1,0,0:0:0:50:normal-hitwhistle.wav
109,192,84348,1,0,0:0:0:50:normal-hitwhistle.wav
182,192,84389,1,0,0:0:0:50:normal-hitwhistle.wav
256,192,84431,1,0,0:0:0:50:normal-hitwhistle.wav
36,192,84431,1,0,0:0:0:20:bd.wav
402,192,84431,1,0,0:0:0:50:vo-15.wav
475,192,84431,1,0,0:0:0:20:normal-hitwhistle.wav
329,192,84598,1,0,0:0:0:50:vo-15.wav
36,192,84598,1,0,0:0:0:20:bd.wav
402,192,84598,1,0,0:0:0:20:normal-hitwhistle.wav
182,192,84598,1,0,0:0:0:10:sn.wav
329,192,84764,1,0,0:0:0:50:vo-15.wav
109,192,84764,1,0,0:0:0:20:bd.wav
475,192,84764,1,0,0:0:0:20:normal-hitwhistle.wav
182,192,84764,1,0,0:0:0:10:sn.wav
256,192,84764,1,0,0:0:0:70:clap.wav
402,192,84931,1,0,0:0:0:50:vo-15.wav
109,192,84931,1,0,0:0:0:20:bd.wav
475,192,84931,1,0,0:0:0:20:normal-hitwhistle.wav
256,192,84931,1,0,0:0:0:10:sn.wav
329,192,85098,1,0,0:0:0:50:vo-15.wav
36,192,85098,1,0,0:0:0:20:bd.wav
402,192,85098,1,0,0:0:0:20:normal-hitwhistle.wav
182,192,85098,1,0,0:0:0:10:sn.wav
256,192,85264,1,0,0:0:0:50:vo-15.wav
36,192,85264,1,0,0:0:0:20:bd.wav
402,192,85264,1,0,0:0:0:20:normal-hitwhistle.wav
109,192,85264,1,0,0:0:0:10:sn.wav
329,192,85431,1,0,0:0:0:50:vo-15.wav
109,192,85431,1,0,0:0:0:20:bd.wav
475,192,85431,1,0,0:0:0:20:normal-hitwhistle.wav
182,192,85431,1,0,0:0:0:10:sn.wav
256,192,85431,1,0,0:0:0:70:clap.wav
329,192,85598,1,0,0:0:0:50:vo-15.wav
36,192,85598,1,0,0:0:0:20:bd.wav
475,192,85598,1,0,0:0:0:20:normal-hitwhistle.wav
182,192,85598,1,0,0:0:0:10:sn.wav
256,192,85764,1,0,0:0:0:50:vo-15.wav
182,192,85764,1,0,0:0:0:20:bd.wav
402,192,85764,1,0,0:0:0:20:normal-hitwhistle.wav
109,192,85764,1,0,0:0:0:10:sn.wav
182,192,85931,1,0,0:0:0:50:vo-15.wav
36,192,85931,1,0,0:0:0:20:bd.wav
329,192,85931,1,0,0:0:0:20:normal-hitwhistle.wav
109,192,85931,1,0,0:0:0:10:sn.wav
402,192,86098,1,0,0:0:0:50:vo-15.wav
109,192,86098,1,0,0:0:0:20:bd.wav
475,192,86098,1,0,0:0:0:20:normal-hitwhistle.wav
256,192,86098,1,0,0:0:0:10:sn.wav
329,192,86098,1,0,0:0:0:70:clap.wav
256,192,86264,1,0,0:0:0:50:vo-15.wav
36,192,86264,1,0,0:0:0:20:bd.wav
402,192,86264,1,0,0:0:0:20:normal-hitwhistle.wav
182,192,86264,1,0,0:0:0:10:sn.wav
329,192,86431,1,0,0:0:0:50:vo-15.wav
109,192,86431,1,0,0:0:0:20:bd.wav
475,192,86431,1,0,0:0:0:20:normal-hitwhistle.wav
182,192,86431,1,0,0:0:0:10:sn.wav
329,192,86598,1,0,0:0:0:50:vo-15.wav
36,192,86598,1,0,0:0:0:20:bd.wav
402,192,86598,1,0,0:0:0:20:normal-hitwhistle.wav
182,192,86598,1,0,0:0:0:10:sn.wav
475,192,86764,1,0,0:0:0:50:vo-15.wav
109,192,86764,1,0,0:0:0:20:bd.wav
402,192,86764,1,0,0:0:0:20:normal-hitwhistle.wav
182,192,86764,1,0,0:0:0:10:sn.wav
256,192,86764,1,0,0:0:0:70:clap.wav
256,192,86931,1,0,0:0:0:50:vo-15.wav
36,192,86931,1,0,0:0:0:20:bd.wav
402,192,86931,1,0,0:0:0:20:normal-hitwhistle.wav
109,192,86931,1,0,0:0:0:10:sn.wav
329,192,87098,1,0,0:0:0:50:vo-15.wav
36,192,87098,1,0,0:0:0:20:bd.wav
475,192,87098,1,0,0:0:0:20:normal-hitwhistle.wav
182,192,87098,1,0,0:0:0:10:sn.wav
475,192,87181,1,0,0:0:0:50:vo-15.wav
329,192,87181,1,0,0:0:0:20:bd2.wav
182,192,87264,1,0,0:0:0:50:vo-15.wav
36,192,87264,1,0,0:0:0:20:bd2.wav
182,192,87348,1,0,0:0:0:50:vo-15.wav
36,192,87348,1,0,0:0:0:20:bd2.wav
329,192,87431,1,0,0:0:0:50:vo-15.wav
475,192,87431,1,0,0:0:0:20:bd2.wav
329,192,87514,1,0,0:0:0:50:vo-15.wav
475,192,87514,1,0,0:0:0:20:bd2.wav
36,192,87598,1,0,0:0:0:50:vo-15.wav
182,192,87598,1,0,0:0:0:20:bd2.wav
36,192,87681,1,0,0:0:0:50:vo-15.wav
182,192,87681,1,0,0:0:0:20:bd2.wav
329,192,87764,1,0,0:0:0:50:vo-15.wav
402,192,87764,1,0,0:0:0:20:bd2.wav
256,192,87764,1,0,0:0:0:20:cym-01.wav
329,192,87848,1,0,0:0:0:50:vo-15.wav
402,192,87848,1,0,0:0:0:20:bd2.wav
182,192,87931,1,0,0:0:0:50:vo-15.wav
109,192,87931,1,0,0:0:0:20:bd2.wav
182,192,88014,1,0,0:0:0:50:vo-15.wav
109,192,88014,1,0,0:0:0:20:bd2.wav
329,192,88098,1,0,0:0:0:50:vo-15.wav
402,192,88098,1,0,0:0:0:20:bd2.wav
329,192,88181,1,0,0:0:0:50:vo-15.wav
402,192,88181,1,0,0:0:0:20:bd2.wav
182,192,88264,1,0,0:0:0:50:vo-15.wav
109,192,88264,1,0,0:0:0:20:bd2.wav
182,192,88348,1,0,0:0:0:50:vo-15.wav
109,192,88348,1,0,0:0:0:20:bd2.wav
402,192,88431,1,0,0:0:0:20:vo-15.wav
329,192,88473,1,0,0:0:0:20:vo-15.wav
256,192,88514,1,0,0:0:0:20:vo-15.wav
182,192,88556,1,0,0:0:0:20:vo-15.wav
109,192,88598,1,0,0:0:0:20:vo-15.wav
329,192,88639,1,0,0:0:0:20:vo-15.wav
256,192,88681,1,0,0:0:0:20:vo-15.wav
182,192,88723,1,0,0:0:0:20:vo-15.wav
402,192,88764,1,0,0:0:0:20:vo-15.wav
329,192,88806,1,0,0:0:0:20:vo-15.wav
256,192,88848,1,0,0:0:0:20:vo-15.wav
182,192,88889,1,0,0:0:0:20:vo-15.wav
109,192,88931,1,0,0:0:0:20:vo-15.wav
329,192,88973,1,0,0:0:0:20:vo-15.wav
256,192,89014,1,0,0:0:0:20:vo-15.wav
182,192,89056,1,0,0:0:0:20:vo-15.wav
36,192,89098,1,0,0:0:0:20:bd2.wav
475,192,89098,1,0,0:0:0:20:cym-02.wav
329,192,89181,1,0,0:0:0:20:soft-hitnormal.wav
182,192,89264,1,0,0:0:0:20:soft-hitnormal.wav
36,192,89348,1,0,0:0:0:20:bd2.wav
475,192,89348,1,0,0:0:0:20:cym-02.wav
256,192,89348,1,0,0:0:0:20:soft-hitnormal.wav
109,192,89348,1,0,0:0:0:20:normal-hitwhistle.wav
329,192,89431,1,0,0:0:0:20:soft-hitnormal.wav
182,192,89514,1,0,0:0:0:20:soft-hitnormal.wav
36,192,89598,1,0,0:0:0:20:bd.wav
475,192,89598,1,0,0:0:0:20:cym-01.wav
256,192,89598,1,0,0:0:0:20:soft-hitnormal.wav
402,192,89598,1,0,0:0:0:20:normal-hitwhistle.wav
402,192,89764,1,0,0:0:0:20:normal-hitwhistle.wav
36,192,89764,1,0,0:0:0:20:bd.wav
182,192,89764,128,0,92431:0:0:0:35:sublead-01_000.wav
329,192,89848,1,0,0:0:0:20:normal-hitwhistle.wav
475,192,89931,1,0,0:0:0:50:vo-05.wav
256,192,89931,1,0,0:0:0:20:normal-hitwhistle.wav
109,192,89931,1,0,0:0:0:20:soft-hitnormal.wav
402,192,90014,1,0,0:0:0:20:normal-hitwhistle.wav
256,192,90098,1,0,0:0:0:20:normal-hitwhistle.wav
36,192,90098,1,0,0:0:0:20:bd.wav
329,192,90181,1,0,0:0:0:20:normal-hitwhistle.wav
402,192,90264,1,0,0:0:0:50:vo-05.wav
475,192,90264,1,0,0:0:0:20:soft-hitnormal.wav
256,192,90348,1,0,0:0:0:20:normal-hitwhistle.wav
475,192,90431,1,0,0:0:0:50:vo-05.wav
329,192,90431,1,0,0:0:0:20:normal-hitwhistle.wav
36,192,90431,1,0,0:0:0:20:bd.wav
475,192,90514,1,0,0:0:0:50:vo-05.wav
329,192,90514,1,0,0:0:0:20:normal-hitwhistle.wav
475,192,90598,1,0,0:0:0:50:vo-05.wav
329,192,90598,1,0,0:0:0:20:normal-hitwhistle.wav
109,192,90681,1,0,0:0:0:20:normal-hitwhistle.wav
475,192,90764,1,0,0:0:0:50:vo-05.wav
36,192,90764,1,0,0:0:0:20:bd.wav
329,192,90764,1,0,0:0:0:20:normal-hitwhistle.wav
256,192,90848,1,0,0:0:0:20:normal-hitwhistle.wav
475,192,90931,1,0,0:0:0:50:vo-05.wav
109,192,90931,1,0,0:0:0:20:normal-hitwhistle.wav
402,192,90931,1,0,0:0:0:20:soft-hitnormal.wav
256,192,91014,1,0,0:0:0:20:normal-hitwhistle.wav
402,192,91098,1,0,0:0:0:20:normal-hitwhistle.wav
36,192,91098,1,0,0:0:0:20:bd.wav
329,192,91181,1,0,0:0:0:20:normal-hitwhistle.wav
475,192,91264,1,0,0:0:0:50:vo-05.wav
256,192,91264,1,0,0:0:0:20:normal-hitwhistle.wav
109,192,91264,1,0,0:0:0:20:soft-hitnormal.wav
402,192,91348,1,0,0:0:0:20:soft-hitnormal.wav
256,192,91431,1,0,0:0:0:20:normal-hitwhistle.wav
36,192,91431,1,0,0:0:0:20:bd.wav
329,192,91514,1,0,0:0:0:20:normal-hitwhistle.wav
475,192,91598,1,0,0:0:0:50:vo-05.wav
109,192,91598,1,0,0:0:0:20:normal-hitwhistle.wav
402,192,91598,1,0,0:0:0:20:soft-hitnormal.wav
256,192,91681,1,0,0:0:0:20:normal-hitwhistle.wav
475,192,91764,1,0,0:0:0:50:vo-05.wav
36,192,91764,1,0,0:0:0:20:bd.wav
329,192,91764,1,0,0:0:0:20:normal-hitwhistle.wav
402,192,91848,1,0,0:0:0:20:normal-hitwhistle.wav
109,192,91931,1,0,0:0:0:20:soft-hitnormal.wav
256,192,92014,1,0,0:0:0:20:normal-hitwhistle.wav
475,192,92098,1,0,0:0:0:50:vo-07.wav
36,192,92098,1,0,0:0:0:20:bd.wav
329,192,92098,1,0,0:0:0:20:normal-hitwhistle.wav
402,192,92098,1,0,0:0:0:20:soft-hitnormal.wav
109,192,92181,1,0,0:0:0:20:normal-hitwhistle.wav
256,192,92264,1,0,0:0:0:20:normal-hitwhistle.wav
402,192,92348,1,0,0:0:0:20:normal-hitwhistle.wav
256,192,92431,1,0,0:0:0:20:normal-hitwhistle.wav
36,192,92431,1,0,0:0:0:20:bd.wav
109,192,92431,128,0,93764:0:0:0:35:sublead-01_001.wav
329,192,92514,1,0,0:0:0:20:normal-hitwhistle.wav
475,192,92598,1,0,0:0:0:50:vo-05.wav
402,192,92598,1,0,0:0:0:20:normal-hitwhistle.wav
182,192,92598,1,0,0:0:0:20:soft-hitnormal.wav
256,192,92681,1,0,0:0:0:20:soft-hitnormal.wav
402,192,92764,1,0,0:0:0:20:normal-hitwhistle.wav
36,192,92764,1,0,0:0:0:20:bd.wav
329,192,92848,1,0,0:0:0:20:normal-hitwhistle.wav
475,192,92931,1,0,0:0:0:50:vo-05.wav
182,192,92931,1,0,0:0:0:20:soft-hitnormal.wav
256,192,93014,1,0,0:0:0:20:normal-hitwhistle.wav
475,192,93098,1,0,0:0:0:50:vo-05.wav
329,192,93098,1,0,0:0:0:20:normal-hitwhistle.wav
36,192,93098,1,0,0:0:0:20:bd.wav
475,192,93181,1,0,0:0:0:50:vo-05.wav
329,192,93181,1,0,0:0:0:20:soft-hitnormal.wav
475,192,93264,1,0,0:0:0:50:vo-05.wav
329,192,93264,1,0,0:0:0:20:normal-hitwhistle.wav
256,192,93348,1,0,0:0:0:20:normal-hitwhistle.wav
475,192,93431,1,0,0:0:0:50:vo-05.wav
36,192,93431,1,0,0:0:0:20:bd.wav
329,192,93431,1,0,0:0:0:20:soft-hitnormal.wav
182,192,93514,1,0,0:0:0:20:normal-hitwhistle.wav
475,192,93598,1,0,0:0:0:50:vo-05.wav
329,192,93598,1,0,0:0:0:20:normal-hitwhistle.wav
256,192,93681,1,0,0:0:0:20:normal-hitwhistle.wav
182,192,93764,1,0,0:0:0:20:normal-hitwhistle.wav
475,192,93764,1,0,0:0:0:20:bd.wav
329,192,93764,128,0,95098:0:0:0:35:sublead-01_002.wav
256,192,93848,1,0,0:0:0:20:normal-hitwhistle.wav
36,192,93931,1,0,0:0:0:50:vo-05.wav
109,192,93931,1,0,0:0:0:20:normal-hitwhistle.wav
402,192,93931,1,0,0:0:0:20:bass-01.wav
182,192,94014,1,0,0:0:0:20:normal-hitwhistle.wav
256,192,94098,1,0,0:0:0:20:normal-hitwhistle.wav
475,192,94098,1,0,0:0:0:20:bd.wav
109,192,94181,1,0,0:0:0:20:normal-hitwhistle.wav
36,192,94264,1,0,0:0:0:50:vo-05.wav
402,192,94264,1,0,0:0:0:20:bass-01.wav
182,192,94264,1,0,0:0:0:20:normal-hitwhistle.wav
256,192,94348,1,0,0:0:0:20:normal-hitwhistle.wav
109,192,94431,1,0,0:0:0:50:vo-05.wav
475,192,94431,1,0,0:0:0:20:bd.wav
256,192,94514,1,0,0:0:0:20:normal-hitwhistle.wav
36,192,94598,1,0,0:0:0:50:vo-12.wav
182,192,94598,1,0,0:0:0:20:normal-hitwhistle.wav
256,192,94681,1,0,0:0:0:20:normal-hitwhistle.wav
36,192,94764,1,0,0:0:0:50:muon.wav
475,192,94764,1,0,0:0:0:20:bd.wav
182,192,94764,1,0,0:0:0:20:soft-hitnormal.wav
109,192,94764,1,0,0:0:0:20:normal-hitwhistle.wav
402,192,94848,1,0,0:0:0:20:normal-hitwhistle.wav
256,192,94931,1,0,0:0:0:20:normal-hitwhistle.wav
182,192,95014,1,0,0:0:0:20:normal-hitwhistle.wav
109,192,95098,1,0,0:0:0:20:normal-hitwhistle.wav
36,192,95098,1,0,0:0:0:20:bd.wav
402,192,95098,128,0,96431:0:0:0:35:sublead-01_003.wav
256,192,95181,1,0,0:0:0:20:normal-hitwhistle.wav
36,192,95264,1,0,0:0:0:50:vo-05.wav
109,192,95264,1,0,0:0:0:20:normal-hitwhistle.wav
182,192,95348,1,0,0:0:0:20:soft-hitnormal.wav
329,192,95431,1,0,0:0:0:20:normal-hitwhistle.wav
475,192,95431,1,0,0:0:0:20:bd.wav
256,192,95514,1,0,0:0:0:20:normal-hitwhistle.wav
36,192,95598,1,0,0:0:0:50:vo-05.wav
182,192,95598,1,0,0:0:0:20:soft-hitnormal.wav
329,192,95681,1,0,0:0:0:20:normal-hitwhistle.wav
36,192,95764,1,0,0:0:0:50:vo-05.wav
182,192,95764,1,0,0:0:0:20:normal-hitwhistle.wav
475,192,95764,1,0,0:0:0:20:bd.wav
36,192,95848,1,0,0:0:0:50:vo-05.wav
182,192,95848,1,0,0:0:0:20:soft-hitnormal.wav
36,192,95931,1,0,0:0:0:50:vo-05.wav
182,192,95931,1,0,0:0:0:20:normal-hitwhistle.wav
329,192,96014,1,0,0:0:0:20:normal-hitwhistle.wav
36,192,96098,1,0,0:0:0:50:vo-05.wav
475,192,96098,1,0,0:0:0:20:bd.wav
182,192,96098,1,0,0:0:0:20:soft-hitnormal.wav
256,192,96181,1,0,0:0:0:20:normal-hitwhistle.wav
36,192,96264,1,0,0:0:0:50:vo-05.wav
182,192,96264,1,0,0:0:0:20:soft-hitnormal.wav
329,192,96348,1,0,0:0:0:20:soft-hitnormal.wav
109,192,96431,1,0,0:0:0:20:normal-hitwhistle.wav
475,192,96431,1,0,0:0:0:20:bd.wav
256,192,96431,128,0,97098:0:0:0:35:sublead-01_004.wav
182,192,96514,1,0,0:0:0:20:normal-hitwhistle.wav
36,192,96598,1,0,0:0:0:50:vo-05.wav
402,192,96598,1,0,0:0:0:20:normal-hitwhistle.wav
475,192,96681,1,0,0:0:0:20:soft-hitnormal.wav
109,192,96764,1,0,0:0:0:20:normal-hitwhistle.wav
329,192,96764,1,0,0:0:0:20:bd.wav
182,192,96848,1,0,0:0:0:20:normal-hitwhistle.wav
36,192,96931,1,0,0:0:0:50:vo-05.wav
402,192,96931,1,0,0:0:0:20:soft-hitnormal.wav
329,192,97014,1,0,0:0:0:20:normal-hitwhistle.wav
36,192,97098,1,0,0:0:0:50:vo-05.wav
109,192,97098,1,0,0:0:0:20:normal-hitwhistle.wav
475,192,97098,1,0,0:0:0:20:bd.wav
402,192,97098,128,0,97764:0:0:0:35:sublead-01_005.wav
182,192,97181,1,0,0:0:0:20:soft-hitnormal.wav
256,192,97264,1,0,0:0:0:20:normal-hitwhistle.wav
182,192,97348,1,0,0:0:0:20:normal-hitwhistle.wav
36,192,97431,1,0,0:0:0:50:vo-07.wav
475,192,97431,1,0,0:0:0:20:bd.wav
329,192,97431,1,0,0:0:0:20:soft-hitnormal.wav
109,192,97431,1,0,0:0:0:20:soft-hitnormal.wav
256,192,97514,1,0,0:0:0:20:normal-hitwhistle.wav
182,192,97598,1,0,0:0:0:20:normal-hitwhistle.wav
329,192,97681,1,0,0:0:0:20:soft-hitnormal.wav
109,192,97764,1,0,0:0:0:20:normal-hitwhistle.wav
36,192,97764,1,0,0:0:0:20:bd.wav
182,192,97764,128,0,99098:0:0:0:35:sublead-01_006.wav
256,192,97848,1,0,0:0:0:20:normal-hitwhistle.wav
475,192,97931,1,0,0:0:0:50:vo-05.wav
329,192,97931,1,0,0:0:0:20:normal-hitwhistle.wav
402,192,98014,1,0,0:0:0:20:soft-hitnormal.wav
109,192,98098,1,0,0:0:0:20:normal-hitwhistle.wav
36,192,98098,1,0,0:0:0:20:bd.wav
329,192,98181,1,0,0:0:0:20:normal-hitwhistle.wav
475,192,98264,1,0,0:0:0:50:vo-05.wav
402,192,98264,1,0,0:0:0:20:soft-hitnormal.wav
256,192,98348,1,0,0:0:0:20:normal-hitwhistle.wav
475,192,98431,1,0,0:0:0:50:vo-05.wav
329,192,98431,1,0,0:0:0:20:normal-hitwhistle.wav
36,192,98431,1,0,0:0:0:20:bd.wav
475,192,98514,1,0,0:0:0:50:vo-05.wav
329,192,98514,1,0,0:0:0:20:soft-hitnormal.wav
475,192,98598,1,0,0:0:0:50:vo-05.wav
329,192,98598,1,0,0:0:0:20:normal-hitwhistle.wav
109,192,98681,1,0,0:0:0:20:normal-hitwhistle.wav
475,192,98764,1,0,0:0:0:50:vo-05.wav
36,192,98764,1,0,0:0:0:20:bd.wav
329,192,98764,1,0,0:0:0:20:soft-hitnormal.wav
256,192,98848,1,0,0:0:0:20:normal-hitwhistle.wav
475,192,98931,1,0,0:0:0:50:vo-05.wav
329,192,98931,1,0,0:0:0:20:normal-hitwhistle.wav
256,192,99014,1,0,0:0:0:20:soft-hitnormal.wav
402,192,99098,1,0,0:0:0:20:normal-hitwhistle.wav
36,192,99098,1,0,0:0:0:20:bd.wav
475,192,99098,128,0,100431:0:0:0:35:sublead-01_007.wav
329,192,99181,1,0,0:0:0:20:normal-hitwhistle.wav
109,192,99264,1,0,0:0:0:50:vo-05.wav
256,192,99264,1,0,0:0:0:20:normal-hitwhistle.wav
329,192,99348,1,0,0:0:0:20:soft-hitnormal.wav
182,192,99431,1,0,0:0:0:20:normal-hitwhistle.wav
36,192,99431,1,0,0:0:0:20:bd.wav
256,192,99514,1,0,0:0:0:20:normal-hitwhistle.wav
109,192,99598,1,0,0:0:0:50:vo-05.wav
329,192,99598,1,0,0:0:0:20:soft-hitnormal.wav
402,192,99681,1,0,0:0:0:20:normal-hitwhistle.wav
182,192,99764,1,0,0:0:0:50:vo-05.wav
36,192,99764,1,0,0:0:0:20:bd.wav
329,192,99848,1,0,0:0:0:20:soft-hitnormal.wav
109,192,99931,1,0,0:0:0:50:vo-12.wav
256,192,99931,1,0,0:0:0:20:normal-hitwhistle.wav
402,192,100014,1,0,0:0:0:20:normal-hitwhistle.wav
109,192,100098,1,0,0:0:0:50:muon.wav
36,192,100098,1,0,0:0:0:20:bd.wav
256,192,100098,1,0,0:0:0:20:soft-hitnormal.wav
182,192,100098,1,0,0:0:0:20:soft-hitnormal.wav
329,192,100181,1,0,0:0:0:20:normal-hitwhistle.wav
36,192,100264,1,0,0:0:0:20:bd.wav
329,192,100348,1,0,0:0:0:20:normal-hitwhistle.wav
256,192,100431,1,0,0:0:0:20:normal-hitwhistle.wav
36,192,100431,1,0,0:0:0:20:bd.wav
182,192,100431,128,0,103098:0:0:0:35:sublead-01_008.wav
329,192,100514,1,0,0:0:0:20:normal-hitwhistle.wav
475,192,100598,1,0,0:0:0:50:vo-05.wav
402,192,100598,1,0,0:0:0:20:normal-hitwhistle.wav
109,192,100681,1,0,0:0:0:20:soft-hitnormal.wav
256,192,100764,1,0,0:0:0:20:normal-hitwhistle.wav
36,192,100764,1,0,0:0:0:20:bd.wav
329,192,100848,1,0,0:0:0:20:normal-hitwhistle.wav
475,192,100931,1,0,0:0:0:50:vo-05.wav
402,192,100931,1,0,0:0:0:20:soft-hitnormal.wav
256,192,101014,1,0,0:0:0:20:normal-hitwhistle.wav
475,192,101098,1,0,0:0:0:50:vo-05.wav
329,192,101098,1,0,0:0:0:20:normal-hitwhistle.wav
36,192,101098,1,0,0:0:0:20:bd.wav
475,192,101181,1,0,0:0:0:50:vo-05.wav
329,192,101181,1,0,0:0:0:20:soft-hitnormal.wav
475,192,101264,1,0,0:0:0:50:vo-05.wav
329,192,101264,1,0,0:0:0:20:normal-hitwhistle.wav
109,192,101348,1,0,0:0:0:20:normal-hitwhistle.wav
475,192,101431,1,0,0:0:0:50:vo-05.wav
36,192,101431,1,0,0:0:0:20:bd.wav
329,192,101431,1,0,0:0:0:20:soft-hitnormal.wav
256,192,101514,1,0,0:0:0:20:normal-hitwhistle.wav
475,192,101598,1,0,0:0:0:50:vo-05.wav
329,192,101598,1,0,0:0:0:20:normal-hitwhistle.wav
402,192,101681,1,0,0:0:0:20:soft-hitnormal.wav
109,192,101764,1,0,0:0:0:20:normal-hitwhistle.wav
36,192,101764,1,0,0:0:0:20:bd.wav
256,192,101848,1,0,0:0:0:20:normal-hitwhistle.wav
475,192,101931,1,0,0:0:0:50:vo-05.wav
329,192,101931,1,0,0:0:0:20:normal-hitwhistle.wav
256,192,102014,1,0,0:0:0:20:soft-hitnormal.wav
109,192,102098,1,0,0:0:0:20:normal-hitwhistle.wav
36,192,102098,1,0,0:0:0:20:bd.wav
329,192,102181,1,0,0:0:0:20:normal-hitwhistle.wav
475,192,102264,1,0,0:0:0:50:vo-05.wav
402,192,102264,1,0,0:0:0:20:soft-hitnormal.wav
256,192,102348,1,0,0:0:0:20:normal-hitwhistle.wav
475,192,102431,1,0,0:0:0:50:vo-05.wav
36,192,102431,1,0,0:0:0:20:bd.wav
329,192,102431,1,0,0:0:0:20:soft-hitnormal.wav
109,192,102514,1,0,0:0:0:20:soft-hitnormal.wav
256,192,102598,1,0,0:0:0:20:normal-hitwhistle.wav
329,192,102681,1,0,0:0:0:20:normal-hitwhistle.wav
475,192,102764,1,0,0:0:0:50:vo-07.wav
36,192,102764,1,0,0:0:0:20:bd.wav
402,192,102764,1,0,0:0:0:20:soft-hitnormal.wav
109,192,102764,1,0,0:0:0:20:soft-hitnormal.wav
256,192,102848,1,0,0:0:0:20:normal-hitwhistle.wav
329,192,102931,1,0,0:0:0:20:normal-hitwhistle.wav
402,192,103014,1,0,0:0:0:20:soft-hitnormal.wav
256,192,103098,1,0,0:0:0:20:normal-hitwhistle.wav
36,192,103098,1,0,0:0:0:20:bd.wav
109,192,103098,128,0,104431:0:0:0:35:sublead-01_009.wav
329,192,103181,1,0,0:0:0:20:normal-hitwhistle.wav
475,192,103264,1,0,0:0:0:50:vo-05.wav
182,192,103264,1,0,0:0:0:20:normal-hitwhistle.wav
256,192,103348,1,0,0:0:0:20:soft-hitnormal.wav
402,192,103431,1,0,0:0:0:20:normal-hitwhistle.wav
36,192,103431,1,0,0:0:0:20:bd.wav
256,192,103514,1,0,0:0:0:20:normal-hitwhistle.wav
475,192,103598,1,0,0:0:0:50:vo-05.wav
329,192,103598,1,0,0:0:0:20:soft-hitnormal.wav
182,192,103681,1,0,0:0:0:20:normal-hitwhistle.wav
475,192,103764,1,0,0:0:0:50:vo-05.wav
329,192,103764,1,0,0:0:0:20:normal-hitwhistle.wav
36,192,103764,1,0,0:0:0:20:bd.wav
475,192,103848,1,0,0:0:0:50:vo-05.wav
329,192,103848,1,0,0:0:0:20:soft-hitnormal.wav
475,192,103931,1,0,0:0:0:50:vo-05.wav
329,192,103931,1,0,0:0:0:20:normal-hitwhistle.wav
182,192,104014,1,0,0:0:0:20:normal-hitwhistle.wav
475,192,104098,1,0,0:0:0:50:vo-05.wav
36,192,104098,1,0,0:0:0:20:bd.wav
402,192,104098,1,0,0:0:0:20:soft-hitnormal.wav
256,192,104181,1,0,0:0:0:20:normal-hitwhistle.wav
475,192,104264,1,0,0:0:0:50:vo-05.wav
402,192,104264,1,0,0:0:0:20:normal-hitwhistle.wav
329,192,104348,1,0,0:0:0:20:soft-hitnormal.wav
182,192,104431,1,0,0:0:0:20:normal-hitwhistle.wav
36,192,104431,1,0,0:0:0:20:bd.wav
402,192,104431,128,0,105764:0:0:0:35:sublead-01_010.wav
256,192,104514,1,0,0:0:0:20:normal-hitwhistle.wav
475,192,104598,1,0,0:0:0:50:vo-05.wav
329,192,104598,1,0,0:0:0:20:normal-hitwhistle.wav
109,192,104681,1,0,0:0:0:20:sn.wav
182,192,104764,1,0,0:0:0:20:normal-hitwhistle.wav
36,192,104764,1,0,0:0:0:20:bd.wav
256,192,104848,1,0,0:0:0:20:normal-hitwhistle.wav
475,192,104931,1,0,0:0:0:50:vo-05.wav
182,192,104931,1,0,0:0:0:20:soft-hitnormal.wav
256,192,105014,1,0,0:0:0:20:normal-hitwhistle.wav
475,192,105098,1,0,0:0:0:50:vo-05.wav
329,192,105098,1,0,0:0:0:20:normal-hitwhistle.wav
36,192,105098,1,0,0:0:0:20:bd.wav
182,192,105181,1,0,0:0:0:20:sn.wav
475,192,105264,1,0,0:0:0:50:vo-12.wav
329,192,105264,1,0,0:0:0:20:normal-hitwhistle.wav
256,192,105348,1,0,0:0:0:20:normal-hitwhistle.wav
475,192,105431,1,0,0:0:0:50:muon.wav
36,192,105431,1,0,0:0:0:20:bd.wav
182,192,105431,1,0,0:0:0:50:sn.wav
36,192,105598,1,0,0:0:0:20:bd.wav
256,192,105598,1,0,0:0:0:50:sn.wav
36,192,105764,1,0,0:0:0:20:bd.wav
109,192,105764,1,0,0:0:0:50:sn.wav
182,192,105764,1,0,0:0:0:60:cym-01.wav
475,192,105764,1,0,0:0:0:50:fx-02.wav
329,192,105764,1,0,0:0:0:20:normal-hitwhistle.wav
402,192,105931,1,0,0:0:0:50:vo-05.wav
329,192,105931,1,0,0:0:0:20:normal-hitwhistle.wav
182,192,105931,1,0,0:0:0:50:sn.wav
36,192,105931,1,0,0:0:0:30:bd.wav
256,192,106098,1,0,0:0:0:20:normal-hitwhistle.wav
329,192,106098,1,0,0:0:0:50:sn.wav
109,192,106098,1,0,0:0:0:30:bd.wav
475,192,106098,1,0,0:0:0:50:soft-hitnormal.wav
402,192,106264,1,0,0:0:0:50:vo-05.wav
182,192,106264,1,0,0:0:0:50:sn.wav
36,192,106264,1,0,0:0:0:30:bd.wav
256,192,106264,1,0,0:0:0:20:normal-hitwhistle.wav
475,192,106431,1,0,0:0:0:50:vo-05.wav
329,192,106431,1,0,0:0:0:20:normal-hitwhistle.wav
256,192,106431,1,0,0:0:0:50:sn.wav
109,192,106431,1,0,0:0:0:30:bd.wav
402,192,106598,1,0,0:0:0:50:vo-05.wav
329,192,106598,1,0,0:0:0:20:normal-hitwhistle.wav
182,192,106598,1,0,0:0:0:50:sn.wav
36,192,106598,1,0,0:0:0:30:bd.wav
475,192,106764,1,0,0:0:0:50:vo-05.wav
256,192,106764,1,0,0:0:0:50:sn.wav
109,192,106764,1,0,0:0:0:30:bd.wav
329,192,106764,1,0,0:0:0:20:normal-hitwhistle.wav
475,192,106931,1,0,0:0:0:50:vo-05.wav
329,192,106931,1,0,0:0:0:20:normal-hitwhistle.wav
182,192,106931,1,0,0:0:0:50:sn.wav
36,192,106931,1,0,0:0:0:30:bd.wav
329,192,107098,1,0,0:0:0:20:normal-hitwhistle.wav
109,192,107098,1,0,0:0:0:30:bd.wav
182,192,107098,1,0,0:0:0:50:sn.wav
402,192,107098,1,0,0:0:0:50:soft-hitnormal.wav
402,192,107264,1,0,0:0:0:50:vo-05.wav
256,192,107264,1,0,0:0:0:20:normal-hitwhistle.wav
36,192,107264,1,0,0:0:0:30:bd.wav
109,192,107264,1,0,0:0:0:50:sn.wav
329,192,107431,1,0,0:0:0:20:normal-hitwhistle.wav
36,192,107431,1,0,0:0:0:30:bd.wav
182,192,107431,1,0,0:0:0:50:sn.wav
475,192,107431,1,0,0:0:0:50:soft-hitnormal.wav
475,192,107598,1,0,0:0:0:50:vo-05.wav
109,192,107598,1,0,0:0:0:30:bd.wav
256,192,107598,1,0,0:0:0:50:sn.wav
402,192,107598,1,0,0:0:0:20:normal-hitwhistle.wav
402,192,107764,1,0,0:0:0:50:vo-05.wav
329,192,107764,1,0,0:0:0:20:normal-hitwhistle.wav
36,192,107764,1,0,0:0:0:30:bd.wav
182,192,107764,1,0,0:0:0:50:sn.wav
329,192,107931,1,0,0:0:0:20:normal-hitwhistle.wav
109,192,107931,1,0,0:0:0:30:bd.wav
256,192,107931,1,0,0:0:0:50:sn.wav
475,192,107931,1,0,0:0:0:50:soft-hitnormal.wav
256,192,108098,1,0,0:0:0:20:normal-hitwhistle.wav
402,192,108098,1,0,0:0:0:50:vo-07.wav
36,192,108098,1,0,0:0:0:30:bd.wav
182,192,108098,1,0,0:0:0:50:sn.wav
329,192,108264,1,0,0:0:0:20:normal-hitwhistle.wav
182,192,108264,1,0,0:0:0:30:bd.wav
36,192,108264,1,0,0:0:0:50:sn.wav
475,192,108264,1,0,0:0:0:50:soft-hitnormal.wav
475,192,108431,1,0,0:0:0:50:sn.wav
36,192,108431,1,0,0:0:0:30:bd.wav
109,192,108431,1,0,0:0:0:20:normal-hitwhistle.wav
402,192,108431,1,0,0:0:0:20:normal-hitwhistle.wav
329,192,108514,1,0,0:0:0:50:sn.wav
182,192,108514,1,0,0:0:0:30:bd.wav
475,192,108598,1,0,0:0:0:50:sn.wav
36,192,108598,1,0,0:0:0:30:bd.wav
109,192,108598,1,0,0:0:0:20:normal-hitwhistle.wav
402,192,108598,1,0,0:0:0:20:normal-hitwhistle.wav
182,192,108681,1,0,0:0:0:30:bd.wav
329,192,108681,1,0,0:0:0:50:sn.wav
256,192,108764,1,0,0:0:0:30:bd.wav
109,192,108764,1,0,0:0:0:20:normal-hitwhistle.wav
402,192,108764,1,0,0:0:0:20:soft-hitnormal.wav
329,192,108848,1,0,0:0:0:20:normal-hitwhistle.wav
182,192,108848,1,0,0:0:0:30:bd.wav
256,192,108931,1,0,0:0:0:30:bd.wav
109,192,108931,1,0,0:0:0:20:normal-hitwhistle.wav
402,192,108931,1,0,0:0:0:20:soft-hitnormal.wav
329,192,109014,1,0,0:0:0:20:normal-hitwhistle.wav
182,192,109014,1,0,0:0:0:30:bd.wav
36,192,109098,1,0,0:0:0:30:bd.wav
475,192,109098,1,0,0:0:0:50:sn.wav
256,192,109098,1,0,0:0:0:50:sn.wav
109,192,109181,1,0,0:0:0:30:bd.wav
402,192,109181,1,0,0:0:0:50:sn.wav
182,192,109264,1,0,0:0:0:30:bd.wav
329,192,109264,1,0,0:0:0:50:sn.wav
109,192,109348,1,0,0:0:0:30:bd.wav
402,192,109348,1,0,0:0:0:50:sn.wav
36,192,109431,1,0,0:0:0:30:bd.wav
475,192,109431,1,0,0:0:0:50:sn.wav
256,192,109431,1,0,0:0:0:50:sn.wav
109,192,109514,1,0,0:0:0:30:bd.wav
402,192,109514,1,0,0:0:0:50:sn.wav
182,192,109598,1,0,0:0:0:30:bd.wav
329,192,109598,1,0,0:0:0:50:sn.wav
109,192,109681,1,0,0:0:0:30:bd.wav
402,192,109681,1,0,0:0:0:50:sn.wav
256,192,109764,1,0,0:0:0:50:sn.wav
182,192,109806,1,0,0:0:0:50:sn.wav
109,192,109848,1,0,0:0:0:50:sn.wav
36,192,109889,1,0,0:0:0:50:sn.wav
329,192,109931,1,0,0:0:0:50:sn.wav
256,192,109973,1,0,0:0:0:50:sn.wav
182,192,110014,1,0,0:0:0:50:sn.wav
109,192,110056,1,0,0:0:0:50:sn.wav
402,192,110098,1,0,0:0:0:50:sn.wav
329,192,110139,1,0,0:0:0:50:sn.wav
256,192,110181,1,0,0:0:0:50:sn.wav
182,192,110223,1,0,0:0:0:50:sn.wav
475,192,110264,1,0,0:0:0:50:sn.wav
402,192,110306,1,0,0:0:0:50:sn.wav
329,192,110348,1,0,0:0:0:50:sn.wav
256,192,110389,1,0,0:0:0:50:sn.wav
182,192,110431,1,0,0:0:0:20:sn.wav
109,192,110431,1,0,0:0:0:20:cym-01.wav
36,192,110431,1,0,0:0:0:30:bd.wav
329,192,110514,1,0,0:0:0:60:bd.wav
329,192,110598,1,0,0:0:0:60:bd.wav
182,192,110681,1,0,0:0:0:20:sn.wav
36,192,110681,1,0,0:0:0:30:bd.wav
109,192,110681,1,0,0:0:0:20:cym-01.wav
402,192,110764,1,0,0:0:0:60:bd.wav
402,192,110848,1,0,0:0:0:60:bd.wav
182,192,110931,1,0,0:0:0:20:sn.wav
36,192,110931,1,0,0:0:0:30:bd.wav
109,192,110931,1,0,0:0:0:20:cym-01.wav
475,192,111014,1,0,0:0:0:60:bd.wav
36,192,111098,1,0,0:0:0:30:bd.wav
475,192,111098,1,0,0:0:0:60:fx-02.wav
402,192,111098,1,0,0:0:0:20:soft-hitnormal.wav
329,192,111098,1,0,0:0:0:20:sn.wav
182,192,111098,1,0,0:0:0:20:cym-01.wav
