osu file format v14

[General]
AudioFilename: ApolloN.mp3
AudioLeadIn: 0
PreviewTime: 23098
Countdown: 0
SampleSet: Normal
StackLeniency: 0.7
Mode: 3
LetterboxInBreaks: 0
SpecialStyle: 0
WidescreenStoryboard: 0

[Editor]
DistanceSpacing: 1.2
BeatDivisor: 4
GridSize: 4
TimelineZoom: 2.3

[Metadata]
Title:ApolloN
TitleUnicode:ApolloN
Artist:sun3
ArtistUnicode:sun3
Creator:bbu2
Version:4K Easy
Source:3S:Sabin Sound Star
Tags:EZ2DJ:BE lein-
BeatmapID:674031
BeatmapSetID:290702

[Difficulty]
HPDrainRate:6
CircleSize:4
OverallDifficulty:6
ApproachRate:5
SliderMultiplier:1.4
SliderTickRate:1

[Events]
//Background and Video events
Video,-16,"bga.flv"
0,0,"EZ.jpg",0,0
//Break Periods
//Storyboard Layer 0 (Background)
//Storyboard Layer 1 (Fail)
//Storyboard Layer 2 (Pass)
//Storyboard Layer 3 (Foreground)
//Storyboard Sound Samples

[TimingPoints]
1765,333.333333333333,4,1,1,70,1,0
23098,-100,4,1,1,70,0,1
44431,-100,4,1,1,70,0,0
60431,-100,4,1,1,70,0,1
65764,-100,4,1,1,70,0,0
84431,-100,4,1,1,70,0,1
111098,-100,4,1,1,70,0,0

[HitObjects]
475,192,1764,5,0,0:0:0:30:mloop_000.wav
329,192,2098,1,0,0:0:0:30:mloop_001.wav
182,192,2598,128,0,2931:0:0:0:30:mloop_002.wav
36,192,3098,1,0,0:0:0:30:mloop_003.wav
256,192,3431,1,0,0:0:0:30:mloop_004.wav
402,192,3931,128,0,4264:0:0:0:30:mloop_005.wav
192,192,4431,1,0,0:0:0:30:mloop_006.wav
448,192,4764,1,0,0:0:0:30:mloop_007.wav
109,192,5264,128,0,5598:0:0:0:30:mloop_005.wav
256,192,5764,1,0,0:0:0:30:mloop_009.wav
402,192,6098,1,0,0:0:0:30:mloop_010.wav
182,192,6598,128,0,6931:0:0:0:30:mloop_011.wav
475,192,7098,1,0,0:0:0:30:mloop_000.wav
192,192,7431,1,0,0:0:0:30:mloop_001.wav
329,192,7931,128,0,8264:0:0:0:30:mloop_002.wav
109,192,8431,1,0,0:0:0:30:mloop_003.wav
320,192,8764,1,0,0:0:0:30:mloop_004.wav
182,192,9264,128,0,9598:0:0:0:30:mloop_005.wav
475,192,9764,1,0,0:0:0:30:mloop_006.wav
320,192,10098,1,0,0:0:0:30:mloop_007.wav
320,192,10598,128,0,10931:0:0:0:30:mloop_005.wav
36,192,11098,1,0,0:0:0:30:mloop_009.wav
192,192,11431,1,0,0:0:0:30:mloop_010.wav
192,192,11931,128,0,12264:0:0:0:30:mloop_011.wav
475,192,12431,1,0,0:0:0:30:mloop_000.wav
320,192,12764,1,0,0:0:0:30:mloop_001.wav
329,192,13264,128,0,13598:0:0:0:30:mloop_002.wav
182,192,13764,1,0,0:0:0:30:mloop_003.wav
402,192,14098,1,0,0:0:0:30:mloop_004.wav
64,192,14598,128,0,14931:0:0:0:30:mloop_005.wav
192,192,15098,1,0,0:0:0:30:mloop_006.wav
256,192,15431,1,0,0:0:0:30:mloop_007.wav
448,192,15931,128,0,16264:0:0:0:30:mloop_005.wav
109,192,16431,1,0,0:0:0:30:mloop_009.wav
320,192,16764,1,0,0:0:0:30:mloop_010.wav
192,192,17264,128,0,17598:0:0:0:30:mloop_011.wav
475,192,18098,1,0,0:0:0:10:clap.wav
329,192,18764,1,0,0:0:0:10:clap.wav
182,192,19431,1,0,0:0:0:10:clap.wav
64,192,20098,1,0,0:0:0:60:bd.wav
448,192,20431,128,0,20764:0:0:0:20:bd2.wav
192,192,20764,1,0,0:0:0:20:sn.wav
320,192,21098,128,0,21431:0:0:0:20:bd2.wav
64,192,21431,1,0,0:0:0:20:sn.wav
475,192,21764,1,0,0:0:0:20:cym-01.wav
329,192,22098,1,0,0:0:0:20:cym-01.wav
182,192,22431,1,0,0:0:0:20:cym-01.wav
402,192,23098,1,0,0:0:0:15:vo-05.wav
256,192,23348,1,0,0:0:0:15:vo-05.wav
192,192,23598,1,0,0:0:0:15:vo-05.wav
402,192,23764,1,0,0:0:0:20:vo-07.wav
64,192,24098,1,0,0:0:0:20:vo-06.wav
329,192,24431,1,0,0:0:0:15:vo-05.wav
182,192,24598,1,0,0:0:0:15:vo-05.wav
402,192,24764,1,0,0:0:0:20:vo-07.wav
192,192,25098,1,0,0:0:0:15:vo-05.wav
109,192,25264,1,0,0:0:0:20:vo-12.wav
320,192,25431,1,0,0:0:0:20:vo-13.wav
64,192,25764,1,0,0:0:0:15:vo-05.wav
192,192,26014,1,0,0:0:0:15:vo-05.wav
320,192,26264,1,0,0:0:0:15:vo-05.wav
64,192,26431,1,0,0:0:0:20:vo-07.wav
448,192,26764,1,0,0:0:0:20:vo-06.wav
256,192,27098,1,0,0:0:0:15:vo-05.wav
182,192,27264,1,0,0:0:0:15:vo-05.wav
402,192,27431,1,0,0:0:0:20:vo-07.wav
64,192,27764,1,0,0:0:0:20:vo-15.wav
192,192,27931,1,0,0:0:0:20:vo-14.wav
448,192,28431,1,0,0:0:0:15:vo-05.wav
320,192,28681,1,0,0:0:0:15:vo-05.wav
192,192,28931,1,0,0:0:0:15:vo-05.wav
448,192,29098,1,0,0:0:0:20:vo-07.wav
109,192,29431,1,0,0:0:0:20:vo-06.wav
320,192,29764,1,0,0:0:0:15:vo-05.wav
192,192,29931,1,0,0:0:0:15:vo-05.wav
402,192,30098,1,0,0:0:0:20:vo-07.wav
192,192,30431,1,0,0:0:0:15:vo-05.wav
64,192,30598,1,0,0:0:0:20:vo-12.wav
320,192,30764,1,0,0:0:0:20:vo-13.wav
64,192,31098,1,0,0:0:0:15:vo-05.wav
192,192,31348,1,0,0:0:0:15:vo-05.wav
320,192,31598,1,0,0:0:0:15:vo-05.wav
64,192,31764,1,0,0:0:0:20:vo-07.wav
448,192,32098,1,0,0:0:0:20:vo-06.wav
192,192,32431,1,0,0:0:0:15:vo-05.wav
320,192,32598,1,0,0:0:0:15:vo-05.wav
64,192,32764,1,0,0:0:0:20:vo-07.wav
192,192,33098,1,0,0:0:0:15:cym-02.wav
192,192,33348,1,0,0:0:0:15:cym-02.wav
192,192,33598,1,0,0:0:0:15:cym-01.wav
402,192,33764,1,0,0:0:0:20:soft-hitnormal.wav
192,192,34098,1,0,0:0:0:20:soft-hitnormal.wav
320,192,34431,1,0,0:0:0:20:soft-hitnormal.wav
64,192,34764,1,0,0:0:0:20:soft-hitnormal.wav
448,192,35098,1,0,0:0:0:20:soft-hitnormal.wav
192,192,35431,1,0,0:0:0:20:soft-hitnormal.wav
64,192,35764,1,0,0:0:0:20:soft-hitnormal.wav
192,192,35931,1,0,0:0:0:20:soft-hitnormal.wav
320,192,36098,1,0,0:0:0:20:soft-hitnormal.wav
192,192,36264,1,0,0:0:0:20:soft-hitnormal.wav
475,192,36431,1,0,0:0:0:20:soft-hitnormal.wav
329,192,36764,1,0,0:0:0:20:soft-hitnormal.wav
109,192,37098,1,0,0:0:0:20:soft-hitnormal.wav
182,192,37431,1,0,0:0:0:20:soft-hitnormal.wav
448,192,37764,1,0,0:0:0:20:soft-hitnormal.wav
320,192,38098,1,0,0:0:0:20:soft-hitnormal.wav
192,192,38431,1,0,0:0:0:20:soft-hitnormal.wav
109,192,38598,1,0,0:0:0:20:soft-hitnormal.wav
320,192,38764,1,0,0:0:0:20:soft-hitnormal.wav
182,192,38931,1,0,0:0:0:20:soft-hitnormal.wav
475,192,39098,1,0,0:0:0:20:soft-hitnormal.wav
192,192,39431,1,0,0:0:0:20:soft-hitnormal.wav
320,192,39764,1,0,0:0:0:20:soft-hitnormal.wav
64,192,40098,1,0,0:0:0:20:soft-hitnormal.wav
448,192,40431,1,0,0:0:0:20:soft-hitnormal.wav
192,192,40764,1,0,0:0:0:20:soft-hitnormal.wav
64,192,41098,1,0,0:0:0:20:soft-hitnormal.wav
192,192,41264,1,0,0:0:0:20:soft-hitnormal.wav
329,192,41431,1,0,0:0:0:20:soft-hitnormal.wav
192,192,41598,1,0,0:0:0:20:soft-hitnormal.wav
402,192,41764,1,0,0:0:0:20:soft-hitnormal.wav
256,192,42098,1,0,0:0:0:20:soft-hitnormal.wav
109,192,42431,1,0,0:0:0:20:soft-hitnormal.wav
182,192,42764,1,0,0:0:0:20:soft-hitnormal.wav
475,192,43098,1,0,0:0:0:20:soft-hitnormal.wav
320,192,43431,1,0,0:0:0:20:soft-hitnormal.wav
36,192,43764,1,0,0:0:0:20:normal-hitwhistle.wav
182,192,44014,1,0,0:0:0:20:normal-hitwhistle.wav
329,192,44264,1,0,0:0:0:20:normal-hitwhistle.wav
402,192,44431,128,0,45764:0:0:0:40:moop2_000.wav
109,192,44431,1,0,0:0:0:20:fx-01.wav
182,192,47098,128,0,48431:0:0:0:40:moop2_017.wav
320,192,49764,128,0,51098:0:0:0:40:moop2_000.wav
109,192,52431,128,0,53764:0:0:0:40:moop2_017.wav
36,192,55098,1,0,0:0:0:15:cym-01.wav
475,192,55098,1,0,0:0:0:70:fx-01.wav
329,192,55431,1,0,0:0:0:50:sn.wav
109,192,55764,1,0,0:0:0:50:sn.wav
402,192,56098,1,0,0:0:0:50:sn.wav
182,192,56431,1,0,0:0:0:50:sn.wav
329,192,56764,1,0,0:0:0:50:sn.wav
109,192,57098,1,0,0:0:0:50:sn.wav
192,192,57431,128,0,57764:0:0:0:50:sn.wav
475,192,57764,1,0,0:0:0:15:cym-01.wav
329,192,58098,1,0,0:0:0:50:sn.wav
109,192,58431,1,0,0:0:0:50:sn.wav
448,192,58764,1,0,0:0:0:50:sn.wav
192,192,59098,1,0,0:0:0:50:sn.wav
320,192,59431,1,0,0:0:0:50:sn.wav
64,192,59764,1,0,0:0:0:50:sn.wav
329,192,60098,1,0,0:0:0:50:sn.wav
182,192,60431,1,0,0:0:0:50:bd.wav
475,192,60431,1,0,0:0:0:20:cym-01.wav
402,192,61098,1,0,0:0:0:20:cym-01.wav
109,192,61098,1,0,0:0:0:20:bd.wav
36,192,61764,1,0,0:0:0:20:bd.wav
329,192,61764,1,0,0:0:0:10:soft-hitnormal.wav
402,192,62431,1,0,0:0:0:10:soft-hitnormal.wav
182,192,62431,1,0,0:0:0:20:bd.wav
448,192,63098,1,0,0:0:0:15:cym-01.wav
448,192,63431,1,0,0:0:0:15:cym-01.wav
448,192,63764,1,0,0:0:0:15:cym-01.wav
448,192,64098,1,0,0:0:0:15:cym-01.wav
36,192,64431,1,0,0:0:0:20:cym-02.wav
182,192,64598,1,0,0:0:0:20:cym-02.wav
329,192,64764,1,0,0:0:0:20:cym-02.wav
475,192,64931,1,0,0:0:0:20:cym-02.wav
192,192,65098,1,0,0:0:0:20:cym-01.wav
320,192,65348,1,0,0:0:0:20:cym-01.wav
448,192,65598,1,0,0:0:0:20:cym-01.wav
36,192,65764,1,0,0:0:0:20:cym-01.wav
36,192,67098,1,0,0:0:0:20:riff-04_000.wav
182,192,67431,1,0,0:0:0:20:riff-04_004.wav
329,192,67764,1,0,0:0:0:20:riff-04_008.wav
475,192,68098,1,0,0:0:0:20:riff-04_012.wav
36,192,68431,128,0,68764:0:0:0:30:bd.wav
329,192,68764,1,0,0:0:0:30:bd.wav
475,192,69098,128,0,69431:0:0:0:30:bd.wav
192,192,69431,1,0,0:0:0:30:bd.wav
109,192,69764,128,0,70098:0:0:0:30:bd.wav
329,192,70098,1,0,0:0:0:30:bd.wav
36,192,70431,1,0,0:0:0:10:soft-hitnormal.wav
182,192,70598,1,0,0:0:0:10:soft-hitnormal.wav
329,192,70764,1,0,0:0:0:20:normal-hitwhistle.wav
475,192,70931,1,0,0:0:0:20:normal-hitwhistle.wav
329,192,71098,128,0,71431:0:0:0:10:soft-hitnormal.wav
109,192,71431,1,0,0:0:0:30:bd.wav
182,192,71764,128,0,72098:0:0:0:10:soft-hitnormal.wav
402,192,72098,1,0,0:0:0:10:soft-hitnormal.wav
320,192,72431,128,0,72764:0:0:0:30:bd.wav
64,192,72764,1,0,0:0:0:30:bd.wav
256,192,73098,1,0,0:0:0:30:bd.wav
109,192,73264,1,0,0:0:0:20:normal-hitwhistle.wav
448,192,73431,1,0,0:0:0:20:normal-hitwhistle.wav
192,192,73598,1,0,0:0:0:20:normal-hitwhistle.wav
448,192,73764,128,0,74098:0:0:0:30:bd.wav
320,192,74098,1,0,0:0:0:30:bd.wav
320,192,74431,128,0,74764:0:0:0:10:soft-hitnormal.wav
192,192,74764,1,0,0:0:0:10:soft-hitnormal.wav
192,192,75098,128,0,75431:0:0:0:10:soft-hitnormal.wav
64,192,75431,1,0,0:0:0:30:bd.wav
448,192,75764,1,0,0:0:0:10:soft-hitnormal.wav
192,192,75931,1,0,0:0:0:10:soft-hitnormal.wav
320,192,76098,1,0,0:0:0:10:soft-hitnormal.wav
64,192,76264,1,0,0:0:0:10:soft-hitnormal.wav
192,192,76431,128,0,76764:0:0:0:30:bd.wav
448,192,76764,1,0,0:0:0:30:bd.wav
64,192,77098,128,0,77431:0:0:0:30:bd.wav
320,192,77431,1,0,0:0:0:30:bd.wav
192,192,77764,128,0,78098:0:0:0:30:bd.wav
448,192,78098,1,0,0:0:0:10:soft-hitnormal.wav
192,192,78431,1,0,0:0:0:20:normal-hitwhistle.wav
320,192,78681,1,0,0:0:0:20:normal-hitwhistle.wav
448,192,78931,1,0,0:0:0:10:soft-hitnormal.wav
109,192,79098,1,0,0:0:0:20:cym-01.wav
192,192,79431,1,0,0:0:0:20:bd.wav
36,192,79764,1,0,0:0:0:20:bd.wav
448,192,80098,1,0,0:0:0:50:vo-05.wav
320,192,80264,1,0,0:0:0:50:vo-06.wav
192,192,80431,1,0,0:0:0:20:cym-01.wav
64,192,80764,1,0,0:0:0:20:bd.wav
320,192,81098,1,0,0:0:0:50:vo-15.wav
192,192,81264,1,0,0:0:0:50:vo-15.wav
109,192,81431,128,0,81764:0:0:0:20:bd.wav
475,192,81764,1,0,0:0:0:20:cym-01.wav
256,192,82098,1,0,0:0:0:20:bd.wav
109,192,82431,1,0,0:0:0:20:bd.wav
182,192,82764,1,0,0:0:0:50:vo-05.wav
329,192,82931,1,0,0:0:0:50:vo-06.wav
475,192,83098,1,0,0:0:0:20:cym-01.wav
182,192,83431,1,0,0:0:0:20:bd.wav
402,192,83764,1,0,0:0:0:50:vo-15.wav
329,192,83931,1,0,0:0:0:50:vo-15.wav
192,192,84098,128,0,84431:0:0:0:10:cymr.wav
36,192,84764,1,0,0:0:0:50:bd.wav
256,192,84764,1,0,0:0:0:50:clap.wav
109,192,85431,1,0,0:0:0:50:bd.wav
329,192,85431,1,0,0:0:0:50:clap.wav
182,192,86098,1,0,0:0:0:50:bd.wav
402,192,86098,1,0,0:0:0:50:clap.wav
192,192,86764,1,0,0:0:0:50:bd.wav
475,192,86764,1,0,0:0:0:50:clap.wav
402,192,87098,1,0,0:0:0:50:cym-01.wav
109,192,87098,1,0,0:0:0:50:vo-15.wav
329,192,87764,1,0,0:0:0:50:cym-01.wav
182,192,87764,1,0,0:0:0:50:vo-15.wav
475,192,88431,128,0,89098:0:0:0:50:vo-15-2.wav
36,192,88431,128,0,89098:0:0:0:50:cym-01.wav
182,192,89098,1,0,0:0:0:20:cym-02.wav
256,192,89348,1,0,0:0:0:20:cym-02.wav
402,192,89598,1,0,0:0:0:20:cym-01.wav
329,192,89764,128,0,92431:0:0:0:35:sublead-01_000.wav
109,192,90098,1,0,0:0:0:15:clap.wav
182,192,90764,1,0,0:0:0:15:clap.wav
109,192,91431,1,0,0:0:0:15:clap.wav
448,192,92098,1,0,0:0:0:15:clap.wav
64,192,92431,128,0,93764:0:0:0:35:sublead-01_001.wav
192,192,92764,1,0,0:0:0:15:clap.wav
320,192,93431,1,0,0:0:0:15:clap.wav
448,192,93764,128,0,95098:0:0:0:35:sublead-01_002.wav
192,192,94098,1,0,0:0:0:15:clap.wav
320,192,94764,1,0,0:0:0:15:clap.wav
192,192,95098,128,0,96431:0:0:0:35:sublead-01_003.wav
109,192,95431,1,0,0:0:0:15:clap.wav
448,192,96098,1,0,0:0:0:15:clap.wav
256,192,96431,128,0,97098:0:0:0:35:sublead-01_004.wav
109,192,96764,1,0,0:0:0:15:clap.wav
402,192,97098,128,0,97764:0:0:0:35:sublead-01_005.wav
192,192,97431,1,0,0:0:0:15:clap.wav
64,192,97764,128,0,99098:0:0:0:35:sublead-01_006.wav
448,192,98098,1,0,0:0:0:15:clap.wav
320,192,98764,1,0,0:0:0:15:clap.wav
475,192,99098,128,0,100431:0:0:0:35:sublead-01_007.wav
192,192,99431,1,0,0:0:0:15:clap.wav
64,192,100098,1,0,0:0:0:15:clap.wav
192,192,100431,128,0,103098:0:0:0:35:sublead-01_008.wav
320,192,100431,1,0,0:0:0:50:bd.wav
475,192,100764,1,0,0:0:0:50:bd.wav
320,192,101098,1,0,0:0:0:50:bd.wav
64,192,101431,1,0,0:0:0:50:bd.wav
329,192,101764,1,0,0:0:0:50:bd.wav
402,192,102098,1,0,0:0:0:50:bd.wav
320,192,102431,1,0,0:0:0:50:bd.wav
448,192,102764,1,0,0:0:0:50:bd.wav
64,192,103098,128,0,104431:0:0:0:35:sublead-01_009.wav
256,192,103098,1,0,0:0:0:50:bd.wav
192,192,103431,1,0,0:0:0:50:bd.wav
320,192,103764,1,0,0:0:0:50:bd.wav
192,192,104098,1,0,0:0:0:50:bd.wav
320,192,104431,128,0,105764:0:0:0:35:sublead-01_010.wav
448,192,104431,1,0,0:0:0:50:bd.wav
109,192,104764,1,0,0:0:0:50:bd.wav
192,192,105098,1,0,0:0:0:50:bd.wav
448,192,105431,1,0,0:0:0:50:bd.wav
192,192,105764,128,0,107098:0:0:0:35:sublead-01_011.wav
64,192,105764,1,0,0:0:0:50:bd.wav
448,192,106098,1,0,0:0:0:50:bd.wav
64,192,106431,1,0,0:0:0:50:bd.wav
320,192,106764,1,0,0:0:0:50:bd.wav
64,192,107098,128,0,107764:0:0:0:35:sublead-01_012.wav
448,192,107098,1,0,0:0:0:50:bd.wav
320,192,107431,1,0,0:0:0:50:bd.wav
192,192,107764,128,0,108431:0:0:0:35:sublead-01_013.wav
448,192,107764,1,0,0:0:0:50:bd.wav
64,192,108098,1,0,0:0:0:50:bd.wav
320,192,108431,128,0,109764:0:0:0:35:sublead-01_014.wav
448,192,108431,1,0,0:0:0:50:bd.wav
64,192,108764,1,0,0:0:0:50:bd.wav
192,192,109098,1,0,0:0:0:50:bd.wav
109,192,109431,1,0,0:0:0:50:bd.wav
475,192,109764,128,0,111098:0:0:0:35:sublead-01_015.wav
182,192,109764,1,0,0:0:0:50:bd.wav
36,192,110098,1,0,0:0:0:50:bd.wav
192,192,110431,1,0,0:0:0:20:cym-01.wav
192,192,110681,1,0,0:0:0:20:cym-01.wav
192,192,110931,1,0,0:0:0:20:cym-01.wav
36,192,111098,1,0,0:0:0:20:cym-01.wav
