osu file format v9

[General]
AudioFilename: Act.mp3
AudioLeadIn: 0
PreviewTime: -1
Countdown: 1
SampleSet: Normal
StackLeniency: 0.7
Mode: 1
LetterboxInBreaks: 1

[Editor]
Bookmarks: 13278,23945,34611,51945,62612,73277,83945,89277,94611
DistanceSpacing: 0.8
BeatDivisor: 4
GridSize: 32

[Metadata]
Title:Act
Artist:sugisaki
Creator:Mic
Version:Muzukashii
Source:
Tags:

[Difficulty]
HPDrainRate:3
CircleSize:3
OverallDifficulty:3
ApproachRate:3
SliderMultiplier:1.4
SliderTickRate:1

[Events]
//Background and Video events
0,0,"bg.JPG"
//Break Periods
//Storyboard Layer 0 (Background)
//Storyboard Layer 1 (Fail)
//Storyboard Layer 2 (Pass)
//Storyboard Layer 3 (Foreground)
//Storyboard Sound Samples
//Background Colour Transformations
3,100,0,0,0

[TimingPoints]
1277,333.333333333333,4,1,0,60,1,0
1277,-166.666666666667,4,1,0,60,0,0
13278,-100,4,1,0,60,0,0
62611,-100,4,1,0,60,0,1
73111,-100,4,1,0,60,0,0

[Colours]
Combo1 : 112,196,193
Combo2 : 243,89,34

[HitObjects]
256,192,2611,5,0
256,192,3111,5,2
256,192,3611,1,2
256,192,3943,5,0
256,192,4443,5,2
256,192,4943,1,2
256,192,5276,5,0
256,192,5776,5,2
256,192,6276,1,2
256,192,6611,5,0
256,192,7111,1,0
256,192,7611,5,2
256,192,7943,5,0
256,192,8443,5,2
256,192,8943,1,2
256,192,9277,5,0
256,192,9777,5,2
256,192,10277,1,2
256,192,10610,5,0
256,192,11110,5,2
256,192,11610,1,2
256,192,11943,5,0
256,192,12443,1,0
256,192,12943,5,2
256,192,13110,1,2
256,192,13277,5,0
256,192,13444,5,2
256,192,13611,5,0
256,192,13776,1,0
256,192,14111,5,2
256,192,14277,5,0
256,192,14611,1,0
256,192,14777,1,0
256,192,14861,1,0
256,192,14944,1,0
256,192,15277,1,0
256,192,15444,1,0
256,192,15527,1,0
256,192,15611,1,0
256,192,15944,1,0
256,192,16111,5,2
256,192,16276,5,0
256,192,16443,1,0
256,192,16776,5,2
256,192,16944,5,0
256,192,17276,1,0
256,192,17444,1,0
256,192,17526,1,0
256,192,17611,1,0
256,192,17944,1,0
256,192,18111,1,0
256,192,18194,1,0
256,192,18276,1,0
256,192,18611,1,0
256,192,18776,5,2
256,192,18943,5,0
256,192,19110,1,0
256,192,19443,5,2
256,192,19611,5,0
256,192,19943,1,0
256,192,20111,1,0
256,192,20193,1,0
256,192,20276,1,0
256,192,20611,1,0
256,192,20776,1,0
256,192,20861,1,0
256,192,20943,1,0
256,192,21277,1,0
256,192,21444,5,2
256,192,21611,5,0
256,192,21776,1,0
256,192,22111,5,2
256,192,22277,5,0
256,192,22611,5,2
256,192,22777,5,0
256,192,22861,1,0
256,192,22944,1,0
256,192,23111,1,0
256,192,23277,1,0
256,192,23444,1,0
256,192,23527,1,0
256,192,23611,1,0
256,192,23944,1,0
256,192,24111,1,0
256,192,24277,5,2
256,192,24444,5,0
256,192,24611,1,0
256,192,24694,1,0
256,192,24777,1,0
256,192,24944,1,0
256,192,25277,1,0
256,192,25444,1,0
256,192,25610,5,2
256,192,25777,5,0
256,192,25944,1,0
256,192,26027,1,0
256,192,26110,1,0
256,192,26277,1,0
256,192,26611,1,0
256,192,26776,1,0
256,192,26944,5,2
256,192,27111,5,0
256,192,27276,1,0
256,192,27361,1,0
256,192,27444,1,0
256,192,27611,1,0
256,192,27944,1,0
256,192,28111,1,0
256,192,28277,5,2
256,192,28444,5,0
256,192,28611,1,0
256,192,28694,1,0
256,192,28777,1,0
256,192,28944,1,0
256,192,29277,1,0
256,192,29444,1,0
256,192,29610,5,2
256,192,29777,5,0
256,192,29944,1,0
256,192,30027,1,0
256,192,30110,1,0
256,192,30277,1,0
256,192,30611,1,0
256,192,30776,1,0
256,192,30944,5,2
256,192,31111,5,0
256,192,31276,1,0
256,192,31361,1,0
256,192,31444,1,0
256,192,31611,1,0
256,192,31944,1,0
256,192,32111,1,0
256,192,32277,5,2
256,192,32444,5,0
256,192,32611,1,0
256,192,32694,1,0
256,192,32777,1,0
256,192,32944,1,0
256,192,33277,1,0
256,192,33444,1,0
256,192,33610,5,2
256,192,33777,5,0
256,192,33944,1,0
256,192,34027,1,0
256,192,34110,1,0
256,192,34277,1,0
256,192,34611,1,0
256,192,34777,1,0
256,192,34944,5,2
256,192,35111,5,0
256,192,35277,5,2
256,192,35361,1,2
256,192,35527,5,0
256,192,35611,1,0
256,192,35944,1,0
256,192,36110,1,0
256,192,36277,5,2
256,192,36361,1,2
256,192,36444,1,2
256,192,36611,1,2
256,192,36777,1,2
256,192,36944,5,0
256,192,37277,1,0
256,192,37443,1,0
256,192,37610,5,2
256,192,37777,5,0
256,192,37943,5,2
256,192,38027,1,2
256,192,38193,5,0
256,192,38277,1,0
256,192,38610,1,0
256,192,38776,1,0
256,192,38943,5,2
256,192,39027,1,2
256,192,39110,1,2
256,192,39276,1,2
256,192,39443,1,2
256,192,39610,5,0
256,192,39944,1,0
256,192,40110,1,0
256,192,40277,5,2
256,192,40444,5,0
256,192,40610,5,2
256,192,40694,1,2
256,192,40860,5,0
256,192,40944,1,0
256,192,41277,1,0
256,192,41443,1,0
256,192,41610,5,2
256,192,41694,1,2
256,192,41777,1,2
256,192,41943,1,2
256,192,42110,1,2
256,192,42277,5,0
256,192,42611,1,0
256,192,42777,1,0
256,192,42944,5,2
256,192,43111,5,0
256,192,43277,5,2
256,192,43361,1,2
256,192,43527,5,0
256,192,43611,1,0
256,192,43944,1,0
256,192,44110,1,0
256,192,44277,5,2
256,192,44361,1,2
256,192,44444,1,2
256,192,44610,1,2
256,192,44777,1,2
256,192,44944,5,0
256,192,45277,1,0
256,192,45444,5,2
256,192,45611,5,0
256,192,45777,5,2
256,192,45944,5,0
256,192,46111,5,2
256,192,46276,5,0
256,192,46444,5,2
256,192,46611,5,0
256,192,46777,5,2
256,192,46944,5,0
256,192,47111,5,2
256,192,47276,5,0
256,192,47444,5,2
256,192,47611,5,0
256,192,47777,5,2
256,192,47944,5,0
256,192,48111,5,2
256,192,48276,5,0
256,192,48444,5,2
256,192,48611,5,0
256,192,48777,5,2
256,192,48944,5,0
256,192,49111,5,2
256,192,49276,5,0
256,192,49444,5,2
256,192,49611,5,0
256,192,49776,5,2
256,192,49943,5,0
256,192,50111,5,2
256,192,50277,5,0
256,192,50443,5,2
256,192,50611,6,0,B|160:192|160:192,6,70
480,64,51944,5,2
480,64,52111,1,2
480,64,52277,5,0
480,64,52444,5,2
480,64,52611,5,0
448,64,52777,5,2
448,64,52944,5,0
448,64,53111,5,2
256,192,53276,1,2
256,192,53610,1,2
448,64,53777,5,0
480,64,54611,5,2
480,64,54776,1,2
480,64,54944,5,0
480,64,55111,5,2
480,64,55276,5,0
448,64,55444,5,2
448,64,55611,5,0
448,64,55776,5,2
256,192,55943,1,2
256,192,56276,1,2
256,192,56443,1,2
480,64,57277,1,2
480,64,57444,1,2
480,64,57610,5,0
480,64,57777,5,2
480,64,57944,5,0
448,64,58110,1,0
448,64,58277,5,2
448,64,58443,1,2
256,192,58610,1,2
256,192,58943,1,2
448,64,59110,5,0
480,64,59944,5,2
480,64,60111,1,2
480,64,60277,5,0
480,64,60444,5,2
480,64,60611,5,0
448,64,60777,1,0
448,64,60944,5,2
448,64,61111,1,2
256,192,61276,1,2
256,192,61610,1,2
448,64,61777,1,2
448,64,62277,1,2
448,64,62444,1,2
448,64,62611,5,0
448,64,62694,1,0
448,64,62777,5,2
448,64,62944,5,0
448,64,63110,5,2
448,64,63277,5,0
448,64,63361,1,0
448,64,63444,5,2
448,64,63611,5,0
448,64,63944,5,2
448,64,64027,1,2
448,64,64111,5,0
448,64,64277,5,2
448,64,64444,5,0
448,64,64610,5,2
448,64,64694,1,2
448,64,64777,5,0
448,64,64943,5,2
448,64,65277,5,0
448,64,65361,1,0
448,64,65444,1,0
448,64,65610,5,2
448,64,65777,5,0
448,64,65943,5,2
448,64,66110,5,0
448,64,66276,5,2
448,64,66611,1,2
448,64,66694,1,2
448,64,66776,1,2
448,64,66943,5,0
448,64,67111,5,2
448,64,67276,5,0
448,64,67443,5,2
448,64,67611,5,0
448,64,67944,1,0
448,64,68111,1,0
448,64,68277,1,0
448,64,68361,1,0
448,64,68444,1,0
256,192,68611,1,0
256,192,68777,1,0
448,64,68944,1,0
448,64,69027,1,0
448,64,69111,1,0
256,192,69277,5,2
256,192,69444,1,2
256,192,69611,1,2
256,192,69694,1,2
448,64,69777,1,2
256,192,69944,1,2
256,192,70111,1,2
256,192,70276,1,2
256,192,70361,1,2
448,64,70444,1,2
448,64,70611,5,0
448,64,70694,1,0
448,64,70777,1,0
448,64,70944,5,2
448,64,71111,5,0
448,64,71277,1,0
448,64,71361,1,0
448,64,71444,1,0
448,64,71611,5,2
448,64,71777,5,0
256,192,71944,1,0
256,192,72027,1,0
256,192,72111,1,0
256,192,72277,5,2
256,192,72444,5,0
256,192,72611,1,0
256,192,72694,1,0
256,192,72777,1,0
256,192,72861,1,0
256,192,72944,5,2
256,192,73111,5,0
256,192,73277,1,4
256,192,73611,1,0
256,192,73777,5,2
256,192,74277,1,2
256,192,74444,5,0
256,192,74611,1,4
256,192,74944,1,0
256,192,75111,5,2
256,192,75611,1,2
256,192,75777,5,0
256,192,75944,1,4
256,192,76277,1,0
256,192,76444,5,2
256,192,76944,1,2
256,192,77110,5,4
256,192,77277,1,4
256,192,77610,1,0
256,192,77777,5,2
256,192,78277,1,2
256,192,78443,5,0
256,192,78610,1,4
256,192,78943,1,0
256,192,79110,5,2
256,192,79611,1,2
256,192,79777,5,0
256,192,79944,1,4
256,192,80277,1,0
256,192,80444,5,2
256,192,80944,1,2
256,192,81110,5,0
256,192,81277,1,4
256,192,81610,1,0
256,192,81777,5,2
256,192,82276,1,2
256,192,82444,5,4
256,192,82611,1,4
256,192,82944,1,0
256,192,83111,5,2
256,192,83611,1,2
256,192,83776,1,2
256,192,83944,5,0
256,192,84111,1,0
256,192,84277,5,2
256,192,84444,1,2
256,192,84611,5,0
256,192,84777,1,0
256,192,84944,5,2
256,192,85277,5,0
256,192,85610,5,2
256,192,85777,5,0
256,192,85944,1,0
256,192,86277,5,2
256,192,86611,5,0
256,192,86777,1,0
256,192,86944,5,2
256,192,87111,1,2
256,192,87276,5,0
256,192,87444,1,0
256,192,87611,5,2
256,192,87944,5,0
256,192,88277,5,2
256,192,88444,5,0
256,192,88611,1,0
256,192,88777,1,0
256,192,88944,5,2
256,192,89111,5,0
256,192,89277,1,0
256,192,89610,5,2
256,192,89944,5,0
256,192,90110,1,0
256,192,90277,5,2
256,192,90611,5,0
256,192,90777,1,0
256,192,90944,5,2
256,192,91276,5,0
256,192,91611,5,2
256,192,91944,5,0
256,192,92277,5,2
256,192,92444,1,2
256,192,92611,5,0
256,192,92777,1,0
256,192,92944,5,2
256,192,93277,5,0
256,192,93610,5,2
256,192,93777,1,2
256,192,93944,5,0
256,192,94110,1,0
256,192,94277,5,2
256,192,94444,1,2
256,192,94611,5,4
