osu file format v9

[General]
AudioFilename: Act.mp3
AudioLeadIn: 0
PreviewTime: -1
Countdown: 1
SampleSet: Normal
StackLeniency: 0.7
Mode: 1
LetterboxInBreaks: 1

[Editor]
Bookmarks: 13278,23944,34611,51945,62612,73277,83945,89277,94611
DistanceSpacing: 0.8
BeatDivisor: 4
GridSize: 32

[Metadata]
Title:Act
Artist:sugisaki
Creator:Mic
Version:Inner Oni
Source:
Tags:

[Difficulty]
HPDrainRate:5
CircleSize:5
OverallDifficulty:5
ApproachRate:5
SliderMultiplier:1.4
SliderTickRate:1

[Events]
//Background and Video events
0,0,"bg.JPG"
//Break Periods
//Storyboard Layer 0 (Background)
//Storyboard Layer 1 (Fail)
//Storyboard Layer 2 (Pass)
//Storyboard Layer 3 (Foreground)
//Storyboard Sound Samples
//Background Colour Transformations
3,100,0,0,0

[TimingPoints]
1278,333.333333333333,4,1,0,60,1,0
1278,-200,4,1,0,60,0,0
13278,-100,4,1,0,60,0,0
23944,-100,4,1,0,60,0,1
51777,-100,4,1,0,60,0,0
62611,-100,4,1,0,60,0,1
73111,-100,4,1,0,60,0,0
94611,-66.6666666666667,4,2,0,60,0,0

[Colours]
Combo1 : 112,196,193
Combo2 : 243,89,34

[HitObjects]
256,192,2611,5,0
256,192,3111,5,2
256,192,3278,5,0
256,192,3611,5,2
256,192,3945,5,0
256,192,4112,1,0
256,192,4445,5,2
256,192,4612,5,0
256,192,4945,5,2
256,192,5278,5,0
256,192,5444,1,0
256,192,5778,5,2
256,192,5945,5,0
256,192,6278,5,2
256,192,6445,1,2
256,192,6611,5,0
256,192,6778,1,0
256,192,7111,1,0
256,192,7278,1,0
256,192,7611,5,2
256,192,7778,1,2
256,192,7945,5,0
256,192,8112,1,0
256,192,8445,5,2
256,192,8612,5,0
256,192,8778,1,0
256,192,8945,5,2
256,192,9277,5,0
256,192,9612,1,0
256,192,9777,5,2
256,192,9945,1,2
256,192,10277,1,2
256,192,10445,1,2
256,192,10612,5,0
256,192,10778,1,0
256,192,11112,5,2
256,192,11278,5,0
256,192,11445,5,2
256,192,11612,1,2
256,192,11945,5,0
256,192,12112,5,2
256,192,12278,1,2
256,192,12445,5,0
256,192,12612,1,0
256,192,12945,5,2
256,192,13112,1,2
256,192,13278,5,0
256,192,13361,1,0
256,192,13444,5,2
256,192,13611,5,0
256,192,13778,5,2
256,192,13861,5,0
256,192,13944,1,0
256,192,14111,5,2
256,192,14277,5,0
256,192,14444,5,2
256,192,14527,5,0
256,192,14611,1,0
256,192,14777,5,2
256,192,14861,1,2
256,192,14944,5,0
256,192,15111,5,2
256,192,15194,1,2
256,192,15277,5,0
256,192,15361,1,0
256,192,15444,5,2
256,192,15527,1,2
256,192,15611,5,0
256,192,15944,1,0
256,192,16027,1,0
256,192,16111,5,2
256,192,16277,5,0
256,192,16444,5,2
256,192,16527,5,0
256,192,16611,1,0
256,192,16777,5,2
256,192,16944,5,0
256,192,17111,5,2
256,192,17194,5,0
256,192,17277,1,0
256,192,17444,5,2
256,192,17527,1,2
256,192,17611,5,0
256,192,17777,5,2
256,192,17861,5,0
256,192,17944,1,0
256,192,18027,5,2
256,192,18111,1,2
256,192,18194,1,2
256,192,18277,5,0
256,192,18611,1,0
256,192,18694,1,0
256,192,18777,5,2
256,192,18944,5,0
256,192,19111,5,2
256,192,19194,1,2
256,192,19277,5,0
256,192,19444,1,0
256,192,19527,5,2
256,192,19611,5,0
256,192,19777,5,2
256,192,19944,5,0
256,192,20027,1,0
256,192,20111,5,2
256,192,20277,5,0
256,192,20361,5,2
256,192,20444,1,2
256,192,20611,5,0
256,192,20694,1,0
256,192,20861,5,2
256,192,20944,5,0
256,192,21111,5,2
256,192,21194,1,2
256,192,21277,5,0
256,192,21444,1,0
256,192,21527,5,2
256,192,21611,5,0
256,192,21777,5,2
256,192,21861,1,2
256,192,21944,5,0
256,192,22111,1,0
256,192,22194,5,2
256,192,22277,1,2
256,192,22444,5,0
256,192,22527,1,0
256,192,22611,5,2
256,192,22694,5,0
256,192,22777,5,2
256,192,22861,1,2
256,192,22944,5,0
256,192,23027,1,0
256,192,23111,5,2
256,192,23194,5,0
256,192,23277,5,2
256,192,23361,1,2
256,192,23444,5,0
256,192,23527,1,0
256,192,23611,1,0
256,192,23944,1,0
256,192,24027,1,0
256,192,24111,1,0
256,192,24194,1,0
256,192,24277,5,2
256,192,24361,1,2
256,192,24444,1,2
256,192,24527,1,2
256,192,24611,5,0
256,192,24694,1,0
256,192,24777,1,0
256,192,24944,5,2
256,192,25027,1,2
256,192,25111,1,2
256,192,25194,1,2
256,192,25277,5,0
256,192,25360,1,0
256,192,25444,1,0
256,192,25610,5,2
256,192,25694,1,2
256,192,25777,1,2
256,192,25860,1,2
256,192,25944,5,0
256,192,26027,1,0
256,192,26110,1,0
256,192,26194,1,0
256,192,26277,5,2
256,192,26360,1,2
256,192,26444,1,2
256,192,26611,5,0
256,192,26694,1,0
256,192,26777,1,0
256,192,26861,1,0
256,192,26944,5,2
256,192,27027,1,2
256,192,27111,1,2
256,192,27277,5,0
256,192,27360,1,0
256,192,27444,1,0
256,192,27527,1,0
256,192,27610,5,2
256,192,27694,1,2
256,192,27777,1,2
256,192,27860,1,2
256,192,27944,5,0
256,192,28027,1,0
256,192,28110,1,0
256,192,28277,5,2
256,192,28360,1,2
256,192,28444,1,2
256,192,28527,1,2
256,192,28610,5,0
256,192,28693,1,0
256,192,28777,1,0
256,192,28943,5,2
256,192,29027,1,2
256,192,29110,1,2
256,192,29193,1,2
256,192,29277,5,0
256,192,29360,1,0
256,192,29443,1,0
256,192,29527,1,0
256,192,29610,5,2
256,192,29693,1,2
256,192,29777,1,2
256,192,29944,5,0
256,192,30027,1,0
256,192,30110,1,0
256,192,30194,1,0
256,192,30277,5,2
256,192,30360,1,2
256,192,30444,1,2
256,192,30611,5,0
256,192,30694,1,0
256,192,30778,1,0
256,192,30861,1,0
256,192,30944,5,2
256,192,31028,1,2
256,192,31111,1,2
256,192,31194,1,2
256,192,31278,5,0
256,192,31361,1,0
256,192,31444,1,0
256,192,31611,5,2
256,192,31694,1,2
256,192,31778,1,2
256,192,31861,1,2
256,192,31944,5,0
256,192,32027,1,0
256,192,32111,1,0
256,192,32277,5,2
256,192,32361,1,2
256,192,32444,1,2
256,192,32527,1,2
256,192,32611,5,0
256,192,32694,1,0
256,192,32777,1,0
256,192,32861,1,0
256,192,32944,5,2
256,192,33027,1,2
256,192,33111,1,2
256,192,33278,5,0
256,192,33361,1,0
256,192,33444,1,0
256,192,33527,1,0
256,192,33611,5,2
256,192,33694,1,2
256,192,33778,1,2
256,192,33944,5,0
256,192,34027,1,0
256,192,34110,1,0
256,192,34194,5,2
256,192,34277,1,2
256,192,34360,1,2
256,192,34444,1,2
256,192,34611,5,0
256,192,34694,1,0
256,192,34777,1,0
256,192,34861,1,0
256,192,34944,5,2
256,192,35027,1,2
256,192,35111,1,2
256,192,35194,1,2
256,192,35277,5,0
256,192,35361,1,0
256,192,35444,1,0
256,192,35527,1,0
256,192,35611,5,2
256,192,35694,1,2
256,192,35777,1,2
256,192,35861,1,2
256,192,35944,5,0
256,192,36027,1,0
256,192,36110,1,0
256,192,36194,1,0
256,192,36277,5,2
256,192,36360,1,2
256,192,36444,1,2
256,192,36527,1,2
256,192,36610,5,0
256,192,36694,1,0
256,192,36777,1,0
256,192,36860,1,0
256,192,36944,5,2
256,192,37027,1,2
256,192,37110,1,2
256,192,37194,1,2
256,192,37277,5,0
256,192,37360,1,0
256,192,37443,1,0
256,192,37527,1,0
256,192,37610,5,2
256,192,37693,1,2
256,192,37777,1,2
256,192,37860,1,2
256,192,37943,5,0
256,192,38027,1,0
256,192,38110,1,0
256,192,38193,1,0
256,192,38277,5,2
256,192,38360,1,2
256,192,38443,1,2
256,192,38527,1,2
256,192,38611,5,0
256,192,38694,1,0
256,192,38777,1,0
256,192,38861,1,0
256,192,38944,5,2
256,192,39027,1,2
256,192,39111,1,2
256,192,39194,1,2
256,192,39277,5,0
256,192,39361,1,0
256,192,39444,1,0
256,192,39527,1,0
256,192,39611,5,2
256,192,39694,1,2
256,192,39777,1,2
256,192,39861,1,2
256,192,39944,5,0
256,192,40027,1,0
256,192,40110,1,0
256,192,40194,1,0
256,192,40277,5,2
256,192,40360,1,2
256,192,40444,1,2
256,192,40527,1,2
256,192,40610,5,0
256,192,40694,1,0
256,192,40777,1,0
256,192,40860,1,0
256,192,40944,5,2
256,192,41027,1,2
256,192,41110,1,2
256,192,41194,1,2
256,192,41277,5,0
256,192,41360,1,0
256,192,41443,1,0
256,192,41527,1,0
256,192,41610,5,2
256,192,41693,1,2
256,192,41777,1,2
256,192,41860,1,2
256,192,41943,5,0
256,192,42027,1,0
256,192,42110,1,0
256,192,42193,1,0
256,192,42277,5,2
256,192,42360,1,2
256,192,42443,1,2
256,192,42527,1,2
256,192,42611,5,0
256,192,42694,1,0
256,192,42777,1,0
256,192,42861,1,0
256,192,42944,5,2
256,192,43027,1,2
256,192,43111,1,2
256,192,43194,1,2
256,192,43277,5,0
256,192,43361,1,0
256,192,43444,1,0
256,192,43527,1,0
256,192,43611,5,2
256,192,43694,1,2
256,192,43777,1,2
256,192,43861,1,2
256,192,43944,5,0
256,192,44028,1,0
256,192,44111,1,0
256,192,44194,1,0
256,192,44278,5,2
256,192,44361,1,2
256,192,44444,1,2
256,192,44528,1,2
256,192,44611,5,0
256,192,44695,1,0
256,192,44778,1,0
256,192,44861,1,0
256,192,44945,5,2
256,192,45028,1,2
256,192,45111,1,2
256,192,45195,1,2
256,192,45277,5,0
256,192,45444,5,2
256,192,45611,5,0
256,192,45694,1,0
256,192,45777,5,2
256,192,45944,5,0
256,192,46111,5,2
256,192,46278,5,0
256,192,46361,1,0
256,192,46444,5,2
256,192,46611,5,0
256,192,46777,5,2
256,192,46944,5,0
256,192,47027,1,0
256,192,47111,5,2
256,192,47278,5,0
256,192,47444,5,2
256,192,47611,5,0
256,192,47694,1,0
256,192,47777,5,2
256,192,47944,5,0
256,192,48111,5,2
256,192,48278,5,0
256,192,48361,1,0
256,192,48444,5,2
256,192,48611,5,0
256,192,48777,5,2
256,192,48944,5,0
256,192,49027,1,0
256,192,49111,5,2
256,192,49278,5,0
256,192,49444,5,2
256,192,49611,5,0
256,192,49694,1,0
256,192,49777,5,2
256,192,49944,5,0
256,192,50110,5,2
256,192,50277,5,0
256,192,50361,1,0
256,192,50444,5,2
256,192,50611,5,0
256,192,50666,1,0
256,192,50722,5,2
256,192,50777,1,2
256,192,50833,5,0
256,192,50889,1,0
256,192,50944,5,2
256,192,51000,1,2
256,192,51055,5,0
256,192,51110,1,0
256,192,51166,5,2
256,192,51221,1,2
256,192,51277,5,0
256,192,51333,1,0
256,192,51388,5,2
256,192,51444,1,2
256,192,51500,5,0
256,192,51556,1,0
256,192,51611,5,2
256,192,51944,1,2
256,192,52111,5,0
256,192,52277,5,2
256,192,52361,1,2
256,192,52444,5,0
256,192,52527,1,0
256,192,52611,5,2
256,192,52777,5,0
256,192,52944,5,2
256,192,53027,1,2
256,192,53111,5,0
256,192,53277,1,0
256,192,53444,5,2
256,192,53611,5,0
256,192,53694,1,0
256,192,53777,5,2
256,192,53861,1,2
256,192,53944,5,0
256,192,54027,5,2
256,192,54111,5,0
256,192,54194,1,0
256,192,54277,5,2
256,192,54611,1,2
256,192,54777,1,2
256,192,54944,5,0
256,192,55111,1,0
256,192,55278,5,2
256,192,55361,1,2
256,192,55444,5,0
256,192,55611,1,0
256,192,55694,1,0
256,192,55777,5,2
256,192,55944,5,0
256,192,56111,5,2
256,192,56194,1,2
256,192,56277,5,0
256,192,56361,5,2
256,192,56444,5,0
256,192,56527,1,0
256,192,56611,5,2
256,192,56777,5,0
256,192,56944,5,2
256,192,57277,1,2
256,192,57444,5,0
256,192,57610,5,2
256,192,57694,1,2
256,192,57777,5,0
256,192,57860,1,0
256,192,57944,5,2
256,192,58110,5,0
256,192,58277,5,2
256,192,58360,1,2
256,192,58444,5,0
256,192,58610,1,0
256,192,58777,5,2
256,192,58944,5,0
256,192,59027,1,0
256,192,59110,5,2
256,192,59194,1,2
256,192,59277,5,0
256,192,59360,5,2
256,192,59444,5,0
256,192,59527,1,0
256,192,59610,1,0
256,192,59944,5,2
256,192,60110,1,2
256,192,60277,5,0
256,192,60444,1,0
256,192,60611,5,2
256,192,60694,1,2
256,192,60777,5,0
256,192,60944,1,0
256,192,61027,1,0
256,192,61110,5,2
256,192,61277,5,0
256,192,61444,5,2
256,192,61527,1,2
256,192,61611,5,0
256,192,61694,1,0
256,192,61777,5,2
256,192,61861,1,2
256,192,61944,1,2
256,192,62027,1,2
256,192,62110,5,0
256,192,62277,5,2
448,64,62361,1,2
448,64,62444,1,2
448,64,62527,1,2
448,64,62611,5,0
448,64,62694,1,0
448,64,62777,5,2
256,192,62861,1,2
448,64,62944,5,0
256,192,63027,1,0
448,64,63110,5,2
448,64,63277,5,0
448,64,63360,1,0
448,64,63443,5,2
256,192,63527,1,2
448,64,63610,5,0
256,192,63693,1,0
448,64,63776,5,2
256,192,63944,5,0
256,192,64027,5,2
256,192,64111,1,2
256,192,64277,5,0
256,192,64444,1,0
256,192,64527,5,2
256,192,64611,1,2
256,192,64694,5,0
256,192,64777,1,0
256,192,64944,5,2
256,192,65027,1,2
256,192,65111,1,2
256,192,65277,5,0
256,192,65444,5,2
256,192,65527,1,2
256,192,65611,5,0
256,192,65777,1,0
256,192,65861,5,2
256,192,65944,5,0
256,192,66111,5,2
256,192,66194,1,2
256,192,66277,5,0
256,192,66361,1,0
256,192,66444,5,2
256,192,66527,1,2
256,192,66611,5,0
256,192,66694,1,0
256,192,66777,5,2
256,192,66944,5,0
256,192,67027,5,2
256,192,67111,1,2
256,192,67277,5,0
256,192,67361,1,0
256,192,67444,1,0
256,192,67611,5,2
256,192,67777,1,2
256,192,67861,1,2
256,192,67944,5,0
256,192,68027,1,0
256,192,68111,5,2
256,192,68194,1,2
256,192,68277,5,0
256,192,68361,1,0
256,192,68444,5,2
256,192,68527,1,2
256,192,68611,5,0
256,192,68666,1,0
256,192,68722,5,2
256,192,68777,1,2
256,192,68833,5,0
256,192,68889,1,0
256,192,68944,5,2
256,192,69111,1,2
256,192,69195,1,2
256,192,69278,5,0
256,192,69361,1,0
256,192,69445,5,2
256,192,69528,1,2
256,192,69611,5,0
256,192,69695,1,0
256,192,69778,5,2
256,192,69861,1,2
256,192,69945,5,0
256,192,70000,1,0
256,192,70056,5,2
256,192,70111,1,2
256,192,70167,5,0
256,192,70223,1,0
256,192,70278,5,2
256,192,70444,1,2
256,192,70528,1,2
256,192,70611,5,0
256,192,70694,1,0
256,192,70778,5,2
256,192,70861,1,2
256,192,70944,5,0
256,192,71028,1,0
256,192,71111,5,2
256,192,71194,1,2
256,192,71278,5,0
256,192,71333,1,0
256,192,71389,5,2
256,192,71444,1,2
256,192,71500,5,0
256,192,71556,1,0
256,192,71611,5,2
256,192,71777,1,2
256,192,71861,1,2
256,192,71944,5,0
256,192,72027,1,0
256,192,72111,1,0
256,192,72194,5,2
256,192,72277,5,0
256,192,72361,5,2
256,192,72444,5,0
256,192,72527,5,2
256,192,72611,1,2
256,192,72694,1,2
256,192,72777,5,0
256,192,72833,1,0
256,192,72889,1,0
256,192,72944,5,2
256,192,73000,1,2
256,192,73055,1,2
256,192,73111,5,0
256,192,73277,1,0
256,192,73444,1,0
256,192,73527,1,0
256,192,73611,1,0
256,192,73777,5,2
256,192,73944,5,0
256,192,74111,1,0
256,192,74194,1,0
256,192,74277,5,2
256,192,74444,5,0
256,192,74611,1,0
256,192,74777,1,0
256,192,74861,1,0
256,192,74944,1,0
256,192,75111,5,2
256,192,75277,1,2
256,192,75611,1,2
256,192,75694,5,0
256,192,75777,1,0
256,192,75944,1,0
256,192,76277,1,0
256,192,76361,1,0
256,192,76444,5,2
256,192,76611,1,2
256,192,76944,1,2
256,192,77110,5,0
256,192,77277,1,0
256,192,77444,1,0
256,192,77527,1,0
256,192,77610,1,0
256,192,77777,5,2
256,192,77944,1,2
256,192,78277,1,2
256,192,78361,5,0
256,192,78444,1,0
256,192,78610,1,0
256,192,78943,1,0
256,192,79027,1,0
256,192,79110,5,2
256,192,79277,1,2
256,192,79611,1,2
256,192,79777,5,0
256,192,79944,1,0
256,192,80111,1,0
256,192,80194,1,0
256,192,80277,1,0
256,192,80444,5,2
256,192,80611,1,2
256,192,80944,1,2
256,192,81027,5,0
256,192,81111,1,0
256,192,81277,1,0
256,192,81610,1,0
256,192,81694,1,0
256,192,81777,5,2
256,192,81944,1,2
256,192,82278,1,2
256,192,82444,5,0
256,192,82611,1,0
256,192,82777,1,0
256,192,82861,1,0
256,192,82944,1,0
256,192,83111,5,2
256,192,83277,5,0
256,192,83361,1,0
256,192,83444,1,0
256,192,83611,5,2
256,192,83694,1,2
256,192,83778,1,2
256,192,83944,5,0
256,192,84027,1,0
256,192,84111,1,0
256,192,84194,5,2
256,192,84277,1,2
256,192,84444,5,0
256,192,84611,5,2
256,192,84694,5,0
256,192,84777,1,0
256,192,84944,5,2
256,192,85111,1,2
256,192,85277,5,0
256,192,85361,1,0
256,192,85444,1,0
256,192,85527,1,0
256,192,85610,5,2
256,192,85777,5,0
256,192,85944,1,0
256,192,86111,1,0
256,192,86194,5,2
256,192,86277,5,0
256,192,86444,5,2
256,192,86611,5,0
256,192,86694,1,0
256,192,86777,1,0
256,192,86861,5,2
256,192,86944,1,2
256,192,87111,5,0
256,192,87278,1,0
256,192,87361,1,0
256,192,87444,1,0
256,192,87611,5,2
256,192,87777,1,2
256,192,87944,5,0
256,192,88027,1,0
256,192,88111,1,0
256,192,88194,1,0
256,192,88277,5,2
256,192,88444,5,0
256,192,88611,1,0
256,192,88694,1,0
256,192,88777,1,0
256,192,88861,1,0
256,192,88944,5,2
256,192,89111,5,0
256,192,89277,1,0
256,192,89361,5,2
256,192,89444,5,0
256,192,89527,1,0
256,192,89610,5,2
256,192,89777,5,0
256,192,89944,1,0
256,192,90027,1,0
256,192,90111,5,8
256,192,90194,5,0
256,192,90277,5,2
256,192,90444,5,0
256,192,90611,1,0
256,192,90694,5,2
256,192,90777,5,0
256,192,90861,1,0
256,192,90944,5,2
256,192,91111,5,0
256,192,91277,1,0
256,192,91361,1,0
256,192,91444,5,2
256,192,91527,5,0
256,192,91611,5,2
256,192,91777,5,0
256,192,91944,1,0
256,192,92027,1,0
256,192,92111,1,0
256,192,92194,1,0
256,192,92277,5,2
256,192,92361,1,2
256,192,92444,1,2
256,192,92527,1,2
256,192,92611,5,0
256,192,92694,5,2
256,192,92777,5,0
256,192,92861,1,0
256,192,92944,5,2
256,192,93111,5,0
256,192,93277,1,0
256,192,93361,1,0
256,192,93444,1,0
256,192,93527,1,0
256,192,93610,5,2
256,192,93694,1,2
256,192,93777,1,2
256,192,93861,1,2
256,192,93944,5,0
256,192,94027,5,2
256,192,94111,5,2
256,192,94194,1,0
256,192,94277,1,0
256,192,94361,1,0
256,192,94444,1,0
256,192,94527,1,0
256,192,94611,5,2
