osu file format v9

[General]
AudioFilename: Act.mp3
AudioLeadIn: 0
PreviewTime: -1
Countdown: 1
SampleSet: Normal
StackLeniency: 0.7
Mode: 1
LetterboxInBreaks: 1

[Editor]
Bookmarks: 13278,23945,34611,51945,62612,73277,83945,89277,94611
DistanceSpacing: 0.8
BeatDivisor: 4
GridSize: 32

[Metadata]
Title:Act
Artist:sugisaki
Creator:Mic
Version:Hutsuu
Source:
Tags:

[Difficulty]
HPDrainRate:0
CircleSize:3
OverallDifficulty:0
ApproachRate:0
SliderMultiplier:1.4
SliderTickRate:1

[Events]
//Background and Video events
0,0,"bg.JPG"
//Break Periods
//Storyboard Layer 0 (Background)
//Storyboard Layer 1 (Fail)
//Storyboard Layer 2 (Pass)
//Storyboard Layer 3 (Foreground)
//Storyboard Sound Samples
//Background Colour Transformations
3,100,0,0,0

[TimingPoints]
1278,333.333333333333,4,1,0,60,1,0
1278,-166.666666666667,4,1,0,60,0,0
13278,-100,4,1,0,60,0,0
62611,-100,4,1,0,60,0,1
73111,-100,4,1,0,60,0,0

[Colours]
Combo1 : 112,196,193
Combo2 : 243,89,34

[HitObjects]
256,192,2611,5,0
256,192,3111,5,2
256,192,3611,1,2
256,192,3945,5,0
256,192,4445,5,2
256,192,4945,1,2
256,192,5278,5,0
256,192,5778,5,2
256,192,6278,1,2
256,192,6611,5,0
256,192,7111,1,0
256,192,7611,5,2
256,192,7945,5,0
256,192,8445,5,2
256,192,8945,1,2
256,192,9277,5,0
256,192,9777,5,2
256,192,10277,1,2
256,192,10612,5,0
256,192,11112,5,2
256,192,11612,1,2
256,192,11945,5,0
256,192,12445,1,0
256,192,12945,5,2
256,192,13112,1,2
256,192,13277,5,0
256,192,13611,1,0
256,192,13944,1,0
256,192,14277,1,0
256,192,14611,1,0
256,192,14777,5,2
256,192,14944,5,0
256,192,15277,1,0
256,192,15444,5,2
256,192,15611,5,0
256,192,15944,1,0
256,192,16277,1,0
256,192,16611,1,0
256,192,16944,1,0
256,192,17277,1,0
256,192,17444,5,2
256,192,17611,5,0
256,192,17944,1,0
256,192,18111,5,2
256,192,18278,5,0
256,192,18611,1,0
256,192,18944,1,0
256,192,19278,1,0
256,192,19611,1,0
256,192,19944,1,0
256,192,20111,5,2
256,192,20278,5,0
256,192,20611,1,0
256,192,20778,5,2
256,192,20945,5,0
256,192,21277,1,0
256,192,21611,1,0
256,192,21944,1,0
256,192,22277,5,2
256,192,22611,5,0
256,192,22777,1,0
256,192,22944,5,2
256,192,23111,5,0
256,192,23444,5,2
256,192,23611,5,0
256,192,23944,12,0,24944
256,192,25277,1,0
256,192,25611,5,2
256,192,25944,5,0
256,192,26277,5,2
256,192,26611,12,0,27611
256,192,27944,1,0
256,192,28278,5,2
256,192,28611,5,0
256,192,28944,5,2
256,192,29277,12,0,30277
256,192,30611,1,0
256,192,30945,5,0
256,192,31278,5,2
256,192,31611,1,2
256,192,31944,12,0,32944
256,192,33277,5,0
256,192,33611,1,0
256,192,33944,5,2
256,192,34277,1,2
32,192,34611,6,0,B|480:192|480:192,1,420
256,192,35944,1,0
256,192,36277,5,2
256,192,36611,1,2
256,192,36944,5,0
32,192,37277,6,0,B|480:192|480:192,1,420
256,192,38611,5,0
256,192,38944,5,2
256,192,39278,1,2
256,192,39611,5,0
32,192,39944,6,0,B|480:192|480:192,1,420
32,192,41277,6,0,B|480:192|480:192,1,420
32,192,42611,6,0,B|480:192|480:192,1,420
256,192,43944,5,0
256,192,44277,1,0
256,192,44611,1,0
256,192,44944,5,2
256,192,45277,5,0
480,64,45611,1,0
480,64,45777,5,2
256,192,45944,5,0
480,64,46278,1,0
480,64,46444,5,2
256,192,46611,5,0
480,64,46945,1,0
480,64,47111,5,2
256,192,47277,5,0
480,64,47611,1,0
480,64,47777,5,2
256,192,47944,5,0
480,64,48278,1,0
480,64,48444,5,2
256,192,48611,5,0
256,192,48778,5,2
480,64,48945,5,0
480,64,49111,5,2
256,192,49277,5,0
256,192,49444,5,2
480,64,49611,5,0
480,64,49777,5,2
256,192,49944,5,0
256,192,50111,5,2
480,64,50278,5,0
480,64,50444,5,2
256,192,50611,12,0,51611
480,64,51944,1,2
480,64,52111,5,2
480,64,52277,5,0
480,64,52444,5,2
480,64,52611,5,0
448,64,52777,5,2
448,64,52944,5,0
448,64,53111,5,2
256,192,53277,2,2,B|32:128|32:128,1,210
480,64,54611,5,2
480,64,54778,1,2
480,64,54944,5,0
480,64,55111,5,2
480,64,55278,5,0
448,64,55444,5,2
448,64,55611,5,0
448,64,55778,5,2
256,192,55944,2,2,B|32:128|32:128,1,210
480,64,57277,5,2
480,64,57444,1,2
480,64,57610,5,0
480,64,57777,5,2
480,64,57944,5,0
448,64,58110,1,0
448,64,58277,5,2
448,64,58444,1,2
256,192,58611,2,2,B|32:128|32:128,1,210
480,64,59944,5,2
480,64,60111,1,2
480,64,60277,5,0
480,64,60444,5,2
480,64,60611,5,0
448,64,60777,1,0
448,64,60944,5,2
448,64,61111,1,2
256,192,61277,2,2,B|32:128|32:128,1,210
448,64,62611,1,0
448,64,62777,5,2
448,64,62944,5,0
448,64,63110,5,2
448,64,63277,5,0
448,64,63443,5,2
448,64,63611,5,0
448,64,63944,5,2
448,64,64111,5,0
448,64,64277,5,2
448,64,64444,5,0
448,64,64610,5,2
448,64,64777,5,0
448,64,64943,5,2
448,64,65277,5,0
448,64,65444,1,0
448,64,65610,5,2
448,64,65777,5,0
448,64,65943,5,2
448,64,66110,5,0
448,64,66276,5,2
448,64,66611,1,2
448,64,66778,1,2
448,64,66945,5,0
448,64,67111,5,2
448,64,67278,5,0
448,64,67445,5,2
448,64,67611,5,0
448,64,67944,1,0
448,64,68111,1,0
256,192,68277,1,0
256,192,68444,1,0
256,192,68611,1,0
256,192,68777,1,0
256,192,68944,1,0
256,192,69111,1,0
256,192,69277,5,2
256,192,69444,1,2
256,192,69611,5,0
256,192,69777,1,0
256,192,69944,5,2
256,192,70111,1,2
256,192,70278,5,0
256,192,70444,1,0
256,192,70611,1,0
256,192,70777,1,0
256,192,70944,1,0
256,192,71111,1,0
256,192,71277,1,0
256,192,71444,1,0
256,192,71611,1,0
256,192,71777,1,0
256,192,71944,1,0
256,192,72112,1,0
256,192,72277,5,2
256,192,72445,5,0
256,192,72611,1,0
256,192,72778,1,0
256,192,72945,5,2
256,192,73112,5,0
256,192,73277,1,0
256,192,73777,5,2
256,192,74277,1,2
256,192,74611,5,0
256,192,75111,5,2
256,192,75611,1,2
256,192,75944,5,0
256,192,76444,5,2
256,192,76944,1,2
256,192,77277,5,0
256,192,77777,1,0
256,192,78277,5,2
256,192,78611,5,0
256,192,79111,5,2
256,192,79611,1,2
256,192,79945,5,0
256,192,80445,5,2
256,192,80945,1,2
256,192,81278,5,0
256,192,81778,5,2
256,192,82278,1,2
256,192,82611,5,0
256,192,83111,1,0
256,192,83611,5,2
256,192,83778,1,2
256,192,83944,5,0
256,192,84277,5,2
256,192,84611,5,0
256,192,84777,1,0
256,192,84944,5,2
256,192,85277,5,0
256,192,85610,5,2
256,192,85944,5,0
256,192,86110,1,0
256,192,86277,5,2
256,192,86611,5,0
256,192,86944,5,2
256,192,87278,5,0
256,192,87444,1,0
256,192,87611,5,2
256,192,87944,5,0
256,192,88277,5,2
256,192,88611,5,0
256,192,88777,1,0
256,192,88944,5,2
256,192,89111,5,0
256,192,89277,1,0
256,192,89610,5,2
256,192,89944,5,0
256,192,90110,1,0
256,192,90277,5,2
256,192,90611,5,0
256,192,90944,5,2
256,192,91278,5,0
256,192,91444,1,0
256,192,91611,5,2
256,192,91944,5,0
256,192,92277,5,2
256,192,92611,5,0
256,192,92777,1,0
256,192,92944,5,2
256,192,93277,5,0
256,192,93610,5,2
256,192,93944,5,0
256,192,94110,1,0
256,192,94277,5,2
256,192,94444,1,2
256,192,94611,5,0
