osu file format v13

[General]
AudioFilename: Subplaid-Jeg onskerikke a skade deg.mp3
AudioLeadIn: 0
PreviewTime: 65858
Countdown: 0
SampleSet: Soft
StackLeniency: 0.7
Mode: 0
LetterboxInBreaks: 0
WidescreenStoryboard: 0

[Editor]
Bookmarks: 21972
DistanceSpacing: 1
BeatDivisor: 1
GridSize: 4
TimelineZoom: 1.1

[Metadata]
Title:Jeg onskerikke a skade deg
TitleUnicode:Jeg onskerikke a skade deg
Artist:subplaid
ArtistUnicode:subplaid
Creator:Near
Version:Normal
Source:
Tags:jungle breakcore idm ønsker ikke ukraine ukrainian
BeatmapID:564319
BeatmapSetID:244640

[Difficulty]
HPDrainRate:4
CircleSize:3
OverallDifficulty:5
ApproachRate:5
SliderMultiplier:1
SliderTickRate:2

[Events]
//Background and Video events
0,0,"suicide.jpg",0,0
//Break Periods
//Storyboard Layer 0 (Background)
//Storyboard Layer 1 (Fail)
//Storyboard Layer 2 (Pass)
//Storyboard Layer 3 (Foreground)
//Storyboard Sound Samples

[TimingPoints]
30,342.857142857143,4,2,0,70,1,0
65858,-100,4,2,0,80,0,1
87715,-100,4,2,0,80,0,0

[Colours]
Combo1 : 199,203,214
Combo2 : 206,200,162

[HitObjects]
92,336,21972,6,0,B|61:246|61:246|54:191|88:139,1,200,4|2,0:2|0:0,0:0:0:0:
160,80,23001,1,2,0:0:0:0:
238,142,23344,2,0,P|207:173|169:181,2,75,8|8|8,0:0|0:0|0:0,0:0:0:0:
263,98,24030,2,0,L|258:-4,1,100,0|2,1:0|0:0,0:0:0:0:
350,37,24715,6,0,B|355:118|355:118|406:153|395:226,1,200,0|8,1:0|0:0,0:0:0:0:
357,255,25572,1,0,1:0:0:0:
308,267,25744,2,0,P|271:277|247:276,1,50,2|2,0:0|0:0,0:0:0:0:
215,271,26087,2,0,L|104:257,1,100,2|2,0:0|0:0,0:0:0:0:
94,160,26772,2,0,L|205:174,1,100,4|8,0:0|0:0,0:0:0:0:
287,137,27458,5,0,1:0:0:0:
374,81,27801,2,0,B|399:120|399:169|362:209|362:209|380:241|365:289,1,200,2|2,0:0|0:0,0:0:0:0:
266,250,28830,2,0,L|164:263,1,100,4|0,0:0|0:0,0:0:0:0:
117,252,29344,1,0,1:0:0:0:
77,221,29515,2,0,P|73:182|81:146,2,50,0|0|8,1:0|1:0|0:0,0:0:0:0:
29,309,30201,6,0,P|67:350|126:356,1,100,0|0,1:0|1:0,0:0:0:0:
200,319,30887,1,8,0:0:0:0:
298,335,31230,1,2,0:0:0:0:
393,362,31572,2,0,B|408:309|372:268|372:268|369:160,1,200,2|4,0:0|0:0,0:0:0:0:
287,110,32601,1,8,0:0:0:0:
189,134,32944,5,0,1:0:0:0:
108,74,33287,2,0,P|103:43|107:17,2,50,2|2|2,0:0|0:0|0:0,0:0:0:0:
87,119,33801,2,0,P|71:130|35:138,2,50,0|2|2,1:0|0:0|0:0,0:0:0:0:
102,166,34315,1,4,0:0:0:0:
145,255,34658,2,0,P|72:262|4:164,1,200,2|2,0:0|0:0,0:0:0:0:
55,82,35687,6,0,P|108:68|158:89,1,100,4|0,0:0|0:0,0:0:0:0:
241,122,36372,2,0,P|288:136|335:122,1,100,4|2,0:0|0:0,0:0:0:0:
396,42,37058,2,0,L|388:212,2,150,0|2|2,1:0|0:0|0:0,0:0:0:0:
491,12,38430,5,4,0:0:0:0:
479,111,38772,2,0,B|477:183|477:183|494:212|494:212|493:260,1,150,2|0,0:0|1:0,0:0:0:0:
455,290,39458,2,0,P|432:309|407:317,1,50,2|2,0:0|0:0,0:0:0:0:
363,308,39801,2,0,P|302:291|278:290,2,75,8|8|0,0:0|0:0|1:0,0:0:0:0:
356,357,40487,1,2,0:0:0:0:
257,372,40830,2,0,L|167:375,1,75,8|8,0:0|0:0,0:0:0:0:
65,328,41515,6,0,P|25:240|71:152,1,200,2|10,0:0|0:0,0:0:0:0:
166,177,42544,2,0,P|224:209|303:44,1,300,2|0,0:0|1:0,0:0:0:0:
221,6,43915,5,4,0:0:0:0:
59,123,44601,2,0,L|0:141,2,50,2|2|0,0:0|0:0|0:0,0:0:0:0:
157,141,45287,2,0,P|135:180|222:289,1,200,4|2,0:0|0:0,0:0:0:0:
310,259,46315,1,8,0:0:0:0:
341,163,46658,6,0,L|351:53,2,100,0|0|8,1:0|1:0|0:0,0:0:0:0:
310,258,47687,1,2,0:0:0:0:
264,347,48030,2,0,B|230:342|197:288|197:245|223:200|223:200|225:160,1,200,2|4,0:0|0:0,0:0:0:0:
226,74,49058,1,8,0:0:0:0:
136,118,49401,6,0,P|104:127|67:127,1,50,4|0,0:0|0:0,0:0:0:0:
36,269,50087,1,2,0:0:0:0:
82,285,50258,2,0,L|144:312,1,50,0|0,1:0|0:0,0:0:0:0:
219,344,50772,2,0,P|229:298|217:259,2,75,8|8|0,0:0|0:0|1:0,0:0:0:0:
174,367,51458,1,0,1:0:0:0:
373,376,52144,6,0,L|477:376,1,100,0|0,1:0|1:0,0:0:0:0:
423,288,52830,2,0,B|374:288|374:288|343:275|322:253,1,100,8|2,0:0|0:0,0:0:0:0:
362,166,53515,2,0,P|367:131|357:83,2,75,2|2|2,0:0|0:0|0:0,0:0:0:0:
318,191,54201,2,0,L|213:203,1,100,0|2,1:0|0:3,0:0:0:0:
134,148,54887,6,0,P|137:124|152:95,1,50,0|2,1:0|0:0,0:0:0:0:
290,53,55572,2,0,L|392:44,1,100,2|0,0:0|0:0,0:0:0:0:
369,142,56258,2,0,B|269:153|269:153|208:234,1,200,4|2,0:0|0:0,0:0:0:0:
211,332,57287,1,0,1:0:0:0:
308,355,57630,6,0,P|362:355|411:319,2,100,0|0|8,1:0|1:0|0:0,0:0:0:0:
211,332,58658,1,2,0:0:0:0:
111,327,59001,2,0,P|150:251|258:243,1,200,2|4,0:0|0:0,0:0:0:0:
347,282,60030,1,2,0:0:0:0:
424,219,60372,6,0,P|432:184|431:160,1,50,4|0,1:2|0:0,0:0:0:0:
410,124,60715,2,0,P|399:79|413:28,1,100,0|2,0:0|0:0,0:0:0:0:
214,55,61744,2,0,L|118:66,2,75,8|8|0,0:0|0:0|1:0,0:0:0:0:
264,53,62430,1,0,1:0:0:0:
295,91,62601,2,0,P|308:138|289:197,1,100,0|0,1:0|0:0,0:0:0:0:
274,231,63115,6,0,P|263:267|268:295,1,50,2|0,1:2|0:0,0:0:0:0:
293,319,63458,2,0,L|346:341,2,50,2|0|8,1:2|0:0|0:0,0:0:0:0:
92,324,64487,1,2,0:0:0:0:
65,227,64830,1,2,0:0:0:0:
88,130,65172,2,0,L|96:81,2,50,4|0|2,0:0|1:0|0:0,0:0:0:0:
162,196,65858,6,0,P|213:214|300:108,1,200,4|8,0:3|0:0,0:0:0:0:
271,25,66887,1,2,0:0:0:0:
171,15,67230,1,2,0:0:0:0:
210,106,67572,2,0,L|100:124,1,100,4|0,0:3|0:0,0:0:0:0:
64,139,68087,1,2,0:0:0:0:
52,187,68258,2,0,P|57:226|71:246,1,50,2|2,0:0|0:0,0:0:0:0:
98,268,68601,6,0,B|152:290|193:296|193:296|245:290|293:259,1,200,4|8,0:3|0:0,0:0:0:0:
326,170,69630,1,2,0:0:0:0:
421,139,69972,1,4,0:3:0:0:
477,221,70315,2,0,P|488:268|477:320,2,100,4|8|2,0:3|0:0|0:0,0:0:0:0:
458,174,71172,1,2,0:0:0:0:
421,139,71344,6,0,P|387:179|252:155,1,200,4|8,0:3|0:0,0:0:0:0:
195,78,72372,1,2,0:0:0:0:
119,143,72715,2,0,P|126:194|160:238,1,100,2|4,0:0|0:3,0:0:0:0:
251,254,73401,1,8,0:0:0:0:
286,347,73744,1,2,0:0:0:0:
187,327,74087,6,0,P|214:276|349:268,1,200,4|8,0:0|0:0,0:0:0:0:
424,323,75115,1,2,0:0:0:0:
462,230,75458,2,0,L|468:125,1,100,2|2,0:0|0:0,0:0:0:0:
387,70,76144,2,0,P|366:57|281:61,1,100,8|2,0:0|0:0,0:0:0:0:
247,78,76658,1,2,0:0:0:0:
207,109,76830,6,0,P|162:136|52:58,1,200,4|4,0:3|0:3,0:0:0:0:
13,260,78201,1,8,0:0:0:0:
101,306,78544,1,8,0:0:0:0:
199,287,78887,1,4,0:0:0:0:
246,195,79230,2,0,P|279:180|307:179,1,50,0|2,1:0|0:0,0:0:0:0:
340,191,79572,6,0,B|351:277|351:277|327:341|366:387,1,200,4|8,0:3|0:0,0:0:0:0:
444,324,80601,1,2,0:0:0:0:
429,225,80944,2,0,L|413:116,1,100,0|2,1:0|0:0,0:0:0:0:
340,57,81630,2,0,P|318:40|289:30,2,50,4|0|8,0:0|1:0|0:0,0:0:0:0:
302,149,82315,6,0,B|261:170|231:217|231:217|181:192|117:197,1,200,2|2,0:0|0:0,0:0:0:0:
50,251,83344,2,0,L|31:311,1,50,2|2,0:0|1:2,0:0:0:0:
175,351,84030,2,0,L|275:364,1,100,0|4,1:0|0:3,0:0:0:0:
318,341,84544,1,2,0:0:0:0:
339,296,84715,2,0,P|353:260|353:237,1,50,8|2,0:0|0:0,0:0:0:0:
347,196,85058,6,0,P|335:146|345:95,1,100,0|8,1:2|0:0,0:0:0:0:
396,13,85744,2,0,P|355:48|253:37,1,150,2|2,0:0|0:0,0:0:0:0:
221,15,86430,2,0,L|201:238,1,200,2|4,0:0|0:0,0:0:0:0:
142,293,87458,2,0,P|104:308|64:308,1,75,2|2,0:0|0:0,0:0:0:0:
