osu file format v13

[General]
AudioFilename: Subplaid-Jeg onskerikke a skade deg.mp3
AudioLeadIn: 0
PreviewTime: 65858
Countdown: 0
SampleSet: Soft
StackLeniency: 0.7
Mode: 0
LetterboxInBreaks: 0
WidescreenStoryboard: 0

[Editor]
Bookmarks: 21972
DistanceSpacing: 1.1
BeatDivisor: 4
GridSize: 4
TimelineZoom: 1.1

[Metadata]
Title:Jeg onskerikke a skade deg
TitleUnicode:Jeg onskerikke a skade deg
Artist:subplaid
ArtistUnicode:subplaid
Creator:Near
Version:Hard
Source:
Tags:jungle breakcore idm ønsker ikke ukraine ukrainian
BeatmapID:563975
BeatmapSetID:244640

[Difficulty]
HPDrainRate:6
CircleSize:4
OverallDifficulty:6
ApproachRate:7
SliderMultiplier:1.4
SliderTickRate:2

[Events]
//Background and Video events
0,0,"suicide.jpg",0,0
//Break Periods
//Storyboard Layer 0 (Background)
//Storyboard Layer 1 (Fail)
//Storyboard Layer 2 (Pass)
//Storyboard Layer 3 (Foreground)
//Storyboard Sound Samples

[TimingPoints]
30,342.857142857143,4,2,0,70,1,0
65858,-100,4,2,0,80,0,1
87715,-100,4,2,0,80,0,0

[Colours]
Combo1 : 199,203,214
Combo2 : 206,200,162

[HitObjects]
102,306,21972,6,0,L|92:164,1,140,4|2,0:2|0:0,0:0:0:0:
146,110,22487,1,2,0:0:0:0:
169,183,22658,2,0,L|175:266,1,70,2|0,0:0|1:0,0:0:0:0:
232,303,23001,1,2,0:0:0:0:
308,310,23172,1,0,0:0:0:0:
363,256,23344,6,0,P|376:197|354:149,2,105,8|8|8,0:0|0:0|0:0,0:0:0:0:
302,207,24030,1,0,1:0:0:0:
287,131,24201,2,0,P|312:98|357:81,2,70,4|2|2,0:0|0:0|0:0,0:0:0:0:
302,207,24715,6,0,P|262:204|224:171,1,70,0|2,1:0|0:0,0:0:0:0:
203,119,25058,1,0,1:0:0:0:
225,44,25230,1,2,0:0:0:0:
150,61,25401,2,0,L|72:79,1,70,8|0,0:0|1:0,0:0:0:0:
62,83,25658,1,0,0:0:0:0:
41,89,25744,1,2,0:0:0:0:
9,157,25915,1,2,0:0:0:0:
55,218,26087,6,0,P|87:278|60:342,1,140,2|2,0:0|0:0,0:0:0:0:
158,341,26601,1,2,0:0:0:0:
158,341,26772,2,0,P|190:358|236:358,1,70,4|0,0:0|1:0,0:0:0:0:
299,348,27115,1,8,0:0:0:0:
366,209,27458,6,0,L|343:132,1,70,0|0,1:0|0:0,0:0:0:0:
318,69,27801,2,0,P|305:55|288:42,2,35,2|0|2,0:0|0:0|0:0,0:0:0:0:
248,105,28144,2,0,P|228:104|207:107,2,35,2|0|2,0:0|0:0|0:0,0:0:0:0:
226,183,28487,2,0,P|216:213|222:262,1,70,2|2,0:0|0:0,0:0:0:0:
279,297,28830,6,0,P|250:320|172:311,2,105,4|8|0,0:0|0:0|1:0,0:0:0:0:
310,226,29515,1,0,1:0:0:0:
371,273,29687,1,0,1:0:0:0:
447,277,29858,1,8,0:0:0:0:
409,89,30201,6,0,P|394:148|396:175,1,70,0|2,1:0|0:0,0:0:0:0:
398,177,30458,1,0,0:0:0:0:
378,170,30544,2,0,P|334:155|303:152,1,70,0|2,1:0|0:0,0:0:0:0:
239,182,30887,2,0,P|224:226|221:257,1,70,8|2,0:0|0:0,0:0:0:0:
232,325,31230,2,0,L|239:362,2,35,2|0|2,0:0|0:0|0:0,0:0:0:0:
160,297,31572,6,0,L|138:328,2,35,2|0|2,0:0|0:0|0:0,0:0:0:0:
132,224,31915,2,0,L|94:231,2,35,2|0|2,0:0|0:0|0:0,0:0:0:0:
146,148,32258,2,0,P|147:109|131:64,1,70,4|0,0:0|0:0,0:0:0:0:
242,107,32601,2,0,P|287:133|355:127,1,105,8|0,0:0|0:0,0:0:0:0:
356,122,32944,6,0,L|373:38,1,70,0|0,1:0|0:0,0:0:0:0:
443,160,33287,1,2,0:0:0:0:
427,235,33458,1,2,0:0:0:0:
362,277,33630,1,2,0:0:0:0:
285,266,33801,1,0,1:0:0:0:
234,208,33972,2,0,P|199:201|155:215,1,70,2|2,0:0|0:0,0:0:0:0:
90,325,34315,6,0,P|157:330|202:263,1,140,4|2,0:0|0:0,0:0:0:0:
234,208,34830,1,2,0:0:0:0:
201,138,35001,1,2,0:0:0:0:
191,119,35087,1,0,0:0:0:0:
181,100,35172,1,2,0:0:0:0:
275,96,35344,1,2,0:0:0:0:
273,74,35430,1,0,0:0:0:0:
272,53,35515,1,0,0:0:0:0:
353,137,35687,6,0,L|483:154,1,105,4|8,0:0|0:0,0:0:0:0:
473,164,36030,2,0,P|487:212|483:243,1,70,0|0,0:0|1:0,0:0:0:0:
447,297,36372,1,4,0:0:0:0:
374,324,36544,2,0,P|332:310|307:285,1,70,0|2,1:0|0:0,0:0:0:0:
271,228,36887,1,2,0:0:0:0:
209,304,37058,6,0,L|167:367,1,70,0|2,1:0|0:0,0:0:0:0:
81,294,37401,2,0,L|142:258,1,70,0|2,1:0|0:0,0:0:0:0:
192,180,37744,1,8,0:0:0:0:
161,93,37915,2,0,P|170:74|178:53,5,35,0|0|2|0|2|0,1:0|0:0|0:0|0:0|0:0|0:0,0:0:0:0:
186,42,38430,6,0,P|222:80|310:78,1,140,4|2,0:0|0:0,0:0:0:0:
373,45,38944,1,2,0:0:0:0:
396,118,39115,2,0,L|416:187,2,70,2|0|2,0:0|1:0|0:0,0:0:0:0:
373,45,39630,1,2,0:0:0:0:
324,157,39801,6,0,B|339:207|339:207|319:275,2,105,8|8|0,0:0|0:0|1:0,0:0:0:0:
253,124,40487,2,0,P|217:118|172:131,1,70,2|2,0:0|0:0,0:0:0:0:
115,207,40830,2,0,B|174:221|174:221|198:215|222:195,2,105,8|8|0,0:0|0:0|1:0,0:0:0:0:
63,149,41515,6,0,P|59:128|66:99,2,35,2|0|2,0:0|0:0|0:0,0:0:0:0:
38,222,41858,2,0,P|61:268|96:286,1,70,2|0,0:0|1:0,0:0:0:0:
149,298,42201,1,2,0:0:0:0:
216,334,42372,1,2,0:0:0:0:
291,318,42544,6,0,L|327:304,3,35,2|0|2|0,0:0|0:0|0:0|0:0,0:0:0:0:
290,285,42887,2,0,L|308:248,3,35,4|0|0|0,0:0|0:0|1:0|0:0,0:0:0:0:
266,256,43230,2,0,B|257:222|257:222|230:194,1,70,8|2,0:0|0:0,0:0:0:0:
216,183,43487,1,0,0:0:0:0:
197,173,43572,2,0,L|118:159,1,70,0|2,1:0|0:0,0:0:0:0:
106,158,43830,1,0,0:0:0:0:
85,155,43915,6,0,P|71:119|82:74,1,70,4|0,0:0|0:0,0:0:0:0:
296,23,44601,1,2,0:0:0:0:
364,57,44772,1,2,0:0:0:0:
410,119,44944,1,0,0:0:0:0:
284,205,45287,6,0,L|255:331,2,105,4|8|0,0:0|0:0|0:0,0:0:0:0:
280,184,45887,1,0,0:0:0:0:
266,168,45972,2,0,P|223:145|192:144,1,70,2|2,0:0|0:0,0:0:0:0:
146,255,46315,2,0,P|191:236|211:213,1,70,8|2,0:0|0:0,0:0:0:0:
88,199,46658,6,0,P|66:251|106:326,1,140,0|0,1:0|1:0,0:0:0:0:
119,330,47087,1,0,0:0:0:0:
139,332,47172,1,2,0:0:0:0:
216,326,47344,2,0,L|292:307,1,70,8|2,0:0|0:0,0:0:0:0:
337,253,47687,2,0,P|357:236|368:229,3,35,2|0|2|0,0:0|0:0|0:0|0:0,0:0:0:0:
379,195,48030,6,0,P|359:178|348:171,3,35,2|0|2|0,0:0|0:0|0:0|0:0,0:0:0:0:
336,138,48372,2,0,P|356:121|367:114,3,35,2|0|2|0,0:0|0:0|0:0|0:0,0:0:0:0:
379,81,48715,2,0,B|338:50|338:50|286:36|286:36|232:51|232:51|190:84,1,210,4|2,0:0|0:0,0:0:0:0:
183,99,49315,1,0,0:0:0:0:
176,119,49401,6,0,P|170:160|185:199,1,70,4|0,0:0|0:0,0:0:0:0:
329,361,50087,1,2,0:0:0:0:
255,338,50258,2,0,P|219:328|174:334,1,70,0|0,1:0|0:0,0:0:0:0:
36,365,50772,6,0,L|25:257,2,105,8|8|0,0:0|0:0|1:0,0:0:0:0:
102,249,51458,2,0,P|88:209|46:179,2,70,0|2|2,1:0|0:0|0:0,0:0:0:0:
153,306,51972,1,2,0:0:0:0:
218,265,52144,6,0,L|285:229,1,70,0|0,1:0|0:0,0:0:0:0:
261,331,52487,2,0,L|336:326,1,70,0|0,1:0|0:0,0:0:0:0:
402,299,52830,1,8,0:0:0:0:
438,231,53001,1,0,1:0:0:0:
443,210,53087,1,0,0:0:0:0:
447,189,53172,1,2,0:0:0:0:
400,126,53344,1,2,0:0:0:0:
326,104,53515,6,0,B|282:91|282:91|206:107,1,105,2|2,0:0|0:0,0:0:0:0:
204,110,53858,2,0,P|179:76|176:34,1,70,0|2,1:0|0:0,0:0:0:0:
109,129,54201,2,0,P|131:180|99:262,1,140,0|2,1:0|0:3,0:0:0:0:
225,352,54887,6,0,L|294:358,1,70,0|2,1:0|0:0,0:0:0:0:
448,186,55572,1,2,0:0:0:0:
451,165,55658,1,0,0:0:0:0:
452,143,55744,2,0,L|449:109,2,35,2|0|0,0:0|0:0|0:0,0:0:0:0:
319,221,56258,6,0,P|273:202|211:209,1,105,4|8,0:0|0:0,0:0:0:0:
199,214,56601,2,0,P|163:228|116:231,1,70,0|0,0:0|1:0,0:0:0:0:
66,190,56944,1,2,0:0:0:0:
81,114,57115,1,2,0:0:0:0:
149,78,57287,1,0,1:0:0:0:
225,82,57458,1,2,0:0:0:0:
292,118,57630,6,0,B|360:142|360:142|397:140|436:124,1,140,0|0,1:0|1:0,0:0:0:0:
445,212,58144,1,2,0:0:0:0:
445,212,58315,2,0,P|437:235|442:295,1,70,8|2,0:0|0:0,0:0:0:0:
379,357,58658,2,0,P|362:342|314:322,1,70,2|2,0:0|0:0,0:0:0:0:
221,343,59001,6,0,L|189:356,7,35,2|0|2|0|8|0|2|0,0:0|0:0|0:0|0:0|0:0|0:0|0:0|0:0,0:0:0:0:
167,353,59687,2,0,P|127:295|157:214,1,140,4|2,0:0|0:0,0:0:0:0:
187,168,60201,1,2,0:0:0:0:
199,150,60287,1,0,0:0:0:0:
207,130,60372,6,0,P|215:84|209:44,1,70,4|0,1:2|0:0,0:0:0:0:
271,173,60715,1,0,0:0:0:0:
271,173,60887,1,0,0:0:0:0:
271,173,61058,1,2,0:0:0:0:
271,173,61230,2,0,L|421:189,1,140,0|0,1:0|0:0,0:0:0:0:
381,259,61744,2,0,L|274:247,2,105,8|8|0,0:0|0:0|1:0,0:0:0:0:
354,331,62430,6,0,L|281:323,1,70,0|0,1:0|1:0,0:0:0:0:
208,312,62772,1,2,0:0:0:0:
131,325,62944,1,0,0:0:0:0:
63,360,63115,6,0,P|54:322|67:281,1,70,2|0,1:2|0:0,0:0:0:0:
94,222,63458,2,0,P|103:184|90:143,1,70,2|0,1:2|0:0,0:0:0:0:
53,90,63801,1,8,0:0:0:0:
181,150,63972,1,0,1:0:0:0:
252,120,64144,1,2,0:0:0:0:
293,55,64315,1,2,0:0:0:0:
332,121,64487,6,0,L|354:232,1,105,2|2,0:0|0:0,0:0:0:0:
355,244,64830,2,0,P|326:266|284:271,1,70,2|0,0:0|0:0,0:0:0:0:
200,265,65172,2,0,P|165:271|138:292,2,70,4|0|2,0:0|1:0|0:0,0:0:0:0:
68,345,65858,6,0,P|52:278|105:208,1,140,4|4,0:3|0:3,0:0:0:0:
104,209,66287,1,0,0:0:0:0:
123,201,66372,1,2,0:0:0:0:
186,156,66544,2,0,L|196:121,2,35,8|0|0,0:0|0:0|0:0,0:0:0:0:
236,214,66887,2,0,L|246:249,2,35,2|0|2,0:0|0:0|0:0,0:0:0:0:
295,164,67230,6,0,P|311:129|312:83,1,70,2|2,0:0|0:0,0:0:0:0:
370,206,67572,2,0,B|363:244|363:244|370:282,1,70,4|2,0:3|0:0,0:0:0:0:
420,331,67915,2,0,P|377:316|306:336,1,105,8|0,0:0|0:0,0:0:0:0:
301,338,68258,2,0,L|232:379,1,70,2|2,0:0|0:0,0:0:0:0:
132,334,68601,6,0,B|198:295|198:295|221:257|256:247,1,140,4|4,0:3|0:3,0:0:0:0:
319,239,69115,1,2,0:0:0:0:
395,247,69287,2,0,P|425:258|469:251,1,70,8|2,0:0|0:0,0:0:0:0:
433,181,69630,2,0,L|438:137,2,35,2|0|2,0:0|0:0|0:0,0:0:0:0:
359,141,69972,6,0,L|345:98,2,35,4|0|2,0:3|0:0|0:0,0:0:0:0:
277,125,70315,2,0,L|206:106,1,70,4|2,0:3|0:0,0:0:0:0:
145,150,70658,2,0,P|165:204|117:291,1,140,8|2,0:0|0:0,0:0:0:0:
120,292,71087,1,0,0:0:0:0:
103,304,71172,1,2,0:0:0:0:
147,367,71344,6,0,L|223:373,1,70,4|2,0:3|0:0,0:0:0:0:
290,348,71687,2,0,P|319:337|336:334,2,35,4|0|2,0:3|0:0|0:0,0:0:0:0:
246,284,72030,2,0,B|229:252|236:223|236:223|270:144,1,140,8|2,0:0|0:0,0:0:0:0:
313,91,72544,1,2,0:0:0:0:
388,105,72715,6,0,P|395:135|389:178,1,70,2|2,0:0|0:0,0:0:0:0:
354,241,73058,1,4,0:3:0:0:
354,241,73230,1,0,0:0:0:0:
246,284,73401,2,0,L|126:277,1,105,8|0,0:0|0:0,0:0:0:0:
121,270,73744,2,0,P|108:232|119:187,1,70,2|2,0:0|0:0,0:0:0:0:
145,133,74087,5,4,0:0:0:0:
205,86,74258,1,2,0:0:0:0:
280,70,74430,1,2,0:0:0:0:
280,70,74515,1,0,0:0:0:0:
280,70,74601,1,2,0:0:0:0:
355,85,74772,2,0,L|424:100,1,70,8|2,0:0|0:0,0:0:0:0:
442,188,75115,2,0,L|373:173,1,70,2|2,0:0|0:0,0:0:0:0:
297,237,75458,6,0,L|366:252,1,70,2|0,0:0|0:0,0:0:0:0:
227,269,75801,2,0,P|220:229|231:196,1,70,2|2,0:0|0:0,0:0:0:0:
290,321,76144,2,0,P|218:349|152:304,1,140,8|2,0:0|0:0,0:0:0:0:
119,260,76658,1,2,0:0:0:0:
115,239,76744,1,0,0:0:0:0:
114,217,76830,6,0,L|133:135,1,70,4|2,0:3|0:0,0:0:0:0:
177,88,77172,2,0,B|223:118|223:118|281:118,1,105,0|0,1:0|0:0,0:0:0:0:
292,108,77515,2,0,P|305:79|305:24,1,70,4|2,0:3|0:0,0:0:0:0:
319,187,77858,2,0,P|306:226|322:304,1,105,8|0,1:2|0:0,0:0:0:0:
327,304,78201,6,0,B|260:307|260:307|194:345,1,140,8|8,0:0|0:0,0:0:0:0:
106,368,78715,1,2,0:0:0:0:
63,286,78887,2,0,P|60:248|74:211,1,70,4|2,0:0|0:0,0:0:0:0:
106,150,79230,1,0,1:0:0:0:
117,132,79315,1,0,0:0:0:0:
128,114,79401,1,2,0:0:0:0:
177,54,79572,6,0,P|211:38|268:40,1,70,4|2,0:3|0:0,0:0:0:0:
318,50,79915,2,0,P|349:65|383:68,1,70,4|2,0:3|0:0,0:0:0:0:
435,11,80258,2,0,L|410:164,1,140,8|2,0:0|0:0,0:0:0:0:
337,227,80772,1,0,0:0:0:0:
337,227,80858,1,0,0:0:0:0:
337,227,80944,6,0,P|301:215|210:263,1,140,0|2,1:0|0:0,0:0:0:0:
206,276,81372,1,0,0:0:0:0:
205,297,81458,1,2,0:0:0:0:
122,353,81630,2,0,L|88:284,1,70,4|0,0:0|1:0,0:0:0:0:
59,220,81972,1,8,0:0:0:0:
127,82,82315,6,0,L|144:42,3,35,2|0|2|0,0:0|0:0|0:0|0:0,0:0:0:0:
178,63,82658,2,0,L|210:33,3,35,2|0|2|0,0:0|0:0|0:0|0:0,0:0:0:0:
233,62,83001,2,0,L|274:49,3,35,2|0|2|0,0:0|0:0|0:0|0:0,0:0:0:0:
278,86,83344,2,0,L|340:125,1,70,2|2,0:0|0:2,0:0:0:0:
308,352,84030,6,0,L|248:314,1,70,0|2,1:0|0:0,0:0:0:0:
182,275,84372,1,4,0:3:0:0:
182,275,84458,1,0,0:0:0:0:
182,275,84544,1,2,0:0:0:0:
118,319,84715,2,0,P|105:266|141:209,1,105,8|0,0:0|0:0,0:0:0:0:
137,204,85058,6,0,P|157:162|158:124,1,70,0|2,1:2|0:0,0:0:0:0:
119,73,85401,2,0,L|44:38,1,70,8|2,0:0|0:0,0:0:0:0:
160,139,85744,1,2,0:0:0:0:
229,172,85915,1,2,0:0:0:0:
305,162,86087,1,2,0:0:0:0:
363,112,86258,1,2,0:0:0:0:
437,91,86430,6,0,P|458:107|470:117,2,35,2|0|2,0:0|0:0|0:0,0:0:0:0:
419,170,86772,2,0,P|431:193|437:207,2,35,2|0|2,0:0|0:0|0:0,0:0:0:0:
362,233,87115,2,0,L|362:305,1,70,4|2,0:0|0:0,0:0:0:0:
284,336,87458,2,0,L|264:376,1,35,2|0,0:0|0:0,0:0:0:0:
240,324,87630,2,0,L|196:336,1,35,2|0,0:0|0:0,0:0:0:0:
