osu file format v13

[General]
AudioFilename: Subplaid-Jeg onskerikke a skade deg.mp3
AudioLeadIn: 0
PreviewTime: 65858
Countdown: 0
SampleSet: Soft
StackLeniency: 0.7
Mode: 0
LetterboxInBreaks: 0
WidescreenStoryboard: 0

[Editor]
Bookmarks: 21972
DistanceSpacing: 0.6
BeatDivisor: 4
GridSize: 4
TimelineZoom: 1.1

[Metadata]
Title:Jeg onskerikke a skade deg
TitleUnicode:Jeg onskerikke a skade deg
Artist:subplaid
ArtistUnicode:subplaid
Creator:Near
Version:Definition of Life
Source:
Tags:jungle breakcore idm ønsker ikke ukraine ukrainian
BeatmapID:563895
BeatmapSetID:244640

[Difficulty]
HPDrainRate:7
CircleSize:4
OverallDifficulty:8
ApproachRate:9
SliderMultiplier:1.9
SliderTickRate:2

[Events]
//Background and Video events
0,0,"suicide.jpg",0,0
//Break Periods
//Storyboard Layer 0 (Background)
//Storyboard Layer 1 (Fail)
//Storyboard Layer 2 (Pass)
//Storyboard Layer 3 (Foreground)
//Storyboard Sound Samples

[TimingPoints]
30,342.857142857143,4,2,0,70,1,0
65858,-100,4,2,0,80,0,1
87715,-100,4,2,0,80,0,0

[Colours]
Combo1 : 199,203,214
Combo2 : 206,200,162

[HitObjects]
53,325,21972,6,0,P|133:340|195:262,1,190,4|2,0:2|0:0,0:0:0:0:
108,257,22487,1,2,0:0:0:0:
305,313,22658,2,0,B|267:332|267:332|228:377,1,95,2|0,0:0|1:0,0:0:0:0:
379,353,23001,2,0,P|388:314|362:254,1,95,2|0,0:0|0:0,0:0:0:0:
266,176,23344,6,0,L|305:314,2,142.5,8|8|8,0:0|0:0|0:0,0:0:0:0:
202,118,24030,1,0,1:0:0:0:
93,182,24201,2,0,B|50:209|50:209|11:258,2,95,4|2|2,0:0|0:0|0:0,0:0:0:0:
202,118,24715,5,0,1:0:0:0:
283,90,24887,1,2,0:0:0:0:
347,204,25058,1,0,1:0:0:0:
266,176,25230,1,2,0:0:0:0:
416,155,25401,1,8,0:0:0:0:
363,298,25572,2,0,L|346:193,1,95,0|2,1:0|0:0,0:0:0:0:
349,175,25830,1,0,0:0:0:0:
357,148,25915,1,2,0:0:0:0:
373,125,26001,1,0,0:0:0:0:
399,113,26087,5,2,0:0:0:0:
264,309,26344,1,0,0:0:0:0:
264,309,26430,2,0,P|236:322|171:314,1,95,2|2,0:0|0:0,0:0:0:0:
151,179,26772,2,0,P|178:192|214:247,2,95,4|0|8,0:0|1:0|0:0,0:0:0:0:
426,346,27458,6,0,L|446:133,1,190,0|2,1:0|0:0,0:0:0:0:
434,129,27887,1,0,0:0:0:0:
414,108,27972,1,2,0:0:0:0:
388,95,28058,1,0,0:0:0:0:
359,89,28144,1,2,0:0:0:0:
330,91,28230,1,0,0:0:0:0:
303,99,28315,1,2,0:0:0:0:
279,115,28401,1,0,0:0:0:0:
261,137,28487,2,0,L|260:231,1,95,2|2,0:0|0:0,0:0:0:0:
213,341,28830,6,0,B|181:319|181:319|121:306,1,95,4|2,0:0|0:0,0:0:0:0:
97,308,29087,2,0,P|134:262|150:211,1,95,8|0,0:0|0:0,0:0:0:0:
148,200,29344,1,0,1:0:0:0:
109,124,29515,1,0,1:0:0:0:
23,114,29687,1,0,1:0:0:0:
202,131,29858,2,0,L|364:147,1,142.5,8|0,0:0|0:0,0:0:0:0:
386,152,30201,5,0,1:0:0:0:
425,268,30372,2,0,P|432:285|436:324,1,47.5,2|0,0:0|0:0,0:0:0:0:
352,312,30544,2,0,P|341:293|319:273,1,47.5,0|0,1:0|0:0,0:0:0:0:
264,324,30715,2,0,L|270:376,1,47.5,2|0,0:0|0:0,0:0:0:0:
181,304,30887,2,0,P|140:291|70:306,1,95,8|2,0:0|0:0,0:0:0:0:
37,169,31230,1,2,0:0:0:0:
49,143,31315,1,0,0:0:0:0:
64,119,31401,1,2,0:0:0:0:
84,99,31487,1,0,0:0:0:0:
107,83,31572,6,0,P|117:57|120:29,1,47.5,2|0,0:0|0:0,0:0:0:0:
187,146,31744,2,0,P|190:169|199:191,1,47.5,2|0,0:0|0:0,0:0:0:0:
289,158,31915,1,2,0:0:0:0:
312,142,32001,1,0,0:0:0:0:
338,132,32087,1,2,0:0:0:0:
366,128,32172,1,0,0:0:0:0:
394,131,32258,2,0,L|500:149,2,95,4|0|8,0:0|0:0|0:0,0:0:0:0:
328,282,32772,1,2,0:0:0:0:
328,282,32858,1,0,0:0:0:0:
328,282,32944,5,0,1:0:0:0:
250,317,33115,1,0,0:0:0:0:
166,297,33287,2,0,L|65:275,2,95,2|2|2,0:0|0:0|0:0,0:0:0:0:
320,368,33801,1,0,1:0:0:0:
257,231,33972,2,0,P|245:182|257:140,1,95,2|2,0:0|0:0,0:0:0:0:
475,143,34315,6,0,P|444:194|321:179,1,190,4|2,0:0|0:0,0:0:0:0:
306,164,34744,1,0,0:0:0:0:
283,146,34830,1,2,0:0:0:0:
256,136,34915,1,0,0:0:0:0:
227,134,35001,1,2,0:0:0:0:
199,140,35087,1,0,0:0:0:0:
173,151,35172,1,2,0:0:0:0:
151,169,35258,1,0,0:0:0:0:
136,193,35344,2,0,L|116:295,1,95,2|0,0:0|0:0,0:0:0:0:
206,360,35687,6,0,B|248:344|248:344|316:340,1,95,4|0,0:0|0:0,0:0:0:0:
325,346,35944,2,0,P|383:364|438:349,1,95,8|0,0:0|0:0,0:0:0:0:
442,347,36201,1,0,1:0:0:0:
475,268,36372,1,4,0:0:0:0:
397,127,36544,2,0,L|386:253,2,95,0|2|2,1:0|0:0|0:0,0:0:0:0:
407,41,37058,5,0,1:0:0:0:
283,128,37230,1,2,0:0:0:0:
407,41,37401,1,0,1:0:0:0:
208,80,37572,2,0,L|113:100,1,95,2|8,0:0|0:0,0:0:0:0:
36,221,37915,2,0,P|28:252|31:278,1,47.5,0|0,1:0|0:0,0:0:0:0:
108,279,38087,2,0,P|113:310|127:332,1,47.5,2|0,0:0|0:0,0:0:0:0:
200,301,38258,2,0,P|218:327|240:341,1,47.5,2|0,0:0|0:0,0:0:0:0:
297,278,38430,6,0,L|398:260,1,95,4|0,0:0|0:0,0:0:0:0:
444,195,38772,1,2,0:0:0:0:
394,124,38944,1,2,0:0:0:0:
308,118,39115,1,2,0:0:0:0:
235,164,39287,1,0,1:0:0:0:
172,105,39458,2,0,P|161:65|183:5,1,95,2|2,0:0|0:0,0:0:0:0:
235,164,39801,6,0,P|168:191|100:151,2,142.5,8|8|0,0:0|0:0|1:0,0:0:0:0:
308,118,40487,1,2,0:0:0:0:
394,124,40658,1,2,0:0:0:0:
444,195,40830,2,0,L|469:346,2,142.5,8|8|0,0:0|0:0|1:0,0:0:0:0:
352,264,41515,5,2,0:0:0:0:
326,276,41601,1,0,0:0:0:0:
297,281,41687,1,2,0:0:0:0:
268,277,41772,1,0,0:0:0:0:
241,266,41858,2,0,P|207:217|216:158,1,95,2|0,0:0|1:0,0:0:0:0:
76,316,42201,2,0,L|31:349,1,47.5,2|0,0:0|0:0,0:0:0:0:
83,231,42372,2,0,L|50:186,1,47.5,2|0,0:0|0:0,0:0:0:0:
169,241,42544,6,0,L|214:208,1,47.5,2|0,0:0|0:0,0:0:0:0:
162,326,42715,2,0,L|195:371,1,47.5,2|0,0:0|0:0,0:0:0:0:
305,362,42887,2,0,L|408:346,1,95,4|0,0:0|1:0,0:0:0:0:
462,262,43230,1,8,0:0:0:0:
468,234,43315,1,0,0:0:0:0:
468,205,43401,1,2,0:0:0:0:
459,177,43487,1,0,0:0:0:0:
443,153,43572,1,0,1:0:0:0:
368,110,43744,1,2,0:0:0:0:
340,101,43830,1,0,0:0:0:0:
312,94,43915,6,0,L|217:72,1,95,4|0,0:0|0:0,0:0:0:0:
57,285,44601,2,0,P|40:308|26:337,1,47.5,2|0,0:0|0:0,0:0:0:0:
119,223,44772,2,0,P|107:202|93:183,1,47.5,2|0,0:0|0:0,0:0:0:0:
141,309,44944,1,0,0:0:0:0:
141,309,45287,6,0,P|190:338|273:320,1,142.5,4|8,0:0|0:0,0:0:0:0:
312,224,45715,2,0,L|302:169,1,47.5,0|0,1:0|0:0,0:0:0:0:
376,347,45972,1,2,0:0:0:0:
403,353,46058,1,0,0:0:0:0:
431,353,46144,1,2,0:0:0:0:
458,346,46230,1,0,0:0:0:0:
481,331,46315,2,0,L|514:291,1,47.5,8|0,0:0|0:0,0:0:0:0:
449,233,46487,2,0,L|416:273,1,47.5,2|0,0:0|0:0,0:0:0:0:
407,150,46658,5,0,1:0:0:0:
332,107,46830,1,2,0:0:0:0:
304,98,46915,1,0,0:0:0:0:
275,96,47001,1,0,1:0:0:0:
246,100,47087,1,0,0:0:0:0:
220,112,47172,1,2,0:0:0:0:
197,129,47258,1,0,0:0:0:0:
181,152,47344,2,0,L|169:270,1,95,8|2,0:0|0:0,0:0:0:0:
167,274,47601,1,0,0:0:0:0:
171,302,47687,2,0,P|197:331|221:348,1,47.5,2|0,0:0|0:0,0:0:0:0:
86,326,47858,2,0,P|60:355|36:372,1,47.5,2|0,0:0|0:0,0:0:0:0:
263,262,48030,5,2,0:0:0:0:
290,256,48115,1,0,0:0:0:0:
318,256,48201,1,2,0:0:0:0:
345,261,48287,1,0,0:0:0:0:
370,272,48372,2,0,L|426:301,1,47.5,2|0,0:0|0:0,0:0:0:0:
469,215,48544,2,0,L|447:172,1,47.5,2|0,0:0|0:0,0:0:0:0:
330,87,48715,2,0,B|256:63|256:63|184:44|137:104,1,190,4|8,0:0|0:0,0:0:0:0:
192,289,49230,1,2,0:0:0:0:
209,266,49315,1,0,0:0:0:0:
217,238,49401,6,0,P|226:183|216:131,1,95,4|0,0:0|0:0,0:0:0:0:
303,342,50087,1,2,0:0:0:0:
366,284,50258,2,0,P|397:237|410:186,1,95,0|0,1:0|0:0,0:0:0:0:
183,146,50772,6,0,L|193:298,2,142.5,8|8|0,0:0|0:0|1:0,0:0:0:0:
144,69,51458,2,0,P|111:53|43:57,1,95,0|2,1:0|0:0,0:0:0:0:
235,73,51801,1,2,0:0:0:0:
235,73,51972,1,2,0:0:0:0:
90,141,52144,6,0,P|56:155|15:210,1,95,0|0,1:0|0:0,0:0:0:0:
134,314,52487,2,0,P|134:277|102:217,1,95,0|0,1:0|0:0,0:0:0:0:
40,290,52830,1,8,0:0:0:0:
198,370,53001,1,0,1:0:0:0:
272,328,53172,1,2,0:0:0:0:
298,317,53258,1,0,0:0:0:0:
326,311,53344,1,2,0:0:0:0:
354,311,53430,1,0,0:0:0:0:
381,316,53515,6,0,B|442:337|442:337|521:312,1,142.5,2|2,0:0|0:0,0:0:0:0:
506,286,53858,2,0,P|489:231|496:189,1,95,0|2,1:0|0:0,0:0:0:0:
422,122,54201,2,0,L|339:217,2,95,0|2|2,1:0|0:0|0:3,0:0:0:0:
90,122,54887,6,0,L|152:193,1,95,0|2,1:0|0:0,0:0:0:0:
256,339,55572,1,2,0:0:0:0:
256,310,55658,1,0,0:0:0:0:
256,281,55744,1,2,0:0:0:0:
256,252,55830,1,0,0:0:0:0:
256,223,55915,1,0,0:0:0:0:
157,329,56258,6,0,P|110:359|22:335,1,142.5,4|8,0:0|0:0,0:0:0:0:
12,320,56601,2,0,P|28:291|86:233,1,95,0|0,0:0|1:0,0:0:0:0:
142,200,56944,1,2,0:0:0:0:
164,181,57030,1,0,0:0:0:0:
181,158,57115,1,2,0:0:0:0:
191,131,57201,1,0,0:0:0:0:
194,102,57287,1,0,1:0:0:0:
310,138,57458,1,2,0:0:0:0:
336,149,57544,1,0,0:0:0:0:
364,154,57630,6,0,L|477:149,1,95,0|2,1:0|0:0,0:0:0:0:
475,172,57887,1,0,0:0:0:0:
485,198,57972,1,0,1:0:0:0:
487,226,58058,1,0,0:0:0:0:
484,254,58144,1,2,0:0:0:0:
478,282,58230,1,0,0:0:0:0:
467,308,58315,2,0,B|426:333|426:333|399:378,1,95,8|2,0:0|0:0,0:0:0:0:
374,365,58572,1,0,0:0:0:0:
346,357,58658,2,0,P|314:353|279:355,1,47.5,2|0,0:0|0:0,0:0:0:0:
217,368,58830,2,0,P|193:372|171:380,1,47.5,2|0,0:0|0:0,0:0:0:0:
72,322,59001,6,0,L|53:273,3,47.5,2|0|2|0,0:0|0:0|0:0|0:0,0:0:0:0:
61,249,59344,1,8,0:0:0:0:
75,224,59430,1,0,0:0:0:0:
96,206,59515,1,2,0:0:0:0:
122,195,59601,1,0,0:0:0:0:
150,193,59687,2,0,B|199:210|245:221|245:221|292:211|345:189,1,190,4|2,0:0|0:0,0:0:0:0:
408,82,60201,1,2,0:0:0:0:
382,69,60287,1,0,0:0:0:0:
354,61,60372,6,0,P|301:60|251:84,1,95,4|0,1:2|0:0,0:0:0:0:
217,148,60715,1,0,0:0:0:0:
263,219,60887,1,0,0:0:0:0:
347,231,61058,1,2,0:0:0:0:
423,191,61230,2,0,B|463:165|463:165|523:153,2,95,0|2|0,1:0|0:0|0:0,0:0:0:0:
292,301,61744,6,0,P|379:311|428:267,2,142.5,8|8|0,0:0|0:0|1:0,0:0:0:0:
263,219,62430,1,0,1:0:0:0:
172,303,62601,2,0,P|141:326|69:335,2,95,0|2|0,1:0|0:0|0:0,0:0:0:0:
263,219,63115,6,0,L|337:141,1,95,2|0,1:2|0:0,0:0:0:0:
219,140,63458,2,0,B|182:178|182:178|122:196,1,95,2|0,1:2|0:0,0:0:0:0:
67,147,63801,1,8,0:0:0:0:
185,68,63972,2,0,P|214:61|279:89,1,95,0|2,1:0|0:0,0:0:0:0:
295,101,64230,1,0,0:0:0:0:
309,125,64315,1,2,0:0:0:0:
347,197,64487,6,0,L|363:339,1,142.5,2|2,0:0|0:0,0:0:0:0:
336,349,64830,2,0,B|287:342|287:342|236:355,1,95,2|0,0:0|0:0,0:0:0:0:
120,380,65172,1,4,0:0:0:0:
160,304,65344,1,0,1:0:0:0:
139,221,65515,1,2,0:0:0:0:
139,221,65858,5,4,0:3:0:0:
222,242,66030,1,2,0:0:0:0:
302,212,66201,2,0,L|359:186,2,47.5,4|0|2,0:3|0:0|0:0,0:0:0:0:
378,115,66544,2,0,P|419:155|376:271,1,190,8|2,0:0|0:0,0:0:0:0:
357,282,66972,1,0,0:0:0:0:
329,289,67058,1,2,0:0:0:0:
300,286,67144,1,0,0:0:0:0:
273,274,67230,6,0,P|246:265|199:266,1,47.5,2|0,0:0|0:0,0:0:0:0:
145,284,67401,2,0,P|122:291|99:295,1,47.5,2|0,0:0|0:0,0:0:0:0:
32,239,67572,2,0,L|22:123,1,95,4|2,0:3|0:0,0:0:0:0:
35,117,67830,1,0,1:0:0:0:
54,97,67915,2,0,P|84:78|121:71,1,47.5,8|0,0:0|0:0,0:0:0:0:
175,178,68087,2,0,P|141:167|112:143,1,47.5,2|0,0:0|0:0,0:0:0:0:
236,75,68258,2,0,L|342:88,1,95,2|2,0:0|0:0,0:0:0:0:
410,116,68601,5,4,0:3:0:0:
441,195,68772,1,2,0:0:0:0:
392,265,68944,1,4,0:3:0:0:
378,290,69030,1,0,0:0:0:0:
374,318,69115,1,2,0:0:0:0:
381,345,69201,1,0,0:0:0:0:
397,368,69287,2,0,L|495:376,1,95,8|2,0:0|0:0,0:0:0:0:
294,319,69630,2,0,P|301:287|312:268,1,47.5,2|0,0:0|0:0,0:0:0:0:
210,331,69801,2,0,P|213:354|223:375,1,47.5,2|0,0:0|0:0,0:0:0:0:
134,297,69972,6,0,P|100:285|25:302,1,95,4|2,0:3|0:0,0:0:0:0:
57,166,70315,1,4,0:3:0:0:
81,151,70401,1,0,0:0:0:0:
107,140,70487,1,2,0:0:0:0:
134,132,70572,1,0,1:0:0:0:
162,129,70658,2,0,L|283:135,1,95,8|2,0:0|0:0,0:0:0:0:
386,198,71001,2,0,P|410:214|436:224,1,47.5,2|0,0:0|0:0,0:0:0:0:
431,79,71172,2,0,P|409:88|389:102,1,47.5,2|0,0:0|0:0,0:0:0:0:
352,274,71344,6,0,P|403:300|454:305,1,95,4|2,0:3|0:0,0:0:0:0:
290,328,71687,1,4,0:3:0:0:
265,313,71772,1,0,0:0:0:0:
237,304,71858,1,2,0:0:0:0:
209,297,71944,1,0,0:0:0:0:
180,295,72030,2,0,P|137:313|86:364,1,95,8|2,0:0|0:0,0:0:0:0:
47,253,72372,1,2,0:0:0:0:
55,225,72458,1,0,0:0:0:0:
71,201,72544,1,2,0:0:0:0:
92,182,72630,1,0,0:0:0:0:
115,166,72715,6,0,P|132:143|147:115,1,47.5,2|0,0:0|0:0,0:0:0:0:
216,181,72887,2,0,P|228:201|242:220,1,47.5,2|0,0:0|0:0,0:0:0:0:
345,210,73058,1,4,0:3:0:0:
353,182,73144,1,0,0:0:0:0:
353,153,73230,1,0,0:0:0:0:
342,126,73315,1,0,1:0:0:0:
324,103,73401,2,0,L|275:69,2,47.5,8|0|2,0:0|0:0|0:0,0:0:0:0:
454,170,73744,2,0,L|493:142,2,47.5,2|0|2,0:0|0:0|0:0,0:0:0:0:
406,287,74087,6,0,L|406:382,1,95,4|2,0:0|0:0,0:0:0:0:
271,308,74430,1,2,0:0:0:0:
246,294,74515,1,0,0:0:0:0:
218,286,74601,1,2,0:0:0:0:
189,286,74687,1,0,0:0:0:0:
161,292,74772,2,0,L|46:331,1,95,8|2,0:0|0:0,0:0:0:0:
168,206,75115,1,2,0:0:0:0:
182,181,75200,1,0,0:0:0:0:
190,153,75286,1,2,0:0:0:0:
190,124,75372,1,0,0:0:0:0:
184,96,75458,6,0,L|145:-19,1,95,2|0,0:0|0:0,0:0:0:0:
269,104,75801,1,2,0:0:0:0:
294,118,75886,1,0,0:0:0:0:
322,126,75972,1,2,0:0:0:0:
351,126,76058,1,0,0:0:0:0:
379,120,76143,2,0,L|494:81,1,95,8|2,0:0|0:0,0:0:0:0:
370,212,76487,2,0,P|364:237|362:274,1,47.5,2|0,0:0|0:0,0:0:0:0:
314,346,76658,2,0,P|281:335|250:330,1,47.5,2|0,0:0|0:0,0:0:0:0:
164,338,76830,6,0,P|121:347|66:388,1,95,4|2,0:3|0:0,0:0:0:0:
165,236,77172,2,0,P|156:193|115:138,1,95,0|2,1:0|0:0,0:0:0:0:
251,291,77515,2,0,P|290:316|336:327,1,95,4|2,0:3|0:0,0:0:0:0:
445,256,77858,2,0,L|468:149,1,95,8|2,1:2|0:0,0:0:0:0:
459,135,78115,1,0,0:0:0:0:
444,110,78201,6,0,P|408:94|341:106,1,95,8|2,0:0|0:0,0:0:0:0:
329,114,78458,1,0,0:0:0:0:
303,127,78544,2,0,P|267:143|200:131,1,95,8|2,0:0|0:0,0:0:0:0:
111,91,78887,1,4,0:0:0:0:
111,91,79058,1,2,0:0:0:0:
60,187,79230,2,0,L|69:284,1,95,0|2,1:0|0:0,0:0:0:0:
82,306,79487,1,0,0:0:0:0:
105,321,79572,6,0,B|128:332|152:335|152:335|208:323,1,95,4|2,0:3|0:0,0:0:0:0:
256,229,79915,2,0,P|263:198|261:173,1,47.5,4|0,0:3|0:0,0:0:0:0:
312,325,80087,2,0,P|312:348|318:371,1,47.5,2|0,0:0|0:0,0:0:0:0:
425,301,80258,2,0,P|430:256|409:205,1,95,8|2,0:0|0:0,0:0:0:0:
343,96,80601,2,0,L|337:42,1,47.5,2|0,0:0|0:0,0:0:0:0:
263,161,80772,2,0,L|257:208,1,47.5,2|0,0:0|0:0,0:0:0:0:
186,95,80944,6,0,P|144:80|88:88,1,95,0|2,1:0|0:0,0:0:0:0:
32,181,81287,1,2,0:0:0:0:
24,208,81372,1,0,0:0:0:0:
24,236,81458,1,2,0:0:0:0:
28,264,81544,1,0,0:0:0:0:
40,290,81630,2,0,L|15:381,2,95,4|0|8,0:0|1:0|0:0,0:0:0:0:
335,328,82315,5,2,0:0:0:0:
360,314,82400,1,0,0:0:0:0:
381,295,82486,1,2,0:0:0:0:
396,271,82572,1,0,0:0:0:0:
404,244,82657,1,2,0:0:0:0:
405,215,82743,1,0,0:0:0:0:
398,188,82829,1,2,0:0:0:0:
385,163,82915,1,0,0:0:0:0:
366,142,83000,1,2,0:0:0:0:
341,127,83086,1,0,0:0:0:0:
314,119,83172,1,2,0:0:0:0:
286,118,83257,1,0,0:0:0:0:
256,124,83344,2,0,L|192:140,2,47.5,2|0|2,0:0|0:0|0:0,0:0:0:0:
94,265,84030,6,0,B|109:300|109:300|99:360,1,95,0|2,1:0|0:0,0:0:0:0:
174,232,84372,2,0,P|192:206|214:189,1,47.5,4|0,0:3|0:0,0:0:0:0:
304,196,84544,2,0,P|321:212|333:232,1,47.5,2|0,0:0|0:0,0:0:0:0:
256,354,84715,2,0,L|256:244,1,95,8|2,0:0|0:0,0:0:0:0:
312,106,85058,6,0,L|360:93,1,47.5,0|0,1:2|0:0,0:0:0:0:
200,106,85230,2,0,L|152:93,1,47.5,2|0,0:0|0:0,0:0:0:0:
7,152,85401,2,0,L|106:181,1,95,8|2,0:0|0:0,0:0:0:0:
261,229,85744,1,2,0:0:0:0:
292,240,85830,1,0,0:0:0:0:
324,242,85915,1,2,0:0:0:0:
356,232,86001,1,0,0:0:0:0:
381,210,86087,1,2,0:0:0:0:
395,180,86172,1,0,0:0:0:0:
399,146,86258,1,2,0:0:0:0:
391,113,86344,1,0,0:0:0:0:
373,84,86430,6,0,L|334:51,1,47.5,2|0,0:0|0:0,0:0:0:0:
230,86,86601,2,0,L|269:119,1,47.5,2|0,0:0|0:0,0:0:0:0:
261,229,86772,2,0,L|222:196,1,47.5,2|0,0:0|0:0,0:0:0:0:
118,231,86944,2,0,L|157:264,1,47.5,2|0,0:0|0:0,0:0:0:0:
265,340,87115,2,0,B|295:347|314:348|314:348|337:346|361:338,1,95,4|2,0:0|0:0,0:0:0:0:
444,269,87458,1,2,0:0:0:0:
450,241,87544,1,0,0:0:0:0:
446,212,87630,1,2,0:0:0:0:
435,185,87715,1,0,0:0:0:0:
