osu file format v12

[General]
AudioFilename: Sta - Iris.mp3
AudioLeadIn: 3000
PreviewTime: 16858
Countdown: 0
SampleSet: Normal
StackLeniency: 0.3
Mode: 0
LetterboxInBreaks: 0
WidescreenStoryboard: 1

[Editor]
Bookmarks: 2088,5781,8550,9473,15012,16858,24242,31627,39012,46396,50087,53779,58549,61164,71318,80858,81164,88241,88549,95933,103317,110702,113933
DistanceSpacing: 1.1
BeatDivisor: 2
GridSize: 4

[Metadata]
Title:Iris
TitleUnicode:Iris
Artist:sta
ArtistUnicode:sta
Creator:ampzz
Version:Easy
Source:Cytus
Tags:Kousin Prologue rayark bit192 yang niangniang electronic cheesiest TKSalt
BeatmapID:263386
BeatmapSetID:94917

[Difficulty]
HPDrainRate:2
CircleSize:3
OverallDifficulty:2
ApproachRate:3
SliderMultiplier:0.799999999999999
SliderTickRate:1

[Events]
//Background and Video events
0,0,"Sta - Iris - Background.jpg",0,0
//Break Periods
2,2595,4341
2,6288,7110
2,81364,86801
//Storyboard Layer 0 (Background)
//Storyboard Layer 1 (Fail)
//Storyboard Layer 2 (Pass)
//Storyboard Layer 3 (Foreground)
//Storyboard Sound Samples
//Background Colour Transformations
3,100,0,0,0

[TimingPoints]
2089,307.692307692308,6,1,0,60,1,0
9781,-100,6,2,0,70,0,0
15627,-100,6,2,0,50,0,0
15935,-100,6,1,0,60,0,0
16858,-100,6,1,0,80,0,0
21165,-100,6,2,0,60,0,0
21473,-100,6,2,0,80,0,0
22396,-100,6,1,0,60,0,0
24242,-100,6,1,0,80,0,0
29781,-100,6,1,0,80,0,0
29858,-100,6,1,0,40,0,0
30396,-100,6,1,0,80,0,0
31627,-100,6,1,0,80,0,1
33165,-100,6,1,0,80,0,1
45473,-100,6,1,0,80,0,0
46396,-100,6,1,0,60,0,0
46703,307.692307692308,6,1,0,60,1,0
51318,-100,6,2,0,60,0,0
51626,-100,6,1,0,60,0,0
52549,-100,6,2,0,80,0,0
53472,-100,6,2,0,60,0,0
53780,-100,6,1,0,60,0,0
55011,-100,6,2,0,60,0,0
55626,-100,6,2,0,35,0,0
56242,-100,6,2,0,60,0,0
56549,-100,6,2,0,25,0,0
56857,-100,6,2,0,60,0,0
57472,-100,6,1,0,60,0,0
58549,-100,6,2,0,20,0,0
60703,-100,6,1,0,60,0,0
61472,307.692307692308,4,1,0,60,1,0
61472,-100,4,2,0,100,0,0
68856,-100,4,1,0,70,0,0
71318,-100,4,2,0,100,0,0
73164,-100,4,2,0,75,0,0
73779,-100,4,2,0,100,0,0
75933,-100,4,3,0,75,0,0
76241,-100,4,2,0,100,0,0
80010,-100,4,1,0,60,0,0
88549,-100,4,2,0,60,0,0
95933,307.692307692308,6,1,0,60,1,0
95933,-100,6,1,0,60,0,0
103317,-100,6,1,0,60,0,1
110702,-100,6,1,0,60,0,0

[Colours]
Combo1 : 0,202,202
Combo2 : 0,202,0
Combo3 : 18,124,255
Combo4 : 202,101,0

[HitObjects]
375,290,2088,2,0,P|388:253|387:213,1,79.9999999999999,0|0,0:0|0:0,0:0:0:0:
136,290,5781,6,0,P|123:253|124:213,1,79.9999999999999,0|4,0:0|3:0,0:0:0:0:
350,77,8550,6,0,B|405:152|350:218|350:218|265:218,1,240,0|2,0:0|3:0,0:0:0:0:
177,216,9781,5,2,0:0:0:0:
131,291,10089,2,0,P|92:247|91:189,2,120,0|2|4,1:0|1:2|1:2,0:0:0:0:
216,317,11319,2,0,L|296:317,1,79.9999999999999,0|0,3:0|3:0,0:0:0:0:
380,291,11935,2,0,P|419:247|420:189,2,120,8|8|0,0:0|1:2|1:0,0:0:0:0:
335,215,13165,5,8,0:3:0:0:
354,129,13473,1,8,0:3:0:0:
310,54,13781,2,0,P|252:36|196:54,2,120,8|8|0,0:2|1:2|1:0,0:0:0:0:
254,124,15012,6,2,P|221:193|255:262,1,160,2|8,0:0|0:1,0:0:0:0:
310,193,15935,2,0,P|349:187|389:193,1,79.9999999999999,0|0,0:0|0:0,0:0:0:0:
447,258,16550,1,2,0:2:0:0:
412,338,16858,6,2,L|256:365,1,160,2|2,0:0|0:2,0:0:0:0:
269,278,17781,2,0,L|112:304,1,160,2|2,2:0|0:2,0:0:0:0:
32,268,18704,6,2,B|52:226|92:218|92:218|169:204,1,160,2|2,0:2|0:2,0:0:0:0:
257,193,19627,2,0,L|336:193,1,79.9999999999999,2|0,0:2|0:0,0:0:0:0:
404,136,20242,1,2,0:2:0:0:
378,51,20550,6,0,P|338:42|298:43,1,79.9999999999999,6|2,0:2|0:2,0:0:0:0:
230,98,21165,1,8,0:0:0:0:
181,172,21473,2,0,P|118:219|41:242,1,160,2|2,0:0|0:0,0:0:0:0:
55,329,22396,6,2,B|106:318|106:318|162:318|162:318|213:307,1,160,2|2,0:0|0:0,0:0:0:0:
300,307,23319,2,2,B|349:317|349:317|405:317|405:317|457:328,1,160,2|0,0:0|0:0,0:0:0:0:
495,249,24242,5,4,0:0:0:0:
328,192,24858,1,0,0:0:0:0:
247,229,25165,2,0,P|248:152|309:105,1,160,2|2,0:2|0:2,0:0:0:0:
396,118,26089,6,0,L|512:145,2,120,6|2|2,0:0|0:0|2:0,0:0:0:0:
226,70,27627,1,2,2:0:0:0:
143,105,27935,6,0,P|116:133|100:170,1,79.9999999999999,6|0,2:0|0:0,0:0:0:0:
135,251,28550,2,0,B|187:269|241:233|293:251,1,160,2|2,0:2|2:0,0:0:0:0:
376,278,29473,1,2,0:0:0:0:
435,340,29781,6,2,P|460:268|419:203,1,160,2|0,0:0|1:0,0:0:0:0:
333,183,30704,2,2,P|293:118|319:45,1,160,2|0,1:0|1:0,0:0:0:0:
234,26,31627,6,0,P|214:122|250:214,1,200,4|2,0:2|0:0,0:0:0:0:
376,252,32858,2,0,P|414:239|444:213,1,79.9999999999999,4|2,0:2|0:2,0:0:0:0:
427,127,33473,6,0,P|371:109|311:113,1,120,4|2,0:2|0:0,0:0:0:0:
233,151,34242,1,2,0:0:0:0:
178,220,34550,2,0,P|160:276|179:332,1,120,2|2,0:0|0:2,0:0:0:0:
265,358,35319,6,0,L|385:358,1,120,4|2,0:2|0:0,0:0:0:0:
385,269,36089,2,0,L|265:269,1,120,2|2,0:0|0:0,0:0:0:0:
201,208,36858,1,2,0:0:0:0:
113,208,37165,6,2,B|113:88,2,120
69,284,38396,1,2,0:0:0:0:
125,351,38704,1,0,0:0:0:0:
207,319,39012,6,0,L|314:266,1,120,4|2,0:2|0:0,0:0:0:0:
315,178,39781,2,0,L|422:125,1,120,2|4,0:0|0:2,0:0:0:0:
423,37,40550,1,2,2:0:0:0:
335,50,40858,6,0,L|227:102,1,120,4|2,0:2|0:0,0:0:0:0:
182,178,41627,1,2,0:0:0:0:
233,249,41935,2,0,P|176:264|122:241,1,120,2|2,0:0|2:0,0:0:0:0:
60,179,42704,6,0,L|6:72,1,120,4|2,0:2|0:0,0:0:0:0:
68,9,43473,2,0,L|122:116,1,120,2|2,0:0|0:0,0:0:0:0:
210,116,44242,1,2,0:0:0:0:
260,43,44550,6,0,P|290:150|192:202,1,240,2|6,0:0|2:0,0:0:0:0:
455,201,46396,1,0,0:0:0:0:
390,138,46703,6,0,P|366:192|375:250,1,120,2|2,0:0|0:0,0:0:0:0:
256,192,47626,12,4,50087,0:2:0:0:
197,29,50856,6,0,P|184:64|179:106,1,79.9999999999999,2|0,0:0|0:0,0:0:0:0:
222,183,51472,6,0,B|318:216|318:216|414:192,1,200,6|6,0:0|2:0,0:0:0:0:
310,335,52856,2,0,L|158:284,1,160,2|2,0:2|0:0,0:0:0:0:
97,219,53779,6,2,P|78:185|71:145,1,79.9999999999999,6|2,0:0|0:0,0:0:0:0:
158,45,54549,1,2,0:0:0:0:
251,138,55010,5,2,0:0:0:0:
339,138,55318,2,0,P|373:157|399:195,1,79.9999999999999,2|8,0:0|0:0,0:0:0:0:
307,341,56241,1,2,0:0:0:0:
232,294,56549,1,8,0:0:0:0:
146,313,56856,2,0,P|106:318|67:312,1,79.9999999999999,2|8,0:0|0:3,0:0:0:0:
36,229,57472,6,2,L|36:150,1,79.9999999999999,6|2,0:0|0:1,0:0:0:0:
129,55,58241,1,2,0:0:0:0:
256,192,58549,12,8,60703,0:0:0:0:
252,50,61472,6,0,L|93:50,1,160,4|2,0:1|0:0,0:0:0:0:
29,112,62395,1,2,0:0:0:0:
91,174,62703,2,2,L|250:174,1,160,2|2,0:0|0:0,0:0:0:0:
339,174,63626,1,4,0:1:0:0:
426,174,63933,6,0,P|463:242|426:308,1,160,4|2,0:1|0:0,0:0:0:0:
339,310,64856,1,0,0:0:0:0:
250,310,65164,2,0,L|184:356,1,79.9999999999999,2|4,0:0|0:1,0:0:0:0:
122,293,65779,2,0,L|188:247,1,79.9999999999999,0|0,0:0|3:0,0:0:0:0:
256,192,66395,6,0,P|270:115|225:52,1,160,4|2,0:1|0:0,0:0:0:0:
142,21,67318,1,2,0:0:0:0:
78,81,67625,2,0,P|63:157|108:220,1,160,2|2,0:0|0:0,0:0:0:0:
192,252,68548,1,2,0:0:0:0:
127,312,68856,6,2,B|127:341|153:358|187:358|202:334|228:334|257:371|257:371|286:334|312:334|327:358|361:358|387:341|387:312,2,320,4|2|4,0:1|2:0|0:1,0:0:0:0:
126,137,71933,5,2,1:2:0:0:
295,89,72549,2,2,P|357:135|372:212,1,160,2|4,0:0|1:0,0:0:0:0:
256,345,73779,5,2,1:2:0:0:
138,213,74395,1,2,1:2:0:0:
138,37,75010,6,2,P|212:12|287:37,1,160,2|2,0:0|1:2,0:0:0:0:
349,99,75933,1,2,3:2:0:0:
370,184,76241,6,0,P|355:261|296:313,2,160,4|0|0,0:1|1:0|3:0,0:0:0:0:
296,135,77779,1,0,1:0:0:0:
233,197,78087,1,4,1:1:0:0:
57,195,78703,6,0,P|25:124|55:52,1,160,4|2,1:0|1:2,0:0:0:0:
139,27,79626,1,4,0:1:0:0:
226,28,79933,2,2,B|279:63|287:126|287:126|348:110|401:146,1,240,4|4,0:0|0:2,0:0:0:0:
446,222,81164,5,4,0:0:0:0:
256,34,88241,6,0,L|256:117,1,79.9999999999999,4|4,0:3|0:0,0:0:0:0:
256,290,89164,1,0,3:0:0:0:
420,228,89779,5,2,3:2:0:0:
368,61,90395,1,0,3:0:0:0:
193,46,91010,5,0,3:0:0:0:
129,107,91318,1,2,0:0:0:0:
129,195,91626,2,0,L|129:276,1,79.9999999999999,4|0,0:3|0:0,0:0:0:0:
191,335,92241,6,0,P|269:321|347:336,1,160,0|0,1:0|3:0,0:0:0:0:
496,241,93472,2,0,P|511:164|496:86,1,160,4|0,0:0|3:0,0:0:0:0:
407,84,94395,1,2,0:0:0:0:
288,214,95010,6,0,B|289:273|289:273|313:328,2,120,0|4|2,3:0|0:3|1:0,0:0:0:0:
153,103,96548,2,0,P|99:79|39:80,2,120,6|2|0,0:0|0:0|0:0,0:0:0:0:
213,38,97779,6,0,P|241:109|202:176,1,160,4|2,0:2|0:2,0:0:0:0:
114,176,98702,2,0,P|81:197|57:229,1,79.9999999999999,2|2,0:2|0:2,0:0:0:0:
90,310,99317,1,4,0:2:0:0:
177,310,99625,6,0,L|336:310,1,160,2|0,0:2|0:0,0:0:0:0:
361,225,100548,2,0,L|201:225,1,160,2|2,0:2|0:2,0:0:0:0:
161,146,101471,5,4,0:2:0:0:
76,119,101779,2,0,P|12:159|19:235,1,160,4|0,2:0|0:0,0:0:0:0:
92,287,102702,1,2,0:0:0:0:
163,338,103009,1,2,0:0:0:0:
241,298,103317,6,0,B|285:295|285:295|316:308|316:308|358:303,2,120,2|2|0,0:0|0:0|0:0,0:0:0:0:
171,244,104548,2,2,L|171:165,1,79.9999999999999,4|0,0:2|0:0,0:0:0:0:
156,78,105163,6,0,P|100:96|42:87,2,120,4|2|0,0:2|0:0|0:0,0:0:0:0:
235,38,106394,2,2,L|304:81,1,79.9999999999999,2|0,0:0|0:0,0:0:0:0:
369,138,107009,6,0,P|390:192|369:247,2,120,4|2|0,0:2|0:0|0:0,0:0:0:0:
299,192,108240,2,0,L|220:192,1,79.9999999999999,2|2,0:0|0:0,0:0:0:0:
142,148,108856,6,2,B|103:135|103:135|70:113,2,79.9999999999999,4|0|0,0:0|0:0|0:0,0:0:0:0:
142,236,109779,2,2,B|103:249|103:249|70:271,2,79.9999999999999,4|4|4,0:0|0:3|0:3,0:0:0:0:
209,292,110702,1,4,0:0:0:0:
256,192,111625,12,4,113933,0:2:0:0:
