osu file format v11

[General]
AudioFilename: Natsuiro Kiseki OP HD 720p.mp3
AudioLeadIn: 2500
PreviewTime: 33358
Countdown: 0
SampleSet: Normal
StackLeniency: 0.7
Mode: 1
LetterboxInBreaks: 0

[Editor]
Bookmarks: 58044,65758,71072
DistanceSpacing: 0.8
BeatDivisor: 4
GridSize: 32

[Metadata]
Title:Non stop road (TV Size)
TitleUnicode:Non stop road (TV Size)
Artist:sphere
ArtistUnicode:sphere
Creator:Kin
Version:Taikin Oni
Source:Natsuiro Kiseki
Tags:Hichman ctb catch_the_beat taiko -Neipezi -Kirito Konei opening mint_ong89 mintong89
BeatmapID:177059
BeatmapSetID:57139

[Difficulty]
HPDrainRate:6
CircleSize:5
OverallDifficulty:6
ApproachRate:5
SliderMultiplier:1.4
SliderTickRate:1

[Events]
//Background and Video events
0,0,"BG Insane.jpg"
//Break Periods
//Storyboard Layer 0 (Background)
//Storyboard Layer 1 (Fail)
//Storyboard Layer 2 (Pass)
//Storyboard Layer 3 (Foreground)
//Storyboard Sound Samples
//Background Colour Transformations
3,100,163,162,255

[TimingPoints]
444,342.857142857143,4,1,0,100,1,0
444,-133.333333333333,4,1,0,100,0,0
10044,-100,4,1,0,100,0,0
22730,-133.333333333333,4,1,0,100,0,0
27872,-114.942528735632,4,1,0,100,0,0
30615,-100,4,1,0,100,0,0
33358,-100,4,1,0,100,0,1
55301,-100,4,1,0,100,0,0
71758,-100,4,1,0,100,0,1
88215,-100,4,1,0,100,0,0

[Colours]
Combo1 : 0,0,255
Combo2 : 255,0,0
Combo3 : 0,0,255
Combo4 : 255,0,0

[HitObjects]
256,192,444,1,0,0:0:0
256,192,958,5,8,0:0:0
256,192,1473,1,8,0:0:0
256,192,1644,5,0,0:0:0
256,192,1815,1,0,0:0:0
256,192,2329,5,8,0:0:0
256,192,2672,5,0,0:0:0
256,192,2844,5,8,0:0:0
256,192,3186,5,0,0:0:0
256,192,3701,1,0,0:0:0
256,192,3872,5,8,0:0:0
256,192,4215,1,8,0:0:0
256,192,4558,5,0,0:0:0
256,192,4901,1,0,0:0:0
256,192,5072,5,8,0:0:0
256,192,5929,21,14,0:0:0
256,192,7301,1,14,0:0:0
256,192,8672,1,14,0:0:0
256,192,10044,1,14,0:0:0
256,192,10901,5,0,0:0:0
256,192,11072,5,8,0:0:0
256,192,11158,1,8,0:0:0
256,192,11244,5,0,0:0:0
256,192,11415,1,4,0:0:0
256,192,11758,5,8,0:0:0
256,192,12101,5,0,0:0:0
256,192,12272,1,0,0:0:0
256,192,12444,5,8,0:0:0
256,192,12615,1,8,0:0:0
256,192,12701,1,8,0:0:0
256,192,12787,5,0,0:0:0
256,192,12958,1,0,0:0:0
256,192,13130,5,8,0:0:0
256,192,13301,5,0,0:0:0
256,192,13387,1,0,0:0:0
256,192,13472,1,0,0:0:0
256,192,13644,1,0,0:0:0
256,192,13815,5,8,0:0:0
256,192,14158,5,0,0:0:0
256,192,14330,5,8,0:0:0
256,192,14501,1,8,0:0:0
256,192,14672,1,8,0:0:0
256,192,14758,1,8,0:0:0
256,192,14844,5,0,0:0:0
256,192,15015,1,0,0:0:0
256,192,15101,1,0,0:0:0
256,192,15187,5,8,0:0:0
256,192,15358,5,0,0:0:0
256,192,15530,1,0,0:0:0
256,192,15701,1,0,0:0:0
256,192,15787,1,0,0:0:0
256,192,15872,5,8,0:0:0
256,192,16044,5,0,0:0:0
256,192,16215,1,0,0:0:0
256,192,16387,1,0,0:0:0
256,192,16472,1,0,0:0:0
256,192,16558,5,8,0:0:0
256,192,16644,1,8,0:0:0
256,192,16730,5,0,0:0:0
256,192,16901,5,12,0:0:0
256,192,17072,5,0,0:0:0
256,192,17158,1,0,0:0:0
256,192,17244,1,0,0:0:0
256,192,17415,1,0,0:0:0
256,192,17587,5,8,0:0:0
256,192,17672,1,8,0:0:0
256,192,17758,1,8,0:0:0
256,192,17930,5,0,0:0:0
256,192,18101,5,8,0:0:0
256,192,18272,5,0,0:0:0
256,192,18358,1,0,0:0:0
256,192,18444,1,0,0:0:0
256,192,18615,1,0,0:0:0
256,192,18787,5,8,0:0:0
256,192,18958,5,0,0:0:0
256,192,19130,1,0,0:0:0
256,192,19301,5,8,0:0:0
256,192,19644,5,4,0:0:0
256,192,19815,1,0,0:0:0
256,192,19987,5,8,0:0:0
256,192,20158,5,0,0:0:0
256,192,20244,5,8,0:0:0
256,192,20330,5,0,0:0:0
256,192,20501,1,0,0:0:0
256,192,20672,5,8,0:0:0
256,192,21015,5,0,0:0:0
256,192,21358,5,8,0:0:0
256,192,21530,5,0,0:0:0
256,192,21615,1,0,0:0:0
256,192,21701,1,0,0:0:0
256,192,21872,1,0,0:0:0
256,192,22044,1,0,0:0:0
256,192,22215,1,0,0:0:0
256,192,22387,5,8,0:0:0
256,192,22730,5,0,0:0:0
256,192,23072,5,8,0:0:0
256,192,23415,5,0,0:0:0
256,192,23758,5,8,0:0:0
256,192,24101,5,0,0:0:0
256,192,24272,1,0,0:0:0
256,192,24444,5,8,0:0:0
256,192,24787,1,8,0:0:0
256,192,24958,5,0,0:0:0
256,192,25130,1,0,0:0:0
256,192,25472,1,0,0:0:0
256,192,25815,5,8,0:0:0
256,192,26158,5,0,0:0:0
256,192,26330,1,0,0:0:0
256,192,26501,5,8,0:0:0
256,192,26672,5,0,0:0:0
256,192,26844,5,8,0:0:0
256,192,27015,5,0,0:0:0
256,192,27187,1,0,0:0:0
256,192,27358,1,0,0:0:0
256,192,27530,5,8,0:0:0
256,192,27872,1,12,0:0:0
256,192,28215,5,0,0:0:0
256,192,28558,1,0,0:0:0
256,192,28901,5,8,0:0:0
256,192,29244,5,0,0:0:0
256,192,29587,5,8,0:0:0
256,192,29930,5,0,0:0:0
256,192,30101,1,0,0:0:0
256,192,30272,5,8,0:0:0
256,192,30615,5,4,0:0:0
256,192,30958,5,8,0:0:0
256,192,31130,5,0,0:0:0
256,192,31215,1,0,0:0:0
256,192,31301,1,0,0:0:0
256,192,31472,1,0,0:0:0
256,192,31644,5,8,0:0:0
256,192,31815,5,0,0:0:0
256,192,31901,1,0,0:0:0
256,192,31987,1,0,0:0:0
256,192,32158,1,0,0:0:0
256,192,32330,5,8,0:0:0
256,192,32501,5,0,0:0:0
256,192,32587,1,0,0:0:0
256,192,32672,5,8,0:0:0
256,192,32844,5,0,0:0:0
256,192,33015,5,8,0:0:0
256,192,33101,1,8,0:0:0
256,192,33187,1,8,0:0:0
256,192,33272,1,8,0:0:0
256,192,33358,5,0,0:0:0
256,192,33701,5,12,0:0:0
256,192,34044,5,0,0:0:0
256,192,34215,1,0,0:0:0
256,192,34387,5,8,0:0:0
256,192,34558,5,0,0:0:0
256,192,34644,1,0,0:0:0
256,192,34730,1,0,0:0:0
256,192,34901,1,0,0:0:0
256,192,35072,5,8,0:0:0
256,192,35244,5,0,0:0:0
256,192,35330,1,0,0:0:0
256,192,35415,5,8,0:0:0
256,192,35587,5,0,0:0:0
256,192,35758,5,8,0:0:0
256,192,35930,1,8,0:0:0
256,192,36015,1,8,0:0:0
256,192,36101,5,0,0:0:0
256,192,36272,1,0,0:0:0
256,192,36444,5,8,0:0:0
256,192,36615,5,0,0:0:0
256,192,36701,1,0,0:0:0
256,192,36787,1,0,0:0:0
256,192,36958,1,0,0:0:0
256,192,37130,5,8,0:0:0
256,192,37472,5,0,0:0:0
256,192,37815,5,8,0:0:0
256,192,37986,1,8,0:0:0
256,192,38158,5,0,0:0:0
256,192,38244,1,0,0:0:0
256,192,38329,1,0,0:0:0
256,192,38501,5,8,0:0:0
256,192,38672,1,8,0:0:0
256,192,38758,1,8,0:0:0
256,192,38844,5,0,0:0:0
256,192,39015,1,0,0:0:0
256,192,39186,5,8,0:0:0
256,192,39358,5,0,0:0:0
256,192,39444,5,8,0:0:0
256,192,39529,5,0,0:0:0
256,192,39701,1,0,0:0:0
256,192,39872,5,8,0:0:0
256,192,40215,5,0,0:0:0
256,192,40558,5,8,0:0:0
256,192,40901,5,0,0:0:0
256,192,41072,1,0,0:0:0
256,192,41244,5,8,0:0:0
256,192,41415,5,0,0:0:0
256,192,41501,5,8,0:0:0
256,192,41586,5,0,0:0:0
256,192,41758,1,0,0:0:0
256,192,41929,5,8,0:0:0
256,192,42101,1,8,0:0:0
256,192,42186,1,8,0:0:0
256,192,42272,5,0,0:0:0
256,192,42444,1,0,0:0:0
256,192,42529,1,0,0:0:0
256,192,42615,5,8,0:0:0
256,192,42786,5,0,0:0:0
256,192,42872,1,0,0:0:0
256,192,42958,1,0,0:0:0
256,192,43129,1,0,0:0:0
256,192,43301,5,8,0:0:0
256,192,43472,5,0,0:0:0
256,192,43558,1,0,0:0:0
256,192,43644,5,8,0:0:0
256,192,43815,5,0,0:0:0
256,192,43986,5,8,0:0:0
256,192,44072,1,8,0:0:0
256,192,44158,1,8,0:0:0
256,192,44244,1,8,0:0:0
256,192,44329,5,0,0:0:0
256,192,44672,5,8,0:0:0
256,192,45015,5,0,0:0:0
256,192,45186,1,0,0:0:0
256,192,45358,5,8,0:0:0
256,192,45701,5,0,0:0:0
256,192,46044,5,8,0:0:0
256,192,46215,5,0,0:0:0
256,192,46301,5,8,0:0:0
256,192,46386,5,0,0:0:0
256,192,46558,1,0,0:0:0
256,192,46729,5,8,0:0:0
256,192,46901,5,0,0:0:0
256,192,47072,1,0,0:0:0
256,192,47415,5,8,0:0:0
256,192,47758,5,0,0:0:0
256,192,47929,1,0,0:0:0
256,192,48101,5,8,0:0:0
256,192,48272,5,0,0:0:0
256,192,48444,1,0,0:0:0
256,192,48615,1,0,0:0:0
256,192,48786,5,8,0:0:0
256,192,48958,1,8,0:0:0
256,192,49044,1,8,0:0:0
256,192,49129,5,0,0:0:0
256,192,49301,1,0,0:0:0
256,192,49472,5,8,0:0:0
256,192,49815,5,0,0:0:0
256,192,50158,5,8,0:0:0
256,192,50329,5,0,0:0:0
256,192,50415,5,8,0:0:0
256,192,50501,5,0,0:0:0
256,192,50672,1,0,0:0:0
256,192,50844,5,8,0:0:0
256,192,51015,5,0,0:0:0
256,192,51186,1,0,0:0:0
256,192,51529,5,8,0:0:0
256,192,51872,5,0,0:0:0
256,192,52044,1,0,0:0:0
256,192,52215,5,8,0:0:0
256,192,52558,5,0,0:0:0
256,192,52901,5,8,0:0:0
256,192,53072,5,0,0:0:0
256,192,53158,1,0,0:0:0
256,192,53244,1,0,0:0:0
256,192,53415,1,0,0:0:0
256,192,53586,5,8,0:0:0
256,192,53929,5,0,0:0:0
256,192,54101,1,0,0:0:0
256,192,54272,5,8,0:0:0
256,192,54444,5,0,0:0:0
256,192,54529,1,0,0:0:0
256,192,54615,5,8,0:0:0
256,192,54786,1,2,0:0:0
256,192,54872,1,2,0:0:0
256,192,54958,1,2,0:0:0
256,192,55044,1,2,0:0:0
256,192,55129,1,2,0:0:0
256,192,55215,1,2,0:0:0
256,192,55301,5,0,0:0:0
256,192,55472,12,0,57701,0:0:0
256,192,58044,21,0,0:0:0
256,192,58215,1,0,0:0:0
256,192,58386,5,8,0:0:0
256,192,58558,1,8,0:0:0
224,192,58644,1,8,0:0:0
256,192,58729,5,0,0:0:0
256,192,58901,1,0,0:0:0
256,192,59072,5,8,0:0:0
256,192,59415,5,0,0:0:0
256,192,59586,1,0,0:0:0
256,192,59758,5,14,0:0:0
256,192,59929,5,0,0:0:0
256,192,60272,1,0,0:0:0
256,192,60444,5,10,0:0:0
256,192,60615,1,8,0:0:0
256,192,60701,1,8,0:0:0
256,192,60786,5,0,0:0:0
256,192,60958,1,0,0:0:0
256,192,61129,5,8,0:0:0
256,192,61301,5,0,0:0:0
256,192,61644,1,0,0:0:0
256,192,61815,5,8,0:0:0
256,192,62158,5,0,0:0:0
256,192,62329,1,0,0:0:0
256,192,62501,5,8,0:0:0
256,192,62673,5,0,0:0:0
256,192,63015,1,0,0:0:0
256,192,63187,5,8,0:0:0
256,192,63358,1,8,0:0:0
256,192,63530,1,14,0:0:0
256,192,63873,1,8,0:0:0
256,192,64044,5,4,0:0:0
256,192,64387,1,0,0:0:0
256,192,64558,5,14,0:0:0
256,192,64730,1,8,0:0:0
256,192,64815,1,8,0:0:0
256,192,64901,1,8,0:0:0
256,192,65073,5,0,0:0:0
256,192,65244,5,8,0:0:0
256,192,65415,5,0,0:0:0
256,192,65758,1,0,0:0:0
256,192,65929,1,8,0:0:0
256,192,66101,1,0,0:0:0
256,192,66187,1,0,0:0:0
256,192,66272,5,8,0:0:0
256,192,66615,5,0,0:0:0
256,192,66786,5,8,0:0:0
256,192,66872,1,8,0:0:0
256,192,66958,1,8,0:0:0
256,192,67129,5,0,0:0:0
256,192,67301,1,0,0:0:0
256,192,67472,1,0,0:0:0
256,192,67644,5,14,0:0:0
256,192,68158,1,8,0:0:0
256,192,68501,5,0,0:0:0
256,192,68672,5,8,0:0:0
256,192,69015,1,14,0:0:0
256,256,69187,1,8,0:0:0
256,192,69529,5,0,0:0:0
256,192,70044,1,0,0:0:0
256,192,70386,5,14,0:0:0
256,192,70558,1,14,0:0:0
256,192,70729,1,14,0:0:0
256,192,70901,1,14,0:0:0
256,192,71072,5,4,0:0:0
256,192,71244,1,4,0:0:0
256,192,71415,1,4,0:0:0
256,192,71586,1,4,0:0:0
256,192,71758,1,4,0:0:0
256,192,72101,5,8,0:0:0
256,192,72272,5,0,0:0:0
256,192,72358,1,0,0:0:0
256,192,72444,1,0,0:0:0
256,192,72615,1,0,0:0:0
256,192,72786,5,8,0:0:0
256,192,72958,1,8,0:0:0
256,192,73044,1,8,0:0:0
256,192,73129,5,0,0:0:0
256,192,73301,1,0,0:0:0
256,192,73472,5,8,0:0:0
256,192,73644,5,0,0:0:0
256,192,73729,1,0,0:0:0
256,192,73815,5,8,0:0:0
256,192,73986,5,0,0:0:0
256,192,74158,5,8,0:0:0
256,192,74329,1,8,0:0:0
256,192,74501,5,0,0:0:0
256,192,74844,5,8,0:0:0
256,192,75015,5,0,0:0:0
256,192,75101,5,8,0:0:0
256,192,75186,5,0,0:0:0
256,192,75358,1,0,0:0:0
256,192,75529,5,8,0:0:0
256,192,75701,5,0,0:0:0
256,192,75786,1,0,0:0:0
256,192,75872,5,8,0:0:0
256,192,76044,5,0,0:0:0
256,192,76215,5,8,0:0:0
256,192,76386,5,0,0:0:0
256,192,76472,1,0,0:0:0
256,192,76558,5,8,0:0:0
256,192,76729,1,8,0:0:0
256,192,76815,1,8,0:0:0
256,192,76901,1,8,0:0:0
256,192,76986,1,8,0:0:0
256,192,77072,1,8,0:0:0
256,192,77158,1,8,0:0:0
256,192,77244,5,0,0:0:0
256,192,77586,5,8,0:0:0
256,192,77929,5,0,0:0:0
256,192,78101,1,0,0:0:0
256,192,78272,5,8,0:0:0
256,192,78358,1,8,0:0:0
256,192,78444,1,8,0:0:0
256,192,78615,5,0,0:0:0
256,192,78701,1,0,0:0:0
256,192,78786,1,0,0:0:0
256,192,78958,5,8,0:0:0
256,192,79129,1,8,0:0:0
256,192,79215,1,8,0:0:0
256,192,79301,5,0,0:0:0
256,192,79472,1,0,0:0:0
256,192,79558,1,0,0:0:0
256,192,79644,5,8,0:0:0
256,192,79729,1,8,0:0:0
256,192,79815,5,0,0:0:0
256,192,79986,1,0,0:0:0
256,192,80158,1,0,0:0:0
256,192,80329,5,8,0:0:0
256,192,80672,5,0,0:0:0
256,192,80844,1,0,0:0:0
256,192,81015,5,8,0:0:0
256,192,81186,5,0,0:0:0
256,192,81272,1,0,0:0:0
256,192,81358,5,8,0:0:0
256,192,81529,5,0,0:0:0
256,192,81701,5,8,0:0:0
256,192,81872,5,0,0:0:0
256,192,81958,1,0,0:0:0
256,192,82044,5,8,0:0:0
256,192,82215,5,0,0:0:0
256,192,82301,1,0,0:0:0
256,192,82386,5,8,0:0:0
256,192,82558,1,8,0:0:0
256,192,82644,1,8,0:0:0
256,192,82729,5,0,0:0:0
256,192,83072,5,8,0:0:0
256,192,83415,5,0,0:0:0
256,192,83586,1,0,0:0:0
256,192,83758,5,8,0:0:0
256,192,83929,1,8,0:0:0
256,192,84015,1,8,0:0:0
256,192,84101,5,0,0:0:0
256,192,84272,1,0,0:0:0
256,192,84444,5,8,0:0:0
256,192,84615,5,0,0:0:0
256,192,84701,1,0,0:0:0
256,192,84786,1,0,0:0:0
256,192,84958,1,0,0:0:0
256,192,85129,5,8,0:0:0
256,192,85472,5,0,0:0:0
256,192,85644,1,0,0:0:0
256,192,85729,1,0,0:0:0
256,192,85815,5,8,0:0:0
256,192,85986,1,8,0:0:0
256,192,86158,5,0,0:0:0
256,192,86244,1,0,0:0:0
256,192,86329,1,0,0:0:0
256,192,86501,5,8,0:0:0
256,192,86672,5,0,0:0:0
256,192,86844,5,8,0:0:0
256,192,87015,5,0,0:0:0
256,192,87101,1,0,0:0:0
256,192,87186,5,8,0:0:0
256,192,87358,5,0,0:0:0
256,192,87529,5,8,0:0:0
256,192,87701,5,0,0:0:0
256,192,87786,1,0,0:0:0
256,192,87872,5,8,0:0:0
256,192,88044,5,0,0:0:0
256,192,88215,5,14,0:0:0
256,192,88386,12,0,90958,0:0:0
