osu file format v11

[General]
AudioFilename: Natsuiro Kiseki OP HD 720p.mp3
AudioLeadIn: 2500
PreviewTime: 33358
Countdown: 0
SampleSet: Normal
StackLeniency: 0.7
Mode: 1
LetterboxInBreaks: 0

[Editor]
Bookmarks: 23072,28901,63529,70386
DistanceSpacing: 0.8
BeatDivisor: 2
GridSize: 32

[Metadata]
Title:Non stop road (TV Size)
TitleUnicode:Non stop road (TV Size)
Artist:sphere
ArtistUnicode:sphere
Creator:Kin
Version:Taikin Kantan
Source:Natsuiro Kiseki
Tags:Hichman ctb catch_the_beat taiko -Neipezi -Kirito Konei opening mint_ong89 mintong89
BeatmapID:183791
BeatmapSetID:57139

[Difficulty]
HPDrainRate:3
CircleSize:5
OverallDifficulty:3
ApproachRate:5
SliderMultiplier:1.1
SliderTickRate:1

[Events]
//Background and Video events
0,0,"BG Insane.jpg"
//Break Periods
//Storyboard Layer 0 (Background)
//Storyboard Layer 1 (Fail)
//Storyboard Layer 2 (Pass)
//Storyboard Layer 3 (Foreground)
//Storyboard Sound Samples
//Background Colour Transformations
3,100,163,162,255

[TimingPoints]
444,342.857142857143,4,1,0,70,1,0
10044,-100,4,1,0,70,0,0
33358,-100,4,1,0,70,0,1
55301,-100,4,1,0,70,0,0
71758,-100,4,1,0,70,0,1
88215,-100,4,1,0,70,0,0

[Colours]
Combo1 : 0,0,255
Combo2 : 255,0,0
Combo3 : 0,0,255
Combo4 : 255,0,0

[HitObjects]
256,192,444,1,0,0:0:0
256,192,958,5,8,0:0:0
256,192,1815,5,0,0:0:0
256,192,2329,5,8,0:0:0
256,192,3186,5,0,0:0:0
256,192,3701,5,8,0:0:0
256,192,4558,5,0,0:0:0
256,192,5072,5,8,0:0:0
256,192,5929,21,14,0:0:0
256,192,7301,1,14,0:0:0
256,192,8672,1,14,0:0:0
256,192,10044,1,14,0:0:0
256,192,11072,1,8,0:0:0
256,192,11415,5,0,0:0:0
256,192,12101,1,0,0:0:0
256,192,12786,1,0,0:0:0
256,192,13472,5,8,0:0:0
256,192,13815,5,0,0:0:0
256,192,14158,1,0,0:0:0
256,192,14844,1,0,0:0:0
256,192,15529,1,0,0:0:0
256,192,16215,1,0,0:0:0
256,192,16558,5,8,0:0:0
256,192,16901,5,0,0:0:0
256,192,17586,1,0,0:0:0
256,192,18272,1,0,0:0:0
256,192,18958,1,0,0:0:0
256,192,19301,1,0,0:0:0
256,192,19644,5,8,0:0:0
96,320,20329,1,8,0:0:0
96,320,20672,5,0,0:0:0
96,320,21015,1,0,0:0:0
256,192,21358,2,0,B|256:32|256:32|64:32,1,330
256,192,23072,5,8,0:0:0
256,192,23758,5,0,0:0:0
256,192,24444,5,8,0:0:0
256,192,25129,5,0,0:0:0
256,192,25472,1,0,0:0:0
256,192,25815,5,8,0:0:0
256,192,26501,1,8,0:0:0
256,192,27015,5,0,0:0:0
256,192,27529,5,8,0:0:0
256,192,27872,5,0,0:0:0
256,192,28558,5,8,0:0:0
256,192,28901,1,8,0:0:0
256,192,29244,5,0,0:0:0
256,192,29929,1,0,0:0:0
256,192,30272,5,8,0:0:0
256,192,30615,5,0,0:0:0
256,192,30958,5,8,0:0:0
256,192,31644,1,8,0:0:0
256,192,31986,5,0,0:0:0
256,192,32329,5,8,0:0:0
256,192,32672,2,0,B|256:320|256:320|384:320,1,220
256,192,33701,1,8,0:0:0
256,192,34386,1,8,0:0:0
256,192,34729,5,0,0:0:0
256,192,35072,5,8,0:0:0
256,192,35758,1,8,0:0:0
256,192,36101,5,0,0:0:0
256,192,36786,1,0,0:0:0
256,192,37129,5,8,0:0:0
256,192,37815,1,8,0:0:0
256,192,38501,1,8,0:0:0
256,192,38844,5,0,0:0:0
256,192,39186,5,8,0:0:0
256,192,39873,5,0,0:0:0
256,192,40215,1,0,0:0:0
256,192,40558,5,8,0:0:0
256,192,41244,1,8,0:0:0
256,192,41586,5,0,0:0:0
256,192,41929,5,8,0:0:0
256,192,42615,1,8,0:0:0
256,192,42958,5,0,0:0:0
256,192,43301,2,0,B|448:192|448:192|448:352,1,330
256,192,45015,1,0,0:0:0
256,192,45358,5,8,0:0:0
256,192,45701,1,8,0:0:0
256,192,46386,5,0,0:0:0
256,192,47072,5,8,0:0:0
256,192,47415,1,8,0:0:0
256,192,47758,5,0,0:0:0
256,192,48101,5,8,0:0:0
256,192,48786,5,0,0:0:0
256,192,49129,1,0,0:0:0
256,192,49472,5,8,0:0:0
256,192,49815,5,0,0:0:0
256,192,50501,1,0,0:0:0
256,192,50844,1,0,0:0:0
256,192,51186,5,8,0:0:0
256,192,51872,5,0,0:0:0
256,192,52215,5,8,0:0:0
256,192,52558,5,0,0:0:0
256,192,52901,5,8,0:0:0
256,192,53586,1,8,0:0:0
256,192,53929,5,0,0:0:0
256,192,54272,5,8,0:0:0
256,192,54615,1,8,0:0:0
256,192,54958,1,8,0:0:0
256,192,55301,12,0,58044,0:0:0
256,192,58729,5,0,0:0:0
256,192,59072,5,8,0:0:0
256,192,59415,5,0,0:0:0
256,192,59758,5,8,0:0:0
256,192,60444,1,8,0:0:0
256,192,60786,5,0,0:0:0
256,192,61129,1,0,0:0:0
256,192,61472,5,8,0:0:0
256,192,62158,5,0,0:0:0
256,192,62501,5,8,0:0:0
256,192,63186,1,8,0:0:0
256,192,63529,5,0,0:0:0
256,192,64044,1,0,0:0:0
256,192,64558,1,0,0:0:0
256,192,64901,5,8,0:0:0
256,192,65415,1,8,0:0:0
256,192,66615,5,0,0:0:0
256,192,66958,5,8,0:0:0
256,192,67301,5,0,0:0:0
256,192,67644,5,8,0:0:0
256,192,68158,1,8,0:0:0
256,192,68672,1,8,0:0:0
256,192,69015,5,0,0:0:0
256,192,69529,1,0,0:0:0
256,192,70044,1,0,0:0:0
224,288,70386,2,0,B|224:128|224:128|64:128|64:128|64:192,1,330
256,192,71758,1,4,0:0:0
256,192,72101,5,8,0:0:0
256,192,72786,1,8,0:0:0
256,192,73130,5,0,0:0:0
256,192,73473,5,8,0:0:0
256,192,74158,1,8,0:0:0
256,192,74844,1,8,0:0:0
256,192,75529,1,8,0:0:0
256,192,75872,5,0,0:0:0
256,192,76215,5,8,0:0:0
256,192,76558,2,8,B|384:192|384:192|384:64,1,220
256,192,77929,5,0,0:0:0
256,192,78272,5,8,0:0:0
256,192,78615,5,0,0:0:0
256,192,79301,1,0,0:0:0
256,192,79644,5,8,0:0:0
256,192,80329,1,8,0:0:0
256,192,80672,5,0,0:0:0
256,192,81015,5,8,0:0:0
256,192,81701,1,8,0:0:0
256,192,82044,5,0,0:0:0
256,192,82386,5,8,0:0:0
256,192,82729,1,8,0:0:0
256,192,83415,5,0,0:0:0
256,192,83758,5,8,0:0:0
256,192,84444,1,8,0:0:0
256,192,84786,5,0,0:0:0
256,192,85472,1,0,0:0:0
256,192,85815,5,8,0:0:0
256,192,86158,5,0,0:0:0
256,192,86501,2,8,B|256:32|256:32|96:32|96:32|96:192|96:192,1,440
256,192,88215,12,0,90958,0:0:0
