osu file format v12

[General]
AudioFilename: Natsuiro Kiseki OP HD 720p.mp3
AudioLeadIn: 2000
PreviewTime: 33358
Countdown: 0
SampleSet: Normal
StackLeniency: 0.7
Mode: 0
LetterboxInBreaks: 0

[Editor]
DistanceSpacing: 1
BeatDivisor: 4
GridSize: 8

[Metadata]
Title:Non stop road (TV Size)
TitleUnicode:Non stop road (TV Size)
Artist:sphere
ArtistUnicode:sphere
Creator:Kin
Version:Hard
Source:Natsuiro Kiseki
Tags:Hichman ctb catch_the_beat taiko -Neipezi -Kirito Konei opening mint_ong89 mintong89
BeatmapID:174398
BeatmapSetID:57139

[Difficulty]
HPDrainRate:6
CircleSize:4
OverallDifficulty:6
ApproachRate:7
SliderMultiplier:1.6
SliderTickRate:1

[Events]
//Background and Video events
0,0,"BG Insane.jpg",0,0
//Break Periods
//Storyboard Layer 0 (Background)
//Storyboard Layer 1 (Fail)
//Storyboard Layer 2 (Pass)
//Storyboard Layer 3 (Foreground)
//Storyboard Sound Samples
//Background Colour Transformations
3,100,163,162,255

[TimingPoints]
444,342.857142857143,4,2,0,50,1,0
444,-133.333333333333,4,2,0,50,0,0
5929,-100,4,1,1,70,0,0
6272,-100,4,2,0,70,0,0
7301,-100,4,1,1,70,0,0
7644,-100,4,2,0,70,0,0
8672,-100,4,1,1,70,0,0
9015,-100,4,2,0,70,0,0
10044,-100,4,1,1,70,0,0
10386,-100,4,2,0,70,0,0
10901,-100,4,1,1,70,0,0
14329,-100,4,2,1,70,0,0
14501,-100,4,1,1,70,0,0
14672,-100,4,2,1,70,0,0
14844,-100,4,1,1,70,0,0
15015,-100,4,2,1,70,0,0
15186,-100,4,1,1,70,0,0
15358,-100,4,2,1,70,0,0
15529,-100,4,1,1,70,0,0
16044,-100,4,2,1,70,0,0
16215,-100,4,1,1,70,0,0
17415,-100,4,2,1,70,0,0
17586,-100,4,1,1,70,0,0
18786,-100,4,2,1,70,0,0
18958,-100,4,1,1,70,0,0
19129,-100,4,2,1,70,0,0
19301,-100,4,1,1,70,0,0
19815,-100,4,2,1,70,0,0
19986,-100,4,1,1,70,0,0
20158,-100,4,2,1,70,0,0
20329,-100,4,1,1,70,0,0
20501,-100,4,2,1,70,0,0
20672,-100,4,1,1,70,0,0
20844,-100,4,2,1,70,0,0
21015,-100,4,1,1,70,0,0
24444,-100,4,2,1,70,0,0
24786,-100,4,1,1,70,0,0
25815,-100,4,2,1,70,0,0
26158,-100,4,1,1,70,0,0
26501,-100,4,2,1,70,0,0
28215,-100,4,1,1,70,0,0
28558,-100,4,2,1,70,0,0
28901,-100,4,1,1,70,0,0
33015,-100,4,1,1,50,0,0
33358,-100,4,1,1,70,0,1
43987,-100,4,1,1,50,0,1
44330,-100,4,1,1,70,0,1
50158,-100,4,2,2,70,0,1
50329,-100,4,1,1,70,0,1
54873,-100,4,1,1,50,0,1
55301,-100,4,1,1,50,0,0
55472,-100,4,2,0,5,0,0
58215,-100,4,2,1,70,0,0
65758,-100,4,1,1,70,0,0
66272,-100,4,2,1,70,0,0
70558,-100,4,1,1,70,0,0
71758,-100,4,1,1,70,0,1
76730,-100,4,1,1,50,0,1
77244,-100,4,1,1,70,0,1
88215,-100,4,1,1,70,0,0
90958,-100,4,2,0,5,0,0

[Colours]
Combo1 : 0,0,128
Combo2 : 255,128,128
Combo3 : 255,255,0
Combo4 : 128,128,255

[HitObjects]
168,192,444,1,2,0:0:0:0:
344,192,958,1,2,0:0:0:0:
256,40,1472,2,0,B|256:160,1,120.000004577637,2|2,0:0|0:0,0:0:0:0:
88,96,2329,2,0,B|40:128|40:184|40:184|40:264,1,180.000006866455,2|0,0:0|0:0,0:0:0:0:
128,336,3186,6,0,B|160:384|224:384|224:384|296:384,1,180.000006866455,2|2,0:0|0:0,0:0:0:0:
408,248,4215,2,0,B|408:128,1,120.000004577637,2|2,0:0|0:0,0:0:0:0:
312,64,4901,2,0,B|312:0,2,60.0000022888184,2|0|2,0:0|0:0|0:0,0:0:0:0:
312,184,5586,1,2,0:0:0:0:
176,248,5930,6,0,B|176:264|148:300|104:300|104:300|60:300|32:264|32:248,1,160,4|0,0:0|0:0,0:0:0:0:
104,216,6444,1,0,0:0:0:0:
32,184,6615,2,0,B|32:168|60:132|104:132|104:132|148:132|176:168|176:184,1,160,0|0,0:0|0:0,0:0:0:0:
264,288,7301,6,0,B|424:288,1,160,4|0,0:0|0:0,0:0:0:0:
480,232,7815,1,0,0:0:0:0:
432,168,7987,2,0,B|272:168,1,160
128,96,8673,6,0,B|112:96|76:124|76:168|76:168|76:212|112:240|128:240,1,160,4|0,0:0|0:0,0:0:0:0:
160,168,9186,1,0,0:0:0:0:
192,240,9358,2,0,B|208:240|244:212|244:168|244:168|244:124|208:96|192:96,1,160,0|0,0:0|0:0,0:0:0:0:
72,32,10044,1,4,0:0:0:0:
440,192,10901,6,0,B|456:232|440:272,1,80,0|8,0:0|0:0,0:0:0:0:
288,232,11415,6,0,B|128:232,1,160,4|0,0:0|0:0,0:0:0:0:
128,72,12101,2,0,B|288:72,1,160
448,72,12786,1,0,0:0:0:0:
448,232,13129,1,0,0:0:0:0:
336,344,13472,2,0,B|256:376|176:344,1,160
256,208,14158,5,0,0:0:0:0:
176,208,14330,2,0,B|116:212|96:144,1,80
176,128,14672,2,0,B|164:64|224:40,1,80
256,112,15015,2,0,B|336:140,1,80
408,168,15358,1,0,0:0:0:0:
476,124,15530,2,0,B|492:140|492:204|492:204|444:252|420:252,1,160
368,296,16044,1,0,0:0:0:0:
296,336,16215,2,0,B|136:336,1,160,0|8,0:0|0:0,0:0:0:0:
144,176,16901,6,0,B|152:160|216:144|216:144|280:160|288:176,1,160,4|0,0:0|0:0,0:0:0:0:
288,256,17415,1,0,0:0:0:0:
296,336,17587,2,0,B|304:352|368:368|368:368|432:352|440:336,1,160
472,176,18272,2,0,B|504:136|504:64|464:24,1,160
416,88,18787,2,0,B|408:72|376:48|400:0,2,80
416,88,19301,1,0,0:0:0:0:
440,256,19644,5,0,0:0:0:0:
440,256,19815,2,0,B|440:296,2,40
360,256,20158,2,0,B|312:264|280:224,1,80
312,152,20501,2,0,B|287:120|239:128,1,80
208,200,20844,2,0,B|160:208|128:168,1,80
72,128,21187,6,0,B|0:80,2,80,0|8|0,0:0|0:0|0:0,0:0:0:0:
96,48,21701,2,0,B|176:104,1,80
184,16,22044,2,0,B|264:72,1,80
312,112,22386,1,4,0:0:0:0:
328,272,22729,6,0,B|320:288|256:304|256:304|192:288|184:272,2,160,0|8|0,0:0|0:0|0:0,0:0:0:0:
184,204,23758,2,0,B|192:188|256:172|256:172|320:188|328:204,1,160
392,256,24272,1,0,0:0:0:0:
464,204,24444,1,2,0:0:0:0:
464,48,24787,2,0,B|304:48,1,160,8|0,0:0|0:0,0:0:0:0:
144,48,25472,5,0,0:0:0:0:
32,168,25815,1,2,0:0:0:0:
144,288,26158,1,0,0:0:0:0:
240,160,26501,2,0,B|296:192|360:160|360:160|432:128|480:160,2,240,2|2|8,0:0|0:0|0:0,0:0:0:0:
80,160,27872,5,4,0:0:0:0:
80,320,28215,1,0,0:0:0:0:
240,352,28558,2,0,B|272:328|240:288|240:288|200:240|232:208,2,160,2|8|0,0:0|0:0|0:0,0:0:0:0:
400,320,29586,1,0,0:0:0:0:
400,160,29929,1,0,0:0:0:0:
272,64,30272,6,0,B|112:64,2,160,8|4|8,0:0|0:0|0:0,0:0:0:0:
272,144,31129,1,0,0:0:0:0:
272,224,31301,1,0,0:0:0:0:
112,224,31644,2,0,B|96:232|80:296|80:296|96:360|112:368,1,160,8|0,0:0|0:0,0:0:0:0:
272,360,32329,2,0,B|352:360,3,80,8|0|8|0,0:0|0:0|0:0|0:0,0:0:0:0:
432,360,33015,2,0,B|448:288,4,40,8|8|8|8|4,0:0|0:0|0:0|0:0|0:0,0:0:0:0:
472,208,33701,5,8,0:0:0:0:
472,48,34044,2,0,B|472:136,2,80,0|0|8,0:0|0:0|0:0,0:0:0:0:
312,48,34730,2,0,B|215:39|200:135,2,160,0|8|0,0:0|0:0|0:0,0:0:0:0:
392,48,35586,1,0,0:0:0:0:
392,128,35758,2,0,B|396:224|300:236,2,160,8|0|8,0:0|0:0|0:0,0:0:0:0:
300,140,36615,5,0,0:0:0:0:
240,192,36786,1,0,0:0:0:0:
176,240,36958,1,0,0:0:0:0:
112,288,37129,1,8,0:0:0:0:
112,128,37472,2,0,B|112:22|217:22,1,160,0|8,0:0|0:0,0:0:0:0:
368,24,38158,2,0,B|456:24,2,80,0|0|8,0:0|0:0|0:0,0:0:0:0:
408,176,38844,5,4,0:0:0:0:
304,296,39186,1,8,0:0:0:0:
200,176,39529,1,0,0:0:0:0:
200,176,39701,1,0,0:0:0:0:
200,176,39872,1,8,0:0:0:0:
152,24,40215,6,0,B|88:24|48:64|48:128,2,160,0|8|0,0:0|0:0|0:0,0:0:0:0:
232,24,41072,1,0,0:0:0:0:
288,80,41244,1,8,0:0:0:0:
416,176,41587,2,0,B|460:248|416:328,1,160,0|8,0:0|0:0,0:0:0:0:
272,256,42272,2,0,B|192:256,2,80,0|0|8,0:0|0:0|0:0,0:0:0:0:
112,256,42958,5,0,0:0:0:0:
112,256,43129,1,0,0:0:0:0:
112,256,43301,1,8,0:0:0:0:
64,192,43472,2,0,B|40:152|64:112,1,80,0|8,0:0|0:0,0:0:0:0:
136,152,43815,1,0,0:0:0:0:
216,152,43987,2,0,B|256:152,4,40,8|8|8|8|4,0:0|0:0|0:0|0:0|0:0,0:0:0:0:
376,152,44672,5,8,0:0:0:0:
456,152,44844,2,0,B|456:200|416:224,1,80
480,272,45186,2,0,B|448:304|400:296,1,80,0|8,0:0|0:0,0:0:0:0:
248,296,45701,2,0,B|176:296|176:200|248:200,2,160,0|8|0,0:0|0:0|0:0,0:0:0:0:
328,320,46558,2,0,B|304:368|256:376,2,80,0|8|0,0:0|0:0|0:0,0:0:0:0:
360,248,47072,5,0,0:0:0:0:
360,88,47415,1,8,0:0:0:0:
200,88,47758,1,0,0:0:0:0:
120,80,47929,1,0,0:0:0:0:
148,156,48101,1,8,0:0:0:0:
88,304,48444,6,0,B|112:352|160:352|160:352|232:352,1,160,0|8,0:0|0:0,0:0:0:0:
312,352,48958,1,0,0:0:0:0:
312,272,49130,2,0,B|232:272,2,80,0|0|8,0:0|0:0|0:0,0:0:0:0:
392,272,49644,1,0,0:0:0:0:
392,352,49815,2,0,B|440:352|472:316|472:272|472:272|472:228|440:192|392:192|392:192|368:192,1,240,4|0,0:0|0:0,0:0:0:0:
328,176,50501,6,0,B|344:128|384:120,2,80,0|0|8,0:0|0:0|0:0,0:0:0:0:
248,168,51015,1,0,0:0:0:0:
168,168,51186,2,0,B|168:120|206:87|248:87|248:87|288:87|288:87,1,160,0|8,0:0|0:0,0:0:0:0:
352,48,51701,1,0,0:0:0:0:
432,64,51872,2,0,B|476:112|444:160,2,80,0|0|8,0:0|0:0|0:0,0:0:0:0:
464,224,52558,5,0,0:0:0:0:
336,312,52901,2,0,B|256:336|176:312,1,160,8|0,0:0|0:0,0:0:0:0:
112,360,53415,2,0,B|88:320|104:280,1,80,0|8,0:0|0:0,0:0:0:0:
128,128,53929,5,0,0:0:0:0:
88,64,54101,2,0,B|48:96|56:144,2,80,0|8|0,0:0|0:0|0:0,0:0:0:0:
168,64,54615,2,8,B|208:96|200:144,1,80
200,176,54872,2,8,L|200:216,5,40,8|8|8|8|8|12,0:0|0:0|0:0|0:0|0:0|0:0,0:0:0:0:
256,192,55387,12,0,57873,0:0:0:0:
80,192,58215,5,0,0:0:0:0:
128,128,58386,1,8,0:0:0:0:
288,120,58730,2,0,B|348:124|360:192,2,80,0|0|8,0:0|0:0|0:0,0:0:0:0:
280,200,59244,1,0,0:0:0:0:
216,248,59415,2,0,B|280:296,1,80,4|0,0:0|0:0,0:0:0:0:
208,328,59758,2,0,B|272:376,1,80,8|4,0:0|0:0,0:0:0:0:
352,376,60101,2,0,B|440:312,1,80
416,328,60444,1,8,0:0:0:0:
416,168,60786,5,4,0:0:0:0:
408,88,60958,2,0,B|352:96|336:156,1,80,0|8,0:0|0:0,0:0:0:0:
336,208,61301,2,0,B|288:204|272:156,1,80
264,88,61644,2,0,B|208:100|200:156,1,80,0|8,0:0|0:0,0:0:0:0:
208,216,61986,1,0,0:0:0:0:
48,216,62329,5,0,0:0:0:0:
48,296,62501,1,8,0:0:0:0:
48,376,62672,2,0,B|104:376|128:312,1,80
192,336,63015,2,0,B|208:376|264:376,1,80,0|8,0:0|0:0,0:0:0:0:
264,296,63358,1,0,0:0:0:0:
336,336,63529,6,4,B|368:280|344:224|296:192|224:200|200:248,2,240
368,176,64901,2,4,B|208:360,1,240
56,312,65758,2,0,B|120:240,1,80
32,232,66101,2,0,B|85:172,1,80,0|4,0:0|0:0,0:0:0:0:
200,64,66615,5,0,0:0:0:0:
360,64,66958,1,8,0:0:0:0:
280,200,67301,1,0,0:0:0:0:
165,309,67644,2,0,B|113:270|92:189|119:110|148:96,2,240,4|0|0,0:0|0:0|0:0,0:0:0:0:
320,352,69015,2,0,B|282:369|242:349,1,80,4|0,0:0|0:0,0:0:0:0:
400,312,69530,2,0,B|452:273|473:192|446:113|417:99,1,240
272,24,70387,1,0,0:0:0:0:
216,80,70558,6,8,B|180:116|200:160,1,80
240,216,70901,2,8,B|192:240|144:208,1,80
120,152,71244,2,8,B|80:184|88:232,1,80
16,256,71586,2,8,B|40:296|88:296,1,80,8|4,0:0|0:0,0:0:0:0:
240,296,72101,5,8,0:0:0:0:
400,296,72444,2,0,B|480:296,2,80,0|0|8,0:0|0:0|0:0,0:0:0:0:
432,136,73129,1,0,0:0:0:0:
288,64,73472,2,0,B|208:32|128:64,1,160,8|0,0:0|0:0,0:0:0:0:
96,136,73987,2,0,B|152:156|200:112,2,80,0|8|0,0:0|0:0|0:0,0:0:0:0:
192,208,74501,2,0,B|232:200|256:168|256:136|256:136|312:152,2,160,0|8|0,0:0|0:0|0:0,0:0:0:0:
112,216,75358,6,0,B|112:264|168:288,1,80,0|8,0:0|0:0,0:0:0:0:
152,360,75701,2,0,B|208:360|228:304,1,80,0|8,0:0|0:0,0:0:0:0:
256,256,76044,2,0,B|300:280|296:332,2,80,0|8|0,0:0|0:0|0:0,0:0:0:0:
192,208,76558,1,8,0:0:0:0:
192,128,76729,2,8,B|192:88,6,40,8|8|8|8|8|8|4,0:0|0:0|0:0|0:0|0:0|0:0|0:0,0:0:0:0:
344,88,77586,6,0,P|408:128|416:208,1,160,8|0,0:0|0:0,0:0:0:0:
352,256,78101,1,0,0:0:0:0:
336,176,78272,2,0,P|280:208|296:312,1,160,8|0,0:0|0:0,0:0:0:0:
120,304,78958,1,8,0:0:0:0:
48,160,79301,2,0,B|24:120|48:80,1,80
112,120,79644,2,0,B|272:120,2,160,8|0|8,0:0|0:0|0:0,0:0:0:0:
112,200,80501,2,0,B|128:240|168:256,1,80,0|0,0:0|0:0,0:0:0:0:
120,320,80844,2,0,B|176:352|224:304,1,80,0|8,0:0|0:0,0:0:0:0:
360,280,81358,6,0,B|416:256|416:200|416:200|416:136,1,160,0|8,0:0|0:0,0:0:0:0:
368,80,81873,1,0,0:0:0:0:
336,152,82044,2,0,B|288:128|288:80,1,80
280,16,82386,2,0,B|224:24|208:88,1,80,8|0,0:0|0:0,0:0:0:0:
192,136,82729,1,4,0:0:0:0:
48,200,83072,5,8,0:0:0:0:
136,336,83415,2,0,B|56:336,2,80,0|0|8,0:0|0:0|0:0,0:0:0:0:
296,336,84101,1,0,0:0:0:0:
416,232,84444,2,0,B|472:156|408:88,1,160,8|0,0:0|0:0,0:0:0:0:
336,56,84958,2,0,B|316:112|364:148,1,80,0|8,0:0|0:0,0:0:0:0:
344,208,85301,2,0,B|296:208|276:164,1,80
192,32,85815,5,8,0:0:0:0:
72,144,86158,2,0,B|48:184|72:224,2,80,0|0|8,0:0|0:0|0:0,0:0:0:0:
144,184,86672,1,0,0:0:0:0:
168,184,86758,1,0,0:0:0:0:
192,184,86844,1,8,0:0:0:0:
232,256,87015,6,0,B|264:288|304:288,1,80,0|8,0:0|0:0,0:0:0:0:
384,288,87358,2,8,B|424:288,2,40
384,208,87701,1,0,0:0:0:0:
436,148,87872,1,0,0:0:0:0:
384,88,88044,1,0,0:0:0:0:
332,148,88215,1,4,0:0:0:0:
256,192,88387,12,0,90958,0:0:0:0:
