osu file format v12

[General]
AudioFilename: Natsuiro Kiseki OP HD 720p.mp3
AudioLeadIn: 2000
PreviewTime: 33358
Countdown: 0
SampleSet: Soft
StackLeniency: 0.7
Mode: 0
LetterboxInBreaks: 0

[Editor]
Bookmarks: 16901,63529
DistanceSpacing: 1
BeatDivisor: 2
GridSize: 4

[Metadata]
Title:Non stop road (TV Size)
TitleUnicode:Non stop road (TV Size)
Artist:sphere
ArtistUnicode:sphere
Creator:Kin
Version:Easy
Source:Natsuiro Kiseki
Tags:Hichman ctb catch_the_beat taiko -Neipezi -Kirito Konei opening mint_ong89 mintong89
BeatmapID:175839
BeatmapSetID:57139

[Difficulty]
HPDrainRate:2
CircleSize:3
OverallDifficulty:2
ApproachRate:3
SliderMultiplier:0.8
SliderTickRate:1

[Events]
//Background and Video events
0,0,"BG Insane.jpg",0,0
//Break Periods
//Storyboard Layer 0 (Background)
//Storyboard Layer 1 (Fail)
//Storyboard Layer 2 (Pass)
//Storyboard Layer 3 (Foreground)
//Storyboard Sound Samples
//Background Colour Transformations
3,100,163,162,255

[TimingPoints]
444,342.857142857143,4,2,0,50,1,0
444,-133.333333333333,4,2,0,50,0,0
5929,-100,4,1,1,70,0,0
6101,-100,4,2,1,70,0,0
7301,-100,4,1,1,70,0,0
7472,-100,4,2,1,70,0,0
8672,-100,4,1,1,70,0,0
8844,-100,4,2,1,70,0,0
10044,-100,4,1,1,70,0,0
10215,-100,4,2,1,70,0,0
10901,-100,4,1,1,70,0,0
23072,-100,4,2,2,70,0,0
23244,-100,4,1,1,70,0,0
24444,-100,4,2,1,70,0,0
24786,-100,4,1,1,70,0,0
25815,-100,4,2,1,70,0,0
26158,-100,4,1,1,70,0,0
26501,-100,4,2,1,70,0,0
28901,-100,4,2,2,70,0,0
29244,-100,4,2,1,70,0,0
30272,-100,4,1,1,70,0,0
30958,-100,4,2,2,70,0,0
31301,-100,4,1,1,70,0,0
32329,-100,4,2,2,70,0,0
33358,-100,4,1,1,70,0,1
37129,-100,4,2,2,70,0,1
37472,-100,4,1,1,70,0,1
39186,-100,4,2,2,70,0,1
39358,-100,4,1,1,70,0,1
41929,-100,4,2,2,70,0,1
42272,-100,4,1,1,70,0,1
42958,-100,4,2,2,70,0,1
43301,-100,4,1,1,70,0,1
43986,-100,4,2,2,70,0,1
44158,-100,4,1,1,70,0,1
45358,-100,4,2,2,70,0,1
45701,-100,4,1,1,70,0,1
46729,-100,4,2,2,70,0,1
47072,-100,4,1,1,70,0,1
48101,-100,4,2,2,70,0,1
48444,-100,4,1,1,70,0,1
50844,-100,4,2,2,70,0,1
51186,-100,4,1,1,70,0,1
51529,-100,4,2,2,70,0,1
51872,-100,4,1,1,70,0,1
53586,-100,4,2,2,70,0,1
53929,-100,4,1,1,70,0,1
54615,-100,4,2,2,70,0,1
54958,-100,4,1,1,70,0,1
55301,-100,4,2,1,5,0,0
58044,-100,4,1,1,70,0,0
59758,-100,4,2,2,70,0,0
59929,-100,4,1,1,70,0,0
61129,-100,4,2,2,70,0,0
61472,-100,4,1,1,70,0,0
62501,-100,4,2,2,70,0,0
62844,-100,4,1,1,70,0,0
63872,-100,4,2,2,70,0,0
64044,-100,4,1,1,70,0,0
65244,-100,4,2,2,70,0,0
65415,-100,4,1,1,70,0,0
66958,-100,4,2,2,70,0,0
67129,-100,4,1,1,70,0,0
69015,-100,4,2,2,70,0,0
69186,-100,4,1,1,70,0,0
70730,-100,4,2,2,70,0,0
71758,-100,4,1,1,70,0,1
73472,-100,4,2,2,70,0,1
73815,-100,4,1,1,70,0,1
74844,-100,4,2,2,70,0,1
75186,-100,4,1,1,70,0,1
75872,-100,4,2,2,70,0,1
76215,-100,4,1,1,70,0,1
76901,-100,4,2,2,70,0,1
77072,-100,4,1,1,70,0,1
78272,-100,4,2,2,70,0,1
78615,-100,4,1,1,70,0,1
79644,-100,4,2,2,70,0,1
79986,-100,4,1,1,70,0,1
81015,-100,4,2,2,70,0,1
81358,-100,4,1,1,70,0,1
83072,-100,4,2,2,70,0,1
83415,-100,4,1,1,70,0,1
84444,-100,4,2,2,70,0,1
84786,-100,4,1,1,70,0,1
87186,-100,4,2,2,70,0,1
87529,-100,4,1,1,70,0,1
87872,-100,4,1,1,70,0,1
88215,-100,4,1,1,70,0,0
90958,-100,4,2,0,5,0,0

[Colours]
Combo1 : 0,0,128
Combo2 : 255,128,128
Combo3 : 255,255,0
Combo4 : 128,128,255

[HitObjects]
144,192,444,5,2,0:0:0:0:
222,148,958,2,0,B|246:192|222:236,1,90.0000034332277
220,316,1815,2,0,B|284:316|300:256,2,90.0000034332277,2|0|0,0:0|0:0|0:0,0:0:0:0:
168,320,3186,5,2,0:0:0:0:
84,356,3701,2,0,B|64:304|100:260,1,90.0000034332277,0|2,0:0|0:0,0:0:0:0:
136,228,4558,2,0,B|212:148,1,90.0000034332277,0|2,0:0|0:0,0:0:0:0:
260,100,5587,1,0,0:0:0:0:
332,64,5929,6,0,B|372:40|428:52|452:100,2,120,4|0|0,0:0|0:0|0:0,0:0:0:0:
376,132,7301,2,0,B|400:164|448:164|448:164|448:204,2,120,4|0|0,0:0|0:0|0:0,0:0:0:0:
296,136,8672,2,0,B|300:204|400:240,2,120,4|0|0,0:0|0:0|0:0,0:0:0:0:
300,56,10044,2,0,B|252:56|212:88|216:152,2,120,4|0|8,0:0|0:0|0:0,0:0:0:0:
380,56,11415,5,4,0:0:0:0:
460,56,11758,2,0,B|460:104|428:136|380:136|380:136|380:248,1,240
460,256,13129,2,0,B|456:296|424:328|380:328|380:328|336:328|304:296|300:248,1,240
220,255,14501,6,0,B|216:207|252:171|296:171|296:171|296:59,1,240
375,54,15872,2,0,B|375:170|375:170|372:232|321:260|284:245,1,240,0|4,0:0|0:0,0:0:0:0:
264,320,17244,6,0,B|320:344|404:320|444:260|456:180,1,240
484,140,18615,1,0,0:0:0:0:
444,68,18958,2,0,B|416:24|360:24|360:24|300:24,1,160
220,24,19987,1,0,0:0:0:0:
148,60,20330,2,0,B|104:88|104:144|104:144|104:204,1,160
184,208,21358,2,0,B|188:248|220:280|264:280|264:280|308:280|344:248|344:200,1,240,8|4,0:0|0:0,0:0:0:0:
424,196,22730,6,0,B|420:156|388:124|344:124|344:124|300:124|264:156|264:204,1,240,0|4,0:0|0:0,0:0:0:0:
264,280,24101,1,0,0:0:0:0:
184,280,24444,1,2,0:0:0:0:
104,280,24787,2,0,B|68:256|104:208|104:208|140:164|112:132,1,160
44,104,25815,6,0,B|68:56|120:60,1,80,2|0,0:0|0:0,0:0:0:0:
188,56,26501,2,0,B|316:56,2,120,2|2|10,0:0|0:0|0:0,0:0:0:0:
184,136,27872,1,4,0:0:0:0:
224,204,28215,1,0,0:0:0:0:
224,284,28558,2,0,B|272:284|304:252|304:204|304:204|304:172,1,160,2|2,0:0|0:0,0:0:0:0:
300,92,29587,2,0,B|348:92|372:132,1,80
388,204,30272,6,0,B|460:184|476:104|440:68|408:28|340:0|272:16,1,320,8|8,0:0|0:0,0:0:0:0:
212,12,31987,2,0,B|164:3|96:27|64:67|28:103|40:188|127:206,1,320,0|4,0:0|0:0,0:0:0:0:
136,124,33701,6,0,B|160:85|216:89,1,80,8|0,0:0|0:0,0:0:0:0:
252,152,34387,2,0,B|252:232,1,80,8|0,0:0|0:0,0:0:0:0:
264,312,35072,2,0,B|331:293|331:228|331:228|330:180,2,160,8|8|8,0:0|0:0|0:0,0:0:0:0:
184,312,36786,2,0,B|117:293|117:228|117:228|118:180,1,160
44,160,37815,6,0,B|56:116|108:92|151:113|151:113|198:94,1,160,8|8,0:0|0:0,0:0:0:0:
248,68,38844,2,0,P|324:48|384:108,1,160,4|0,0:0|0:0,0:0:0:0:
304,128,39872,2,0,P|332:164|392:176,1,80,8|0,0:0|0:0,0:0:0:0:
436,212,40558,6,8,B|460:220|488:272|488:272|460:324|436:332,1,160
360,352,41587,2,0,B|276:384|196:352,1,160
228,280,42615,2,8,B|276:296|324:280|324:280|324:216,1,160,8|8,0:0|0:0,0:0:0:0:
268,160,43644,2,0,B|220:152|188:108|204:52,2,120,8|8|8,0:0|0:0|0:0,0:0:0:0:
280,80,45015,6,0,B|327:88|353:125|349:170|349:170|463:193,2,240,0|8|0,0:0|0:0|0:0,0:0:0:0:
268,160,47415,2,0,B|223:151|192:116|200:68|200:68|89:44,1,240,8|0,0:0|0:0,0:0:0:0:
32,100,48787,2,0,B|32:164|32:164|32:216|84:236,1,160,8|8,0:0|0:0,0:0:0:0:
156,276,49815,6,0,B|248:276,1,80,4|8,0:0|0:0,0:0:0:0:
236,356,50501,2,0,B|284:356|315:319|317:277|317:277|318:234|285:211|273:205|273:205|272:92,1,320,0|0,0:0|0:0,0:0:0:0:
192,100,52215,1,8,0:0:0:0:
112,104,52558,5,0,0:0:0:0:
32,108,52901,2,0,B|32:60|64:28|108:24,2,120,8|0|8,0:0|0:0|0:0,0:0:0:0:
40,188,54272,2,8,B|64:244|128:244|128:244|192:244,1,160
256,192,55301,12,0,57358,0:0:0:0:
288,64,58044,5,0,0:0:0:0:
216,96,58387,2,0,B|168:120|168:176|168:176|168:256,1,160,8|8,0:0|0:0,0:0:0:0:
168,316,59415,2,0,B|124:316|84:284|89:222,2,120,4|4|8,0:0|0:0|0:0,0:0:0:0:
248,316,60786,2,0,B|264:316|296:284|296:244|296:244|296:204|264:172|264:172|264:100,1,240,4|8,0:0|0:0,0:0:0:0:
184,104,62158,2,0,B|184:172|184:172|184:216|216:232|216:244|216:244|112:244,1,240,0|8,0:0|0:0,0:0:0:0:
108,168,63529,6,0,B|54:184|39:231|52:275,2,120,4|4|8,0:0|0:0|0:0,0:0:0:0:
104,88,64901,2,0,B|126:23|199:30,2,120,4|4|0,0:0|0:0|0:0,0:0:0:0:
180,108,66272,1,4,0:0:0:0:
256,128,66615,2,0,B|236:192|163:186,2,120,0|0|4,0:0|0:0|0:0,0:0:0:0:
332,156,67987,2,0,B|412:188,1,80
480,216,68672,2,0,B|444:292|352:252,1,120,0|8,0:0|0:0,0:0:0:0:
180,68,70387,6,0,B|112:84|44:192|112:296|176:316,1,320,8|4,0:0|0:0,0:0:0:0:
212,244,72101,6,0,B|260:268|257:320|257:320|324:320,1,160,8|8,0:0|0:0,0:0:0:0:
404,320,73129,2,0,B|448:320|468:264|448:212|400:212,1,160
320,208,74158,2,0,B|268:196|260:112|260:112|256:40|188:28,1,240,8|0,0:0|0:0,0:0:0:0:
112,28,75529,2,0,B|112:72|147:104|180:107|180:107|182:138|190:166,1,160,8|8,0:0|0:0,0:0:0:0:
148,224,76558,2,8,B|108:200|106:164|106:164|85:153|71:136|66:117,2,120,8|8|8,0:0|0:0|0:0,0:0:0:0:
208,280,77930,6,0,B|252:332|313:332|313:332|372:332|416:280,1,240,0|8,0:0|0:0,0:0:0:0:
420,200,79301,2,0,B|384:200|336:200|364:280|312:264|272:248|256:212,1,160
224,184,80329,6,0,P|216:68|332:32,1,240,8|0,0:0|0:0,0:0:0:0:
396,32,81701,2,8,B|456:32|496:72|496:132,1,160
496,212,82729,6,0,B|452:212|416:180|416:127|416:127|416:99|376:111|320:132,1,240,4|8,0:0|0:0,0:0:0:0:
244,160,84101,2,0,B|192:176|192:244|192:244|192:296,1,160
272,296,85129,2,8,B|292:344|360:344|360:344|420:344,1,160
416,264,86158,1,0,0:0:0:0:
416,184,86501,5,8,0:0:0:0:
424,104,86844,2,0,B|494:119|495:191|495:191|494:232,2,160,8|8|4,0:0|0:0|0:0,0:0:0:0:
256,192,88387,12,0,90958,0:0:0:0:
