osu file format v12

[General]
AudioFilename: Sphere - MOON SIGNAL.mp3
AudioLeadIn: 0
PreviewTime: -1
Countdown: 1
SampleSet: Soft
StackLeniency: 0.7
Mode: 0
LetterboxInBreaks: 1
WidescreenStoryboard: 0

[Editor]
DistanceSpacing: 1
BeatDivisor: 8
GridSize: 8

[Metadata]
Title:MOON SIGNAL
TitleUnicode:MOON SIGNAL
Artist:sphere
ArtistUnicode:sphere
Creator:Beatz108
Version:Signal
Source:Spring Is Here
Tags:
BeatmapID:219503
BeatmapSetID:78451

[Difficulty]
HPDrainRate:8
CircleSize:4
OverallDifficulty:8
ApproachRate:8
SliderMultiplier:1.4
SliderTickRate:1

[Events]
//Background and Video events
0,0,"otome-youkai-zakuro-moon-signal.jpg",0,0
//Break Periods
//Storyboard Layer 0 (Background)
//Storyboard Layer 1 (Fail)
//Storyboard Layer 2 (Pass)
//Storyboard Layer 3 (Foreground)
//Storyboard Sound Samples
//Background Colour Transformations
3,100,163,162,255

[TimingPoints]
1032,674.460431654676,4,2,0,100,1,0
29190,-66.6666666666667,4,2,0,100,0,0

[Colours]
Combo1 : 52,139,137
Combo2 : 171,251,202
Combo3 : 175,211,254
Combo4 : 249,244,186
Combo5 : 240,80,81
Combo6 : 248,211,171

[HitObjects]
432,80,1032,1,0,0:0:0:0:
424,168,1200,1,0,0:0:0:0:
376,248,1369,1,0,0:0:0:0:
288,272,1537,1,0,0:0:0:0:
144,272,1875,1,0,0:0:0:0:
136,136,2043,1,0,0:0:0:0:
264,136,2212,1,0,0:0:0:0:
264,80,2549,5,0,0:0:0:0:
160,176,2718,1,0,0:0:0:0:
360,176,2886,1,0,0:0:0:0:
160,176,3223,1,0,0:0:0:0:
360,176,3392,1,0,0:0:0:0:
264,176,3561,1,0,0:0:0:0:
264,280,3729,1,0,0:0:0:0:
384,320,3898,5,0,0:0:0:0:
432,240,4067,1,0,0:0:0:0:
432,136,4235,1,0,0:0:0:0:
296,96,4572,1,0,0:0:0:0:
304,256,4741,1,0,0:0:0:0:
160,192,4910,1,0,0:0:0:0:
64,136,5247,5,0,0:0:0:0:
64,288,5415,1,0,0:0:0:0:
200,288,5584,1,0,0:0:0:0:
344,320,5753,1,8,0:0:0:0:
360,312,5815,1,8,0:0:0:0:
376,296,5878,1,8,0:0:0:0:
384,280,5940,1,8,0:0:0:0:
384,256,6003,1,8,0:0:0:0:
384,240,6090,1,8,0:0:0:0:
384,224,6174,1,8,0:0:0:0:
384,208,6259,1,12,0:0:0:0:
344,72,6540,5,0,0:0:0:0:
256,136,6764,1,0,0:0:0:0:
136,144,7102,1,8,0:0:0:0:
136,144,7270,1,8,0:0:0:0:
208,288,7664,1,0,0:0:0:0:
288,168,8001,1,8,0:0:0:0:
288,168,8170,1,8,0:0:0:0:
448,304,8451,5,8,0:0:0:0:
448,304,8619,1,8,0:0:0:0:
360,128,8956,1,0,0:0:0:0:
256,24,9294,1,0,0:0:0:0:
232,48,9462,1,0,0:0:0:0:
264,280,9799,1,8,0:0:0:0:
264,280,9968,1,8,0:0:0:0:
64,224,10305,5,0,0:0:0:0:
264,224,10643,1,0,0:0:0:0:
464,224,10980,1,0,0:0:0:0:
256,32,11710,1,0,0:0:0:0:
256,336,12160,1,0,0:0:0:0:
32,176,12497,1,0,0:0:0:0:
488,192,12835,1,0,0:0:0:0:
88,336,13172,1,0,0:0:0:0:
408,32,13509,5,0,0:0:0:0:
424,352,13846,1,0,0:0:0:0:
96,24,14183,1,0,0:0:0:0:
96,352,14521,1,0,0:0:0:0:
272,168,15195,2,0,P|224:208|128:224,1,140
344,96,16094,1,0,0:0:0:0:
344,96,16207,1,0,0:0:0:0:
344,288,16544,1,0,0:0:0:0:
344,288,16656,1,0,0:0:0:0:
128,184,17050,5,0,0:0:0:0:
512,184,17556,1,0,0:0:0:0:
288,264,17893,1,0,0:0:0:0:
288,264,18174,2,0,L|200:264,1,81.6666666666667
192,64,18905,1,0,0:0:0:0:
200,328,19242,1,0,0:0:0:0:
376,160,19579,1,0,0:0:0:0:
256,192,19916,12,0,22502,0:0:0:0:
256,192,22614,5,0,0:0:0:0:
256,192,22895,1,0,0:0:0:0:
56,288,23289,1,0,0:0:0:0:
56,288,23401,1,0,0:0:0:0:
80,112,23795,2,0,B|104:72|168:112|168:112|184:96,1,116.666666666667
304,120,24525,1,0,0:0:0:0:
400,192,24694,1,0,0:0:0:0:
416,288,24919,2,0,L|416:328,2,35
416,288,25312,1,0,0:0:0:0:
224,232,25649,5,0,0:0:0:0:
192,120,25987,2,0,B|176:104|176:104|184:88,1,35
192,80,26436,1,0,0:0:0:0:
336,104,27757,1,0,0:0:0:0:
408,176,28010,1,0,0:0:0:0:
416,208,28094,1,0,0:0:0:0:
416,240,28179,2,0,B|416:288|416:288|392:280|392:280|376:296,1,87.5
224,288,28853,5,0,0:0:0:0:
88,224,29022,1,0,0:0:0:0:
120,96,29190,2,0,L|192:72,2,52.5000020027161
296,72,29696,1,0,0:0:0:0:
312,72,29780,2,0,P|368:104|376:176,1,131.25000500679
328,240,30539,5,0,0:0:0:0:
256,112,30708,1,0,0:0:0:0:
184,240,30876,1,0,0:0:0:0:
344,144,31045,1,0,0:0:0:0:
160,144,31214,1,0,0:0:0:0:
256,312,31382,1,0,0:0:0:0:
256,192,31719,5,0,0:0:0:0:
256,192,31888,12,0,33153,0:0:0:0:
96,232,33406,6,0,B|112:296|112:296|112:296|112:296|120:272|160:304,1,105.000004005432
248,264,34080,1,0,0:0:0:0:
272,256,34164,1,0,0:0:0:0:
296,152,34586,2,0,P|272:72|352:72,1,183.750007009506
392,104,35345,5,0,0:0:0:0:
464,160,35513,1,0,0:0:0:0:
384,208,35682,1,0,0:0:0:0:
432,280,35851,1,0,0:0:0:0:
352,328,36019,2,0,L|264:288,1,78.7500030040742
248,272,36356,2,0,P|240:208|208:200,1,105.000004005432
168,192,36778,1,0,0:0:0:0:
176,160,36947,1,0,0:0:0:0:
288,80,37340,2,0,B|344:56|440:80|440:208|296:192|344:128,1,245.000009346009
