osu file format v12

[General]
AudioFilename: Sphere - MOON SIGNAL.mp3
AudioLeadIn: 0
PreviewTime: -1
Countdown: 1
SampleSet: Soft
StackLeniency: 0.7
Mode: 0
LetterboxInBreaks: 1
WidescreenStoryboard: 0

[Editor]
DistanceSpacing: 1
BeatDivisor: 6
GridSize: 8

[Metadata]
Title:MOON SIGNAL
TitleUnicode:MOON SIGNAL
Artist:sphere
ArtistUnicode:sphere
Creator:Beatz108
Version:Normal
Source:Spring Is Here
Tags:
BeatmapID:219502
BeatmapSetID:78451

[Difficulty]
HPDrainRate:5
CircleSize:4
OverallDifficulty:5
ApproachRate:5
SliderMultiplier:0.8
SliderTickRate:1

[Events]
//Background and Video events
0,0,"4793_88a4_960.jpeg",0,0
//Break Periods
//Storyboard Layer 0 (Background)
//Storyboard Layer 1 (Fail)
//Storyboard Layer 2 (Pass)
//Storyboard Layer 3 (Foreground)
//Storyboard Sound Samples
//Background Colour Transformations
3,100,163,162,255

[TimingPoints]
1032,674.460431654676,4,2,0,100,1,0
5753,-50,4,2,0,100,0,0

[HitObjects]
128,144,1032,1,0,2:2:0:0:
96,200,1200,1,0,2:2:0:0:
112,256,1369,1,0,2:2:0:0:
168,288,1537,1,0,2:2:0:0:
256,312,1875,1,0,0:0:0:0:
312,312,2043,1,0,0:0:0:0:
368,312,2212,1,0,0:0:0:0:
368,192,2549,5,0,0:0:0:0:
320,160,2718,1,0,0:0:0:0:
272,136,2886,1,0,0:0:0:0:
136,176,3223,1,0,0:0:0:0:
104,232,3392,1,0,0:0:0:0:
144,280,3561,1,0,0:0:0:0:
208,280,3729,1,0,0:0:0:0:
248,232,3898,5,0,0:0:0:0:
312,208,4067,1,0,0:0:0:0:
376,224,4235,1,0,0:0:0:0:
400,144,4572,1,0,0:0:0:0:
360,96,4741,1,0,0:0:0:0:
304,72,4910,1,0,0:0:0:0:
240,144,5247,5,0,0:0:0:0:
240,200,5415,1,0,0:0:0:0:
240,256,5584,1,0,0:0:0:0:
240,304,5753,2,0,L|240:344,6,35
200,328,6315,2,0,P|136:296|128:184,1,186.666666666667
168,120,7102,1,0,0:0:0:0:
200,104,7214,1,0,0:0:0:0:
280,64,7664,5,0,0:0:0:0:
352,136,8001,1,0,0:0:0:0:
368,160,8113,1,0,0:0:0:0:
368,240,8451,1,0,0:0:0:0:
328,256,8563,1,0,0:0:0:0:
216,264,8900,2,0,P|96:232|136:112,1,280
208,104,9799,5,0,0:0:0:0:
256,120,9912,1,0,0:0:0:0:
336,176,10249,1,0,0:0:0:0:
336,288,10586,1,0,0:0:0:0:
208,288,10924,1,0,0:0:0:0:
256,128,11710,5,0,0:0:0:0:
72,192,12160,1,0,0:0:0:0:
208,192,12497,1,0,0:0:0:0:
360,192,12835,1,0,0:0:0:0:
496,192,13172,1,0,0:0:0:0:
496,192,13509,1,0,0:0:0:0:
408,264,13846,1,0,0:0:0:0:
280,264,14183,1,0,0:0:0:0:
272,56,14521,5,0,0:0:0:0:
272,192,15195,2,4,L|112:192,1,160
112,192,15982,2,0,L|112:144,2,26.6666666666667
160,104,16544,1,0,0:0:0:0:
200,104,16656,1,0,0:0:0:0:
