osu file format v13

[General]
AudioFilename: hazy desu ne.mp3
AudioLeadIn: 2000
PreviewTime: 55710
Countdown: 0
SampleSet: Soft
StackLeniency: 0.9
Mode: 0
LetterboxInBreaks: 0
WidescreenStoryboard: 0

[Editor]
DistanceSpacing: 1.6
BeatDivisor: 4
GridSize: 16
TimelineZoom: 1.8

[Metadata]
Title:Hazy
TitleUnicode:Hazy
Artist:sphere
ArtistUnicode:スフィア
Creator:Yuzu-
Version:Hard
Source:花咲くいろは
Tags:hanasaku iroha matsumae ohana oshimizu nako tsurugi minko wakura yuina ending desperate-kun TV Size
BeatmapID:440789
BeatmapSetID:184079

[Difficulty]
HPDrainRate:5
CircleSize:4
OverallDifficulty:5
ApproachRate:6.5
SliderMultiplier:1.5
SliderTickRate:2

[Events]
//Background and Video events
0,0,"kawaii desu ne.jpg",0,0
Video,0,"bideo desu ne.avi"
//Break Periods
//Storyboard Layer 0 (Background)
//Storyboard Layer 1 (Fail)
//Storyboard Layer 2 (Pass)
//Storyboard Layer 3 (Foreground)
//Storyboard Sound Samples
//Background Colour Transformations
3,100,163,162,255

[TimingPoints]
30,480,4,2,1,55,1,0
45870,-111.111111111111,4,2,1,55,0,0
53790,-100,4,2,1,55,0,0
55710,-90.9090909090909,4,2,1,65,0,1
70590,-90.9090909090909,4,2,1,65,0,0
71070,-90.9090909090909,4,2,1,65,0,1
78750,-90.9090909090909,4,2,1,65,0,0

[Colours]
Combo1 : 12,165,165
Combo2 : 51,143,236
Combo3 : 62,67,253

[HitObjects]
225,240,30,6,0,L|151:251,2,75,2|0|0,0:0|0:0|0:0,0:0:0:0:
302,192,750,1,0,0:0:0:0:
383,229,990,2,0,P|419:238|455:229,1,75,2|0,0:0|0:0,0:0:0:0:
418,146,1470,1,2,0:0:0:0:
302,192,1710,6,0,P|291:266|290:344,1,150,2|2,0:0|0:0,0:0:0:0:
208,279,2430,2,0,L|200:354,1,75,2|0,0:0|0:0,0:0:0:0:
128,298,2910,2,0,P|123:258|108:224,1,75,2|0,0:0|0:0,0:0:0:0:
30,181,3390,1,2,0:0:0:0:
35,91,3630,1,0,0:0:0:0:
119,121,3870,6,0,P|156:127|193:121,2,75,2|0|2,0:0|0:0|0:0,0:0:0:0:
35,91,4590,1,0,0:0:0:0:
30,180,4830,2,0,L|36:261,1,75,2|0,0:0|0:0,0:0:0:0:
111,302,5310,1,2,0:0:0:0:
186,208,5550,6,0,L|176:57,1,150,2|2,0:0|0:0,0:0:0:0:
265,69,6270,2,0,P|301:64|338:69,1,75,2|0,0:0|0:0,0:0:0:0:
427,79,6750,2,0,P|414:114|391:143,1,75,2|0,0:0|0:0,0:0:0:0:
337,216,7230,2,0,P|314:187|301:153,1,75,2|0,0:0|0:0,0:0:0:0:
213,174,7710,6,0,P|213:258|195:329,1,150,10|10,0:1|0:0,0:0:0:0:
116,310,8430,1,0,0:0:0:0:
51,248,8670,2,0,P|46:210|47:169,1,75,2|0,0:0|0:0,0:0:0:0:
115,114,9150,1,10,0:0:0:0:
220,172,9390,5,10,0:1:0:0:
220,172,9630,2,0,L|299:166,1,75,8|2,0:1|0:0,0:0:0:0:
394,246,10110,2,0,L|320:252,1,75,10|0,0:0|0:0,0:0:0:0:
401,336,10590,2,0,P|436:328|471:293,1,75,2|0,0:0|0:0,0:0:0:0:
479,213,11070,1,10,0:0:0:0:
351,169,11310,5,8,0:1:0:0:
351,169,11550,2,0,L|277:177,1,75,10|0,0:1|0:0,0:0:0:0:
366,78,12030,1,10,0:0:0:0:
428,153,12270,1,0,0:0:0:0:
366,78,12510,2,0,P|398:59|437:55,1,75,2|0,0:0|0:0,0:0:0:0:
428,153,12990,1,10,0:0:0:0:
385,265,13230,5,10,0:1:0:0:
385,265,13470,2,0,L|381:352,1,75,8|2,0:1|0:0,0:0:0:0:
292,352,13950,2,0,P|254:351|208:329,1,75,10|0,0:0|0:0,0:0:0:0:
272,263,14430,2,0,P|277:225|272:189,1,75,2|0,0:0|0:0,0:0:0:0:
252,99,14910,2,0,P|290:99|325:113,1,75,10|0,0:0|0:0,0:0:0:0:
192,159,15390,6,0,B|156:117|174:67|174:67|150:88|117:89,1,150,6|10,0:0|0:0,0:0:0:0:
48,130,16110,1,0,0:0:0:0:
15,214,16350,2,0,L|24:288,2,75,2|0|10,0:0|0:0|0:0,0:0:0:0:
111,269,17070,1,10,0:1:0:0:
111,269,17310,6,0,P|109:308|95:342,1,75,8|2,0:1|0:0,0:0:0:0:
191,289,17790,2,0,P|189:251|175:216,1,75,10|0,0:0|0:0,0:0:0:0:
174,367,18270,2,0,P|210:366|244:347,2,75,2|0|10,0:0|0:0|0:0,0:0:0:0:
111,269,18990,1,10,0:1:0:0:
111,269,19230,6,0,P|96:233|94:197,1,75,8|0,0:1|0:0,0:0:0:0:
166,143,19710,2,0,P|180:177|183:214,1,75,10|0,0:0|0:0,0:0:0:0:
82,105,20190,2,0,P|105:75|138:55,1,75,2|0,0:0|0:0,0:0:0:0:
224,73,20670,1,8,0:0:0:0:
282,177,20910,1,10,0:1:0:0:
282,177,21150,6,0,P|316:192|355:192,1,75,8|2,0:1|0:0,0:0:0:0:
405,265,21630,2,0,P|439:249|476:249,1,75,8|0,0:0|0:0,0:0:0:0:
459,345,22110,2,0,L|367:350,1,75,2|0,0:0|0:0,0:0:0:0:
318,287,22590,1,10,0:0:0:0:
203,321,22830,1,10,0:1:0:0:
203,321,23070,6,0,L|111:316,1,75,8|0,0:1|0:0,0:0:0:0:
37,313,23550,2,0,P|51:278|54:242,1,75,10|0,0:0|0:0,0:0:0:0:
25,155,24030,2,0,P|11:119|6:73,2,75,2|0|8,0:0|0:0|0:0,0:0:0:0:
142,224,24750,1,10,0:1:0:0:
142,224,24990,6,0,P|180:219|217:209,1,75,8|2,0:1|0:0,0:0:0:0:
312,152,25470,2,0,P|297:186|287:222,1,75,8|0,0:0|0:0,0:0:0:0:
288,335,25950,2,0,P|265:305|238:278,1,75,2|0,0:0|0:0,0:0:0:0:
352,279,26430,1,10,0:0:0:0:
401,169,26670,1,10,0:1:0:0:
401,169,26910,6,0,P|398:130|382:93,1,75,8|0,0:1|0:0,0:0:0:0:
312,152,27390,2,0,P|289:119|257:95,1,75,10|0,0:0|0:0,0:0:0:0:
170,134,27870,2,0,P|190:164|220:188,2,75,2|0|10,0:0|0:0|0:0,0:0:0:0:
68,69,28590,1,10,0:1:0:0:
68,69,28830,6,0,P|54:104|50:142,1,75,8|2,0:1|0:0,0:0:0:0:
170,133,29310,2,0,P|183:98|188:61,1,75,8|0,0:0|0:0,0:0:0:0:
268,101,29790,2,0,L|350:97,1,75,2|0,0:0|0:0,0:0:0:0:
431,114,30270,1,10,0:0:0:0:
389,226,30510,1,10,0:1:0:0:
389,226,30750,6,0,L|314:229,1,75,12|0,0:1|0:0,0:0:0:0:
243,326,31230,2,0,L|318:323,1,75,10|0,0:0|0:0,0:0:0:0:
228,240,31710,2,0,P|192:253|169:281,1,75,2|0,0:0|0:0,0:0:0:0:
90,324,32190,1,10,0:0:0:0:
114,206,32430,1,10,0:1:0:0:
114,206,32670,6,0,P|115:168|98:136,1,75,8|2,0:1|0:0,0:0:0:0:
47,61,33150,2,0,L|119:44,1,75,8|0,0:0|0:0,0:0:0:0:
183,107,33630,2,0,P|219:110|258:107,1,75,2|0,0:0|0:0,0:0:0:0:
323,44,34110,1,10,0:0:0:0:
407,128,34350,1,10,0:1:0:0:
407,128,34590,6,0,P|416:166|408:202,1,75,8|0,0:1|0:0,0:0:0:0:
272,202,35070,2,0,P|299:177|335:165,1,75,10|0,0:0|0:0,0:0:0:0:
405,280,35550,2,0,P|369:270|342:246,1,75,2|0,0:0|0:0,0:0:0:0:
407,128,36030,1,10,0:0:0:0:
272,202,36270,1,10,0:1:0:0:
272,202,36510,6,0,L|187:203,1,75,8|2,0:1|0:0,0:0:0:0:
110,226,36990,2,0,P|83:251|69:286,1,75,10|0,0:0|0:0,0:0:0:0:
117,362,37470,2,0,P|144:336|157:302,1,75,2|0,0:0|0:0,0:0:0:0:
246,283,37950,1,10,0:0:0:0:
339,358,38190,1,8,0:1:0:0:
339,358,38430,6,0,B|388:337|388:337|404:280,2,112.5,10|0|0,0:1|0:0|0:0,0:0:0:0:
248,355,39390,2,0,P|212:348|185:322,1,75,2|0,0:0|0:0,0:0:0:0:
175,233,39870,1,10,0:0:0:0:
78,309,40110,1,8,0:1:0:0:
78,309,40350,6,0,P|52:231|74:162,1,150,10|8,0:1|0:0,0:0:0:0:
175,232,41070,1,2,0:0:0:0:
134,119,41310,2,0,P|103:97|68:90,2,75,0|0|8,0:0|0:0|0:0,0:0:0:0:
175,232,42030,1,0,0:0:0:0:
175,232,42270,6,0,P|249:244|323:233,1,150,10|8,0:1|0:0,0:0:0:0:
370,140,42990,1,0,0:0:0:0:
429,225,43230,2,0,P|427:261|410:295,1,75,2|0,0:0|0:0,0:0:0:0:
370,140,43710,2,0,P|402:123|440:121,1,75,10|0,0:0|0:0,0:0:0:0:
323,234,44190,6,0,P|273:182|270:106,1,150,2|8,0:0|0:0,0:0:0:0:
208,40,44910,1,0,0:0:0:0:
123,71,45150,1,2,0:0:0:0:
172,145,45390,2,0,L|184:109,2,37.5,0|0|8,0:0|0:0|0:0,0:0:0:0:
122,264,45870,5,10,0:1:0:0:
190,338,46110,2,0,L|258:351,2,67.4999979400635,8|0|0,0:1|0:0|0:0,0:0:0:0:
256,261,46830,2,0,L|390:289,1,134.999995880127,2|0,0:0|0:0,0:0:0:0:
453,212,47550,2,0,L|386:199,1,67.4999979400635,0|10,0:0|0:1,0:0:0:0:
318,125,48030,6,0,L|252:113,2,67.4999979400635,8|2|0,0:1|0:0|0:0,0:0:0:0:
304,25,48750,2,0,P|238:12|178:43,1,134.999995880127,2|0,0:0|0:0,0:0:0:0:
179,142,49470,1,0,0:0:0:0:
86,219,49710,1,10,0:1:0:0:
86,219,49950,6,0,P|142:258|218:253,1,134.999995880127,10|8,0:1|0:0,0:0:0:0:
306,258,50670,2,0,P|372:257|428:217,1,134.999995880127,2|0,0:0|0:0,0:0:0:0:
464,124,51390,2,0,L|457:57,1,67.4999979400635,10|10,0:0|0:1,0:0:0:0:
358,33,51870,5,4,0:1:0:0:
238,192,52350,1,8,0:1:0:0:
160,129,52590,1,0,0:1:0:0:
223,51,52830,1,8,0:1:0:0:
301,114,53070,1,0,0:1:0:0:
160,129,53310,2,0,L|93:137,1,67.4999979400635,8|0,0:1|0:0,0:0:0:0:
99,247,53790,5,4,0:1:0:0:
238,192,54030,1,0,0:0:0:0:
360,280,54270,1,10,0:1:0:0:
360,280,54510,2,0,P|429:260|453:192,1,150,4|0,0:0|0:0,0:0:0:0:
375,63,55230,1,0,0:0:0:0:
242,110,55470,1,0,0:0:0:0:
242,110,55590,1,0,0:0:0:0:
242,109,55710,6,0,L|238:192,1,82.5000025177003,12|0,0:1|0:0,0:0:0:0:
158,251,56190,1,10,0:0:0:0:
82,315,56430,1,2,0:0:0:0:
82,315,56550,1,0,0:0:0:0:
82,315,56670,2,0,P|62:279|60:237,1,82.5000025177003,0|2,0:0|0:0,0:0:0:0:
120,159,57150,1,8,0:0:0:0:
60,79,57390,1,0,0:0:0:0:
60,79,57630,6,0,P|120:67|147:44,1,82.5000025177003,2|0,0:0|0:0,0:0:0:0:
233,35,58110,1,8,0:0:0:0:
344,106,58350,2,0,L|385:102,2,41.2500012588501,2|0|0,0:0|0:0|0:0,0:0:0:0:
256,153,58830,1,2,0:0:0:0:
382,193,59070,2,0,P|421:186|454:161,1,82.5000025177003,10|0,0:0|0:0,0:0:0:0:
384,272,59550,6,0,P|345:262|314:235,1,82.5000025177003,2|0,0:0|0:0,0:0:0:0:
256,153,60030,1,10,0:0:0:0:
188,225,60270,1,2,0:0:0:0:
188,225,60390,1,0,0:0:0:0:
188,225,60510,2,0,L|185:308,1,82.5000025177003,0|2,0:0|0:0,0:0:0:0:
95,349,60990,1,8,0:0:0:0:
95,349,61230,1,0,0:0:0:0:
33,271,61470,5,2,0:0:0:0:
33,271,61710,1,0,0:0:0:0:
95,194,61950,1,8,0:0:0:0:
32,117,62190,2,0,L|25:71,2,41.2500012588501,2|0|0,0:0|0:0|0:0,0:0:0:0:
95,194,62670,1,2,0:0:0:0:
221,157,62910,1,2,0:0:0:0:
261,248,63150,1,0,0:0:0:0:
261,248,63270,1,0,0:0:0:0:
261,248,63390,6,0,P|186:250|126:181,1,165.000005035401,4|8,0:0|0:0,0:0:0:0:
169,62,64110,1,2,0:0:0:0:
169,62,64230,1,0,0:0:0:0:
169,62,64350,2,0,L|251:58,1,82.5000025177003,2|0,0:0|0:0,0:0:0:0:
338,156,64830,2,0,L|256:160,1,82.5000025177003,8|0,0:0|0:0,0:0:0:0:
301,248,65310,6,0,P|391:239|433:183,1,165.000005035401,2|10,0:0|0:0,0:0:0:0:
480,306,66030,1,2,0:0:0:0:
480,306,66150,1,0,0:0:0:0:
480,306,66270,2,0,P|453:338|415:350,1,82.5000025177003,2|0,0:0|0:0,0:0:0:0:
325,307,66750,1,8,0:0:0:0:
238,354,66990,1,0,0:0:0:0:
149,310,67230,6,0,P|133:227|136:146,1,165.000005035401,2|8,0:0|0:0,0:0:0:0:
222,98,67950,1,0,0:0:0:0:
222,98,68190,2,0,P|234:140|230:178,1,82.5000025177003,2|0,0:0|0:0,0:0:0:0:
49,196,68670,2,0,P|37:154|41:116,1,82.5000025177003,10|0,0:0|0:0,0:0:0:0:
125,36,69150,5,6,0:0:0:0:
222,98,69390,1,0,0:0:0:0:
328,53,69630,1,10,0:0:0:0:
328,53,69870,1,6,0:0:0:0:
408,269,70350,5,0,0:0:0:0:
320,314,70590,2,0,L|274:327,3,41.2500012588501,10|0|0|0,0:0|0:0|0:0|0:0,0:0:0:0:
230,328,71070,6,0,P|150:311|68:328,1,165.000005035401,4|10,0:0|0:0,0:0:0:0:
87,229,71790,1,2,0:0:0:0:
87,229,71910,1,0,0:0:0:0:
87,229,72030,2,0,P|84:186|70:150,1,82.5000025177003,0|0,0:0|0:0,0:0:0:0:
144,35,72510,2,0,P|146:76|161:114,1,82.5000025177003,8|0,0:0|0:0,0:0:0:0:
230,186,72990,5,2,0:0:0:0:
299,114,73230,2,0,P|266:90|242:56,1,82.5000025177003,0|8,0:0|0:0,0:0:0:0:
334,21,73710,2,0,L|396:15,2,41.2500012588501,2|0|0,0:0|0:0|0:0,0:0:0:0:
300,114,74190,1,2,0:0:0:0:
360,192,74430,2,0,B|370:233|370:233|360:274,1,82.5000025177003,10|0,0:0|0:0,0:0:0:0:
317,361,74910,6,0,B|258:323|264:257|264:257|245:271|216:273,1,165.000005035401,2|8,0:0|0:0,0:0:0:0:
136,316,75630,2,0,L|90:307,2,41.2500012588501,2|0|0,0:0|0:0|0:0,0:0:0:0:
143,217,76110,1,2,0:0:0:0:
94,131,76350,2,0,P|85:89|94:52,1,82.5000025177003,8|0,0:0|0:0,0:0:0:0:
192,51,76830,6,0,P|201:91|192:131,1,82.5000025177003,2|0,0:0|0:0,0:0:0:0:
263,199,77310,2,0,L|357:192,1,82.5000025177003,8|6,0:0|0:0,0:0:0:0:
471,39,78030,5,2,0:0:0:0:
382,83,78270,2,0,L|339:87,3,41.2500012588501,10|0|0|0,0:0|0:0|0:0|0:0,0:0:0:0:
291,90,78750,6,0,P|212:98|158:161,1,165.000005035401,4|10,0:0|0:0,0:0:0:0:
183,255,79470,1,0,0:0:0:0:
183,255,79710,2,0,L|106:284,1,82.5000025177003,2|0,0:0|0:0,0:0:0:0:
175,354,80190,2,0,L|252:325,1,82.5000025177003,10|0,0:0|0:0,0:0:0:0:
382,347,80670,6,8,P|421:342|456:319,2,82.5000025177003,2|0|8,0:0|0:0|0:0,0:0:0:0:
300,291,81390,1,0,0:0:0:0:
300,291,81630,2,0,P|291:230|320:176,2,123.75000377655,2|2|2,0:0|0:0|0:0,0:0:0:0:
389,247,82590,6,0,P|411:213|419:173,1,82.5000025177003,2|0,0:0|0:0,0:0:0:0:
271,113,83070,2,0,P|289:149|320:176,1,82.5000025177003,10|0,0:0|0:0,0:0:0:0:
446,77,83550,2,0,P|405:76|366:89,1,82.5000025177003,2|0,0:0|0:0,0:0:0:0:
321,177,84030,1,10,0:0:0:0:
419,173,84270,1,2,0:0:0:0:
366,89,84510,5,4,0:0:0:0:
366,89,85950,1,8,0:0:0:0:
197,192,86430,6,0,L|114:192,1,82.5000025177003,2|2,0:0|0:0,0:0:0:0:
256,330,87150,1,0,0:0:0:0:
256,330,87390,2,0,L|339:330,1,82.5000025177003,2|0,0:0|0:0,0:0:0:0:
450,302,87870,1,2,0:0:0:0:
423,190,88110,1,2,0:0:0:0:
311,217,88350,5,6,0:0:0:0:
