osu file format v12

[General]
AudioFilename: sphere_hazy.mp3
AudioLeadIn: 2500
PreviewTime: 55769
Countdown: 1
SampleSet: Soft
StackLeniency: 0.7
Mode: 0
LetterboxInBreaks: 1
WidescreenStoryboard: 0

[Editor]
DistanceSpacing: 0.8
BeatDivisor: 4
GridSize: 4

[Metadata]
Title:Hazy (TV Size)
TitleUnicode:Hazy (TV Size)
Artist:sphere
ArtistUnicode:スフィア
Creator:frost-b-spec
Version:Easy
Source:Hanasaku Iroha
Tags:Amu Kotobuki Minako Takagaki Ayahi Toyosaki Aki Tomatsu Haruka
BeatmapID:186268
BeatmapSetID:62669

[Difficulty]
HPDrainRate:2
CircleSize:3
OverallDifficulty:2
ApproachRate:3
SliderMultiplier:0.8
SliderTickRate:1

[Events]
//Background and Video events
Video,0,"hazy.avi"
0,0,"12_0214hanasaku_iroha0110.jpg",0,0
//Break Periods
//Storyboard Layer 0 (Background)
//Storyboard Layer 1 (Fail)
//Storyboard Layer 2 (Pass)
//Storyboard Layer 3 (Foreground)
//Storyboard Sound Samples
//Background Colour Transformations
3,100,163,162,255

[TimingPoints]
89,480,4,2,0,35,1,0
7769,-100,4,2,0,70,0,0
14849,-100,4,1,0,70,0,0
15089,-100,4,2,0,70,0,0
55769,-100,4,2,0,70,0,1
85889,-100,4,3,0,70,0,1
86129,-100,4,2,0,70,0,1
88409,-100,4,2,0,70,0,0

[Colours]
Combo1 : 140,127,108
Combo2 : 53,47,83
Combo3 : 33,45,25
Combo4 : 134,136,177

[HitObjects]
104,128,89,2,0,B|160:72|256:80,1,160,0|2,0:0|0:0,0:0:0:0:
368,128,2009,1,0,0:0:0:0:
448,224,2969,1,2,0:0:0:0:
384,336,3929,6,0,B|320:277|231:286,1,160,0|2,0:0|0:0,2:0:0:0:
120,344,5849,1,0,0:0:0:0:
40,248,6809,1,2,0:0:0:0:
40,120,7769,5,4,0:0:0:0:
80,72,8249,1,0,0:0:0:0:
136,40,8729,1,2,0:0:0:0:
256,80,9689,1,0,0:0:0:0:
360,160,10649,6,0,B|408:160|432:128,2,80,2|0|0,0:0|0:0|0:0,0:0:0:0:
256,240,12569,1,2,0:0:0:0:
152,168,13529,1,0,0:0:0:0:
104,288,14489,6,0,B|56:296|24:272,2,80,2|0|4,0:0|0:0|0:0,0:0:0:0:
288,288,16409,1,2,0:0:0:0:
344,176,17369,1,0,0:0:0:0:
416,72,18329,6,0,B|384:48|336:48,2,80,2|0|4,0:0|0:0|0:0,0:0:0:0:
448,192,20249,2,0,B|448:280|352:312,1,160,2|0,0:0|0:0,0:0:0:0:
232,336,22169,1,2,0:0:0:0:
168,328,22649,1,0,0:0:0:0:
112,304,23129,6,0,B|48:248|72:152,1,160,4|2,0:0|0:0,0:0:0:0:
152,56,25049,1,0,0:0:0:0:
280,56,26009,1,2,0:0:0:0:
400,104,26969,5,0,0:0:0:0:
432,160,27449,1,0,0:0:0:0:
424,224,27929,1,2,0:0:0:0:
328,304,28889,2,0,B|256:328|168:320,1,160,0|2,0:0|0:0,0:0:0:0:
80,232,30809,5,4,0:0:0:0:
120,112,31769,1,2,0:0:0:0:
240,64,32729,1,0,0:0:0:0:
304,64,33209,1,0,0:0:0:0:
364,84,33689,1,2,0:0:0:0:
440,184,34649,6,0,B|428:276|353:316,1,160,0|2,0:0|0:0,0:0:0:0:
228,320,36569,1,0,0:0:0:0:
168,300,37049,1,0,0:0:0:0:
116,264,37529,6,0,B|60:184|60:112,1,160,2|4,0:0|0:0,0:0:0:0:
160,40,39449,1,2,0:0:0:0:
288,64,40409,2,0,B|344:144|344:216,1,160,0|2,0:0|0:0,0:0:0:0:
256,304,42329,5,0,0:0:0:0:
256,176,43289,1,2,0:0:0:0:
256,48,44249,2,0,B|176:48,2,80,0|0|2,0:0|0:0|0:0,0:0:0:0:
384,48,46169,5,4,0:0:0:0:
440,128,46889,1,2,0:0:0:0:
344,256,48089,1,0,0:0:0:0:
288,176,48809,1,2,0:0:0:0:
200,40,50009,6,0,B|152:80|152:160,1,120,0|2,0:0|0:0,0:0:0:0:
104,296,51929,2,0,B|136:320|192:320,1,80,4|0,0:0|0:0,0:0:0:0:
240,336,52889,2,0,B|280:320|320:336,1,80,0|2,0:0|0:0,0:0:0:0:
376,304,53849,2,0,B|464:216,2,120,4|4|0,0:0|0:0|0:0,0:0:0:0:
328,264,55769,5,4,0:0:0:0:
280,144,56729,1,2,0:0:0:0:
224,112,57209,1,0,0:0:0:0:
160,96,57689,2,0,B|88:152|72:248,1,160,0|2,0:0|0:0,0:0:0:0:
48,352,59609,5,4,0:0:0:0:
160,296,60569,1,2,0:0:0:0:
288,288,61529,1,0,0:0:0:0:
352,304,62009,1,0,0:0:0:0:
412,324,62489,2,0,B|452:260|452:164,1,160,2|4,0:0|0:0,0:0:0:0:
416,40,64409,5,2,0:0:0:0:
384,96,64889,1,0,0:0:0:0:
340,144,65369,1,0,0:0:0:0:
232,72,66329,2,0,B|200:104|208:152|208:152|136:152,1,160,2|4,0:0|0:0,0:0:0:0:
80,272,68249,5,2,0:0:0:0:
200,320,69209,2,0,B|256:344|336:336,2,120,4|4|0,0:0|0:0|0:0,0:0:0:0:
168,264,71129,5,4,0:0:0:0:
152,136,72089,1,2,0:0:0:0:
248,48,73049,1,0,0:0:0:0:
312,40,73529,1,0,0:0:0:0:
376,56,74009,2,0,B|424:128|416:216,1,160,2|4,0:0|0:0,0:0:0:0:
392,336,75929,5,2,0:0:0:0:
264,352,76889,2,0,B|144:352,2,120,4|4|0,0:0|0:0|0:0,0:0:0:0:
264,288,78809,5,4,0:0:0:0:
376,224,79769,1,2,0:0:0:0:
408,168,80249,1,0,0:0:0:0:
416,104,80729,1,0,0:0:0:0:
296,72,81689,2,0,B|216:48|136:64,1,160,2|4,0:0|0:0,0:0:0:0:
48,152,83609,5,2,0:0:0:0:
56,216,84089,1,0,0:0:0:0:
88,272,84569,2,0,B|136:328|240:328,1,160,4|2,0:0|0:0,0:0:0:0:
296,328,86009,1,0,0:0:0:0:
256,192,86489,12,4,88409,0:0:0:0:
