osu file format v14

[General]
AudioFilename: HIGH POWERED (TV Size).mp3
AudioLeadIn: 0
PreviewTime: 54515
Countdown: 0
SampleSet: Soft
StackLeniency: 0.5
Mode: 0
LetterboxInBreaks: 0
WidescreenStoryboard: 0

[Editor]
DistanceSpacing: 1
BeatDivisor: 4
GridSize: 4
TimelineZoom: 0.8999996

[Metadata]
Title:HIGH POWERED(TV ver.)
TitleUnicode:HIGH POWERED(TV ver.)
Artist:sphere
ArtistUnicode:スフィア
Creator:Bearizm
Version:Normal
Source:侵略!?イカ娘
Tags:Shinryaku!? Ika Musume Squid Girl 2 Opening pkhg
BeatmapID:913195
BeatmapSetID:421936

[Difficulty]
HPDrainRate:2.5
CircleSize:3
OverallDifficulty:2.5
ApproachRate:4
SliderMultiplier:1
SliderTickRate:1

[Events]
//Background and Video events
0,0,"SquidGirl.jpg",0,0
Video,5,"Squidizm.avi"
//Break Periods
//Storyboard Layer 0 (Background)
//Storyboard Layer 1 (Fail)
//Storyboard Layer 2 (Pass)
//Storyboard Layer 3 (Foreground)
//Storyboard Sound Samples

[TimingPoints]
612,320.855614973262,4,2,1,40,1,0
5745,-100,4,2,1,50,0,0
10879,-100,4,2,1,60,0,1
10959,-100,4,2,1,60,0,0
54515,-100,4,2,1,70,0,1
73767,-100,4,2,1,50,0,1
74087,-100,4,2,1,55,0,1
74408,-100,4,2,1,60,0,1
74729,-100,4,2,1,65,0,1
75050,-100,4,2,1,70,0,0
86601,-100,4,2,1,70,0,1
87563,-100,4,2,1,80,0,0

[Colours]
Combo1 : 128,255,128
Combo2 : 128,255,255
Combo3 : 128,128,255
Combo4 : 255,128,128

[HitObjects]
96,116,612,6,0,L|88:216,2,100,12|8|8,0:0|0:0|0:0,0:0:0:0:
176,56,1574,1,8,0:0:0:0:
256,120,1895,2,0,P|308:124|348:100,1,100,8|8,0:0|0:0,0:0:0:0:
448,88,2537,2,0,P|484:124|496:172,1,100,8|8,0:0|0:0,0:0:0:0:
424,240,3178,6,0,L|420:340,2,100,8|8|8,0:0|0:0|0:0,0:0:0:0:
352,172,4141,1,8,0:0:0:0:
280,240,4462,2,0,P|228:252|180:240,1,100,8|8,0:0|0:0,0:0:0:0:
104,180,5103,1,8,0:0:0:0:
104,80,5424,1,8,1:2:0:0:
184,24,5745,6,0,B|332:44|332:44|380:28,1,200,12|8,0:0|0:0,0:0:0:0:
480,32,6708,1,0,1:0:0:0:
424,116,7029,2,0,P|412:164|428:216,1,100,8|0,0:0|1:0,0:0:0:0:
356,284,7670,2,0,L|256:276,1,100,0|0,0:0|1:0,0:0:0:0:
196,356,8312,6,0,B|204:304|204:304|180:208|180:208|188:160,1,200,12|8,0:0|0:0,0:0:0:0:
276,112,9275,1,0,1:0:0:0:
348,180,9595,2,0,P|400:184|440:160,2,100,8|8|0,0:0|0:0|1:0,0:0:0:0:
288,100,10558,1,8,0:3:0:0:
248,192,10879,6,0,L|256:292,1,100,12|0,0:0|1:0,0:0:0:0:
160,320,11521,2,0,L|152:220,1,100,8|0,0:0|1:0,0:0:0:0:
68,168,12162,2,0,L|84:16,2,150,10|2|0,0:0|0:0|1:0,0:0:0:0:
152,220,13446,6,0,P|204:224|248:200,1,100,10|0,0:0|1:0,0:0:0:0:
340,168,14087,2,0,P|392:180|424:216,1,100,0|0,0:0|1:0,0:0:0:0:
476,296,14729,2,0,L|488:144,2,150,10|2|0,0:0|0:0|1:0,0:0:0:0:
404,368,16013,6,0,B|304:380|304:380|256:364,2,150,14|10|0,0:0|0:0|1:0,0:0:0:0:
364,276,17296,2,0,B|464:264|464:264|512:280,2,150,10|10|0,0:0|0:0|1:0,0:0:0:0:
272,236,18579,2,0,L|172:224,1,100,0|0,1:0|1:0,0:0:0:0:
112,144,19221,2,0,P|168:88|236:104,2,150,8|12|8,1:2|0:0|1:2,0:0:0:0:
172,224,20505,1,10,0:0:0:0:
116,308,20825,1,4,0:1:0:0:
196,368,21146,6,0,L|296:360,1,100,12|8,0:0|0:0,0:0:0:0:
388,316,21788,2,0,P|404:240|356:188,1,150,8|2,0:0|0:0,0:0:0:0:
264,212,22590,1,2,0:0:0:0:
180,160,22911,2,0,L|196:8,1,150,2|8,0:0|0:0,0:0:0:0:
276,72,23713,6,0,P|325:88|371:80,1,100,8|8,0:0|0:0,0:0:0:0:
464,40,24355,1,8,0:0:0:0:
496,188,24836,2,0,P|448:168|372:224,1,150,2|8,0:0|0:0,0:0:0:0:
308,296,25638,2,0,P|256:304|208:292,1,100,8|8,0:0|0:0,0:0:0:0:
136,228,26280,6,0,L|128:128,1,100,12|8,0:0|0:0,0:0:0:0:
184,44,26922,2,0,P|256:28|312:88,1,150,8|2,0:0|0:0,0:0:0:0:
276,172,27724,1,2,0:0:0:0:
340,248,28045,2,0,L|492:236,1,150,2|8,0:0|1:2,0:0:0:0:
428,156,28847,6,0,P|420:104|436:60,2,100,8|8|8,0:0|1:2|0:0,0:0:0:0:
328,268,29970,2,0,L|176:256,1,150,4|8,0:0|0:0,0:0:0:0:
80,248,30772,1,8,0:0:0:0:
132,108,31253,6,0,P|189:107|238:177,1,150,12|0,0:0|1:0,0:0:0:0:
178,256,32055,1,8,0:0:0:0:
299,344,32537,2,0,L|399:332,1,100,2|10,0:0|0:0,0:0:0:0:
480,272,33178,2,0,B|492:172|492:172|472:124,1,150,2|0,0:0|1:0,0:0:0:0:
380,84,33980,6,0,L|280:92,1,100,8|0,0:0|1:0,0:0:0:0:
180,108,34622,1,8,0:0:0:0:
104,240,35103,2,0,P|176:224|228:288,1,150,2|0,0:0|1:0,0:0:0:0:
188,368,35906,2,0,P|140:356|88:360,1,100,0|4,1:0|1:2,0:0:0:0:
8,304,36547,6,0,L|0:204,1,100,12|0,0:0|1:0,0:0:0:0:
72,136,37189,1,8,0:0:0:0:
212,179,37670,2,0,P|232:227|224:275,1,100,2|10,0:0|0:0,0:0:0:0:
140,328,38312,2,0,B|240:316|240:316|288:328,1,150,10|4,0:0|1:2,0:0:0:0:
384,352,39114,6,0,P|436:328|456:288,1,100,4|0,1:2|1:0,0:0:0:0:
362,252,39756,1,0,1:0:0:0:
216,280,40237,2,0,B|200:180|200:180|208:132,1,150,12|8,0:0|0:0,0:0:0:0:
240,36,41039,1,0,1:0:0:0:
304,112,41360,1,8,0:0:0:0:
352,24,41681,6,0,L|340:224,1,200,0|0,1:0|1:0,0:0:0:0:
140,240,42964,2,0,P|104:176|124:104,2,150,12|12|0,0:0|0:0|1:0,0:0:0:0:
204,164,44248,6,0,B|304:148|304:148|352:164,1,150,8|0,0:0|0:0,0:0:0:0:
408,244,45050,1,0,1:0:0:0:
348,324,45371,2,0,L|196:312,1,150,12|4,0:0|1:2,0:0:0:0:
112,364,46173,1,12,0:0:0:0:
8,256,46654,6,0,B|4:204|4:204|16:156|16:156|12:108,1,150,12|0,0:0|1:0,0:0:0:0:
68,24,47456,2,0,P|120:12|164:24,1,100,8|0,0:0|1:0,0:0:0:0:
224,104,48098,2,0,B|324:120|324:120|372:104,2,150,12|12|0,0:0|0:0|1:0,0:0:0:0:
128,140,49382,5,12,0:0:0:0:
92,232,49702,1,8,0:0:0:0:
152,312,50023,2,0,L|252:308,1,100,8|0,0:0|1:0,0:0:0:0:
324,236,50665,2,0,P|376:240|408:324,2,150,12|2|8,0:0|0:0|0:0,0:0:0:0:
226,214,51948,6,0,P|222:163|243:119,1,100,4|0,1:2|1:0,0:0:0:0:
340,141,52590,2,0,P|343:191|322:235,1,100,0|0,1:0|1:0,0:0:0:0:
248,300,53232,2,0,L|96:288,1,150,8|8,0:0|0:0,0:0:0:0:
0,280,54034,1,8,0:0:0:0:
12,132,54515,6,0,P|60:112|108:120,1,100,12|0,0:0|1:0,0:0:0:0:
172,196,55157,2,0,L|272:192,1,100,8|0,0:0|1:0,0:0:0:0:
348,128,55799,2,0,P|336:80|352:32,2,100,12|0|8,0:0|1:0|0:0,0:0:0:0:
420,196,56761,1,0,1:0:0:0:
384,288,57082,6,0,L|284:280,1,100,12|0,0:0|1:0,0:0:0:0:
200,336,57724,2,0,L|96:344,1,100,12|0,0:0|1:0,0:0:0:0:
8,308,58366,2,0,B|0:256|0:256|20:160|20:160|12:112,1,200,12|8,0:0|0:0,0:0:0:0:
76,32,59328,1,4,1:0:0:0:
156,96,59649,6,0,L|256:84,1,100,12|6,0:0|1:0,0:0:0:0:
312,164,60291,2,0,L|212:176,1,100,0|6,0:0|1:0,0:0:0:0:
172,268,60932,2,0,L|272:256,1,100,8|6,0:0|1:0,0:0:0:0:
372,244,61574,1,0,0:0:0:0:
440,172,61895,2,0,P|444:120|420:76,1,100,6|8,1:0|0:0,0:0:0:0:
344,16,62537,5,4,1:0:0:0:
272,88,62857,2,0,P|224:100|176:88,1,100,8|4,0:0|1:0,0:0:0:0:
92,36,63499,2,0,B|72:136|72:136|84:184,2,150,0|8|4,0:0|0:0|1:0,0:0:0:0:
176,88,64783,5,12,0:0:0:0:
256,28,65103,2,0,B|356:16|356:16|400:44|396:104,1,200,0|0,1:0|1:0,0:0:0:0:
332,180,66066,1,12,0:0:0:0:
256,244,66387,2,0,P|336:228|372:328,1,200,0|0,1:0|1:0,0:0:0:0:
292,380,67349,6,0,P|244:368|192:376,1,100,12|0,0:0|1:0,0:0:0:0:
104,332,67991,2,0,P|88:280|100:232,1,100,12|0,0:0|1:0,0:0:0:0:
184,184,68633,2,0,P|236:192|280:176,1,100,14|2,0:0|1:2,0:0:0:0:
344,100,69275,1,10,0:0:0:0:
276,28,69595,1,4,1:0:0:0:
189,78,69916,6,0,L|88:72,1,100,12|6,0:0|1:0,0:0:0:0:
36,156,70558,2,0,L|135:161,1,100,2|4,0:1|1:0,0:0:0:0:
180,252,71200,2,0,L|79:246,1,100,8|6,0:0|1:0,0:0:0:0:
27,330,71841,2,0,L|126:335,1,100,2|4,0:1|1:0,0:0:0:0:
228,340,72483,5,8,0:0:0:0:
180,252,72804,1,4,1:0:0:0:
224,160,73125,2,0,P|272:148|320:160,1,100,8|4,0:0|1:0,0:0:0:0:
372,249,73767,1,10,0:0:0:0:
469,228,74087,1,10,0:0:0:0:
479,129,74408,1,10,0:0:0:0:
389,88,74729,1,10,0:0:0:0:
320,161,75050,6,0,P|272:173|220:157,2,100,12|0|8,0:0|1:0|0:0,0:0:0:0:
389,88,76013,1,0,1:0:0:0:
464,148,76333,2,0,L|456:248,1,100,8|0,0:0|1:0,0:0:0:0:
364,284,76975,2,0,L|372:184,1,100,8|0,0:0|1:0,0:0:0:0:
332,92,77617,6,0,P|288:68|208:168,1,200,8|10,0:0|0:0,0:0:0:0:
264,244,78579,1,0,1:0:0:0:
192,312,78900,2,0,P|140:320|96:304,2,100,8|0|10,0:0|1:0|0:0,0:0:0:0:
264,244,79863,1,4,1:0:0:0:
224,152,80184,6,0,B|124:136|124:136|76:152,2,150,12|8|0,0:0|0:0|1:0,0:0:0:0:
320,120,81467,2,0,B|420:136|420:136|468:120,2,150,8|8|0,0:0|0:0|1:0,0:0:0:0:
240,60,82751,5,12,0:0:0:0:
148,100,83071,1,0,1:0:0:0:
152,200,83392,2,0,B|156:252|156:252|140:300|140:300|144:348,1,150,10|14,0:0|0:0,0:0:0:0:
280,284,84355,2,0,L|380:292,2,100,2|8|4,0:0|0:0|1:0,0:0:0:0:
180,276,85317,6,0,P|168:228|184:180,1,100,12|8,0:0|0:0,0:0:0:0:
236,96,85959,2,0,P|251:49|239:1,1,100,8|8,0:0|0:0,0:0:0:0:
150,45,86601,2,0,B|50:57|50:57|2:41,2,150,12|14|12,0:0|0:0|0:0,0:0:0:0:
