osu file format v14

[General]
AudioFilename: heaven in autumn.ogg
AudioLeadIn: 0
PreviewTime: 12619
Countdown: 0
SampleSet: Normal
StackLeniency: 0.7
Mode: 1
LetterboxInBreaks: 0
WidescreenStoryboard: 0

[Editor]
Bookmarks: 6178,9008,13222,18869,24516,27339,30163,32986,35280,35810,38633,41457,44279,47808,53455,56928
DistanceSpacing: 1.2
BeatDivisor: 4
GridSize: 32
TimelineZoom: 1.2

[Metadata]
Title:heaven in autumn
TitleUnicode:heaven in autumn
Artist:spellcasting
ArtistUnicode:spellcasting
Creator:Jesuren
Version:futsuu
Source:
Tags:Vulkin doodle dump! Comfy Synth Electronic Instrumental JesusMD24
BeatmapID:4295133
BeatmapSetID:2054980

[Difficulty]
HPDrainRate:9
CircleSize:2
OverallDifficulty:4
ApproachRate:5
SliderMultiplier:1.4
SliderTickRate:1

[Events]
//Background and Video events
0,0,"heaven in autumn - background.jpg",0,0
//Break Periods
//Storyboard Layer 0 (Background)
//Storyboard Layer 1 (Fail)
//Storyboard Layer 2 (Pass)
//Storyboard Layer 3 (Foreground)
//Storyboard Sound Samples

[TimingPoints]
518,707.547169811321,4,1,0,50,1,0
518,-71.4285714285714,4,1,0,50,0,0
9008,847.457627118644,4,1,0,50,1,0
9008,-59.5238095238095,4,1,0,50,0,0
9431,1075.2688172043,4,1,0,50,1,8
9431,-46.9483568075117,4,1,0,50,0,0
9968,1401.8691588785,4,1,0,50,1,8
9968,-35.9712230215827,4,1,0,50,0,0
10668,975.609756097561,4,1,0,50,1,8
10668,-51.8134715025907,4,1,0,50,0,0
12619,1206.03015075377,4,1,0,50,1,8
12619,-41.8410041841004,4,1,0,50,0,0
13222,705.882352941176,4,1,0,50,1,0
13222,-71.4285714285714,4,1,0,50,0,0
44279,824.742268041237,4,1,0,50,1,0
44279,-60.9756097560976,4,1,0,50,0,0
46753,1055.40897097625,4,1,0,50,1,8
46753,-47.8468899521531,4,1,0,50,0,8
47808,705.882352941176,4,1,0,50,1,0
47808,-71.4285714285714,4,1,0,50,0,0
53455,740.740740740741,4,1,0,50,1,0
53455,-68.0272108843538,4,1,0,50,0,0
54195,810.810810810811,4,1,0,50,1,8
54195,-62.111801242236,4,1,0,50,0,0
55005,923.076923076923,4,1,0,50,1,8
55005,-54.6448087431694,4,1,0,50,0,0
55928,1000,4,1,0,50,1,8
55928,-50.5050505050505,4,1,0,50,0,0
56928,983.606557377049,4,1,0,50,1,0
56928,-51.2820512820513,4,1,0,50,0,0

[HitObjects]
256,192,518,5,0,0:0:0:0:
256,192,871,1,0,0:0:0:0:
256,192,1225,1,8,0:0:0:0:
256,192,1579,1,8,0:0:0:0:
256,192,3348,1,0,0:0:0:0:
256,192,3701,1,0,0:0:0:0:
256,192,4055,1,0,0:0:0:0:
256,192,4409,1,8,0:0:0:0:
256,192,6178,1,0,0:0:0:0:
256,192,6709,1,0,0:0:0:0:
256,192,7062,1,8,0:0:0:0:
256,192,7416,1,8,0:0:0:0:
256,192,9008,1,0,0:0:0:0:
256,192,9431,1,0,0:0:0:0:
256,192,9968,1,0,0:0:0:0:
256,192,10668,1,8,0:0:0:0:
256,192,13222,1,8,0:0:0:0:
256,192,13574,1,0,0:0:0:0:
256,192,13927,1,0,0:0:0:0:
256,192,14280,1,8,0:0:0:0:
256,192,16045,1,8,0:0:0:0:
256,192,16398,1,0,0:0:0:0:
256,192,16751,1,0,0:0:0:0:
256,192,17104,1,0,0:0:0:0:
256,192,18163,1,8,0:0:0:0:
256,192,18869,1,0,0:0:0:0:
256,192,19221,1,0,0:0:0:0:
256,192,19574,1,8,0:0:0:0:
256,192,19927,1,0,0:0:0:0:
256,192,20280,1,8,0:0:0:0:
256,192,20633,1,8,0:0:0:0:
256,192,20986,1,8,0:0:0:0:
256,192,21339,1,0,0:0:0:0:
256,192,21692,1,8,0:0:0:0:
256,192,22398,1,8,0:0:0:0:
256,192,23104,1,0,0:0:0:0:
256,192,24516,1,8,0:0:0:0:
256,192,25045,1,0,0:0:0:0:
256,192,25221,1,8,0:0:0:0:
256,192,25574,1,0,0:0:0:0:
256,192,25927,1,8,0:0:0:0:
256,192,26633,1,0,0:0:0:0:
256,192,26986,1,0,0:0:0:0:
256,192,27163,1,8,0:0:0:0:
256,192,27339,1,8,0:0:0:0:
256,192,28398,1,8,0:0:0:0:
256,192,28751,1,8,0:0:0:0:
256,192,29457,1,0,0:0:0:0:
256,192,30163,1,8,0:0:0:0:
256,192,30692,1,8,0:0:0:0:
256,192,30869,1,0,0:0:0:0:
256,192,31221,1,8,0:0:0:0:
256,192,31574,1,0,0:0:0:0:
256,192,32280,1,0,0:0:0:0:
256,192,32457,1,8,0:0:0:0:
256,192,32810,1,8,0:0:0:0:
256,192,32986,1,8,0:0:0:0:
256,192,33339,1,0,0:0:0:0:
256,192,33692,1,8,0:0:0:0:
256,192,34045,1,8,0:0:0:0:
256,192,34398,1,0,0:0:0:0:
256,192,35104,1,0,0:0:0:0:
256,192,35457,1,0,0:0:0:0:
256,192,35810,1,8,0:0:0:0:
256,192,36339,1,0,0:0:0:0:
256,192,36516,1,0,0:0:0:0:
256,192,36869,1,8,0:0:0:0:
256,192,37221,1,0,0:0:0:0:
256,192,37574,1,8,0:0:0:0:
256,192,37927,1,0,0:0:0:0:
256,192,38280,1,8,0:0:0:0:
256,192,38457,1,0,0:0:0:0:
256,192,38633,1,8,0:0:0:0:
256,192,39692,1,8,0:0:0:0:
256,192,40045,1,8,0:0:0:0:
256,192,40751,1,8,0:0:0:0:
256,192,41457,1,0,0:0:0:0:
256,192,41810,1,8,0:0:0:0:
256,192,42163,1,0,0:0:0:0:
256,192,42339,1,0,0:0:0:0:
256,192,42516,1,8,0:0:0:0:
256,192,42869,1,0,0:0:0:0:
256,192,43221,1,0,0:0:0:0:
256,192,43574,1,8,0:0:0:0:
256,192,43751,1,0,0:0:0:0:
256,192,43927,1,8,0:0:0:0:
256,192,44279,1,0,0:0:0:0:
256,192,44691,1,0,0:0:0:0:
256,192,45103,1,0,0:0:0:0:
256,192,45516,1,8,0:0:0:0:
256,192,46753,1,0,0:0:0:0:
256,192,47808,1,8,0:0:0:0:
256,192,48160,1,0,0:0:0:0:
256,192,48513,1,0,0:0:0:0:
256,192,48866,1,8,0:0:0:0:
256,192,50631,1,8,0:0:0:0:
256,192,50984,1,0,0:0:0:0:
256,192,51337,1,0,0:0:0:0:
256,192,51690,1,0,0:0:0:0:
256,192,52749,1,8,0:0:0:0:
256,192,53455,1,0,0:0:0:0:
256,192,53825,1,0,0:0:0:0:
256,192,54195,1,8,0:0:0:0:
256,192,54600,1,0,0:0:0:0:
256,192,55005,1,8,0:0:0:0:
256,192,55466,1,8,0:0:0:0:
256,192,55928,1,8,0:0:0:0:
256,192,56428,1,0,0:0:0:0:
256,192,56928,1,8,0:0:0:0:
256,192,57911,1,8,0:0:0:0:
256,192,58895,12,0,60862,0:0:0:0:
