osu file format v14

[General]
AudioFilename: gokusai1.mp3
AudioLeadIn: 0
PreviewTime: 64018
Countdown: 0
SampleSet: Soft
StackLeniency: 0.7
Mode: 0
LetterboxInBreaks: 0
WidescreenStoryboard: 1

[Editor]
Bookmarks: 7960,14967,18471,21974,27230,34237,43106,50222,53507,57011,64018,74529,83288,90295,97303,104310,111317,118325,127084,135843
DistanceSpacing: 1
BeatDivisor: 4
GridSize: 4
TimelineZoom: 2.999999

[Metadata]
Title:Ai to Bonnou to Rinne to Joushiki no Gokusai Sekai
TitleUnicode:愛と煩悩と輪廻と常識の極彩世界
Artist:sound piercer feat. Ritsu
ArtistUnicode:sound piercer feat. Ritsu
Creator:Cherry Blossom
Version:HENTAI MAPPER CB 2015
Source:BMS
Tags:bof2013 of fighters konzertsaal progressive fantasia dialgadu77
BeatmapID:571182
BeatmapSetID:125492

[Difficulty]
HPDrainRate:7
CircleSize:4
OverallDifficulty:8
ApproachRate:10
SliderMultiplier:1.9
SliderTickRate:1

[Events]
//Background and Video events
0,0,"_title.jpg",0,0
//Break Periods
2,1152,7510
2,18671,21524
2,50422,52838
//Storyboard Layer 0 (Background)
//Storyboard Layer 1 (Fail)
//Storyboard Layer 2 (Pass)
//Storyboard Layer 3 (Foreground)
//Storyboard Sound Samples

[TimingPoints]
77,218.978102189781,4,2,0,70,1,0
14967,-100,4,2,1,70,0,0
23726,-125,4,2,1,70,0,0
27230,-100,4,2,1,70,0,0
53288,-125,4,2,1,70,0,0
55259,-100,4,2,1,70,0,0
63580,-100,4,2,1,35,0,0
64018,-100,4,2,1,70,0,0
74584,-200,4,2,1,70,0,0
76281,-100,4,2,1,70,0,0
78252,-100,4,2,1,70,0,1
81536,-100,4,2,1,70,0,0
104420,-125,4,2,1,70,0,0
111317,-86.9565217391304,4,2,1,80,0,1
115040,-125,4,2,1,80,0,0
116573,-100,4,2,1,80,0,0
117558,-125,4,2,1,80,0,0
117887,-166.666666666667,4,2,1,80,0,0
118325,-100,4,2,1,80,0,0
127084,-86.9565217391304,4,2,1,80,0,1
135186,-86.9565217391304,4,2,1,35,0,0
135843,-86.9565217391304,4,2,1,80,0,0
135898,-86.9565217391304,4,2,1,35,0,0
140222,-86.9565217391304,4,2,0,80,0,0

[Colours]
Combo1 : 83,226,14
Combo2 : 242,47,115
Combo3 : 9,145,255
Combo4 : 0,255,255

[HitObjects]
256,80,952,5,4,0:0:0:0:
72,116,7960,5,4,0:0:0:0:
152,164,8069,2,0,P|200:176|244:164,1,95,4|0,0:0|0:0,0:0:0:0:
376,32,8288,2,0,P|328:20|284:32,2,95,4|0|0,0:0|0:0|0:0,0:0:0:0:
468,144,8617,2,0,L|460:256,1,95,4|4,0:0|0:0,0:0:0:0:
452,332,8836,5,0,0:0:0:0:
364,364,8945,1,4,0:0:0:0:
276,324,9055,2,0,P|192:296|96:324,1,190,0|0,0:0|0:0,0:0:0:0:
236,60,9493,1,4,0:0:0:0:
316,108,9602,6,0,P|328:56|316:12,1,95,4|0,0:0|0:0,0:0:0:0:
264,192,9821,2,0,P|364:200|416:136,1,190,4|0,0:0|0:0,0:0:0:0:
184,144,10149,6,0,P|172:196|184:240,2,95,4|0|0,0:0|0:0|0:0,0:0:0:0:
264,292,10478,2,0,P|180:332|96:292,1,190,4|0,0:0|0:0,0:0:0:0:
24,232,10806,1,0,0:0:0:0:
96,64,10916,1,0,0:0:0:0:
96,64,10971,1,0,0:0:0:0:
96,64,11025,2,0,L|92:184,1,95
264,368,11244,2,0,L|260:273,1,95
324,200,11463,5,0,0:0:0:0:
392,132,11573,2,0,L|388:37,2,95,4|4|0,0:0|0:0|0:0,0:0:0:0:
188,300,11901,2,0,P|96:304|40:228,1,190,4|0,0:0|0:0,0:0:0:0:
136,124,12230,2,0,P|148:172|136:220,2,95,4|0|0,0:0|0:0|0:0,0:0:0:0:
84,44,12558,2,0,L|212:40,1,95,4|0,0:0|0:0,0:0:0:0:
252,100,12777,2,0,P|344:116|404:48,1,190
312,24,13106,1,4,0:0:0:0:
256,200,13215,6,0,L|256:312,1,95,4|0,0:0|0:0,0:0:0:0:
340,340,13434,2,0,P|384:352|432:340,2,95,4|0|0,0:0|0:0|0:0,0:0:0:0:
172,248,13763,2,0,P|128:236|80:248,2,95,4|4|0,0:0|0:0|0:0,0:0:0:0:
32,328,14091,2,0,P|-12:244|32:164,1,190,4|0,0:0|0:0,0:0:0:0:
256,200,14420,2,0,P|268:248|256:296,1,95,4|0,0:0|0:0,0:0:0:0:
204,112,14639,1,0,0:0:0:0:
236,108,14693,1,0,0:0:0:0:
268,104,14748,1,0,0:0:0:0:
300,100,14803,1,0,0:0:0:0:
332,96,14858,1,0,0:0:0:0:
364,92,14912,1,0,0:0:0:0:
396,88,14967,6,0,L|392:208,1,95,4|0,0:0|0:0,0:0:0:0:
116,296,15186,2,0,L|112:176,1,95,8|0,0:0|0:0,0:0:0:0:
104,60,15405,1,0,0:0:0:0:
228,124,15514,1,0,0:0:0:0:
112,200,15624,2,0,P|64:212|16:200,1,95,8|0,0:0|0:0,0:0:0:0:
228,124,15843,6,0,P|276:112|324:124,1,95
444,192,16062,1,8,0:0:0:0:
320,260,16171,1,0,0:0:0:0:
408,372,16281,2,0,L|412:268,1,95
228,240,16500,2,0,L|231:334,1,95,8|0,0:0|0:0,0:0:0:0:
444,192,16719,6,0,L|448:88,1,95,4|0,0:0|0:0,0:0:0:0:
156,72,16938,2,0,P|152:120|168:164,1,95,8|0,0:0|0:0,0:0:0:0:
344,163,17157,2,0,P|360:118|356:72,1,95
64,97,17376,2,0,L|68:192,1,95,8|0,0:0|0:0,0:0:0:0:
256,340,17595,5,8,0:0:0:0:
256,340,17704,1,8,0:0:0:0:
256,44,18033,1,8,0:0:0:0:
256,44,18142,1,8,0:0:0:0:
256,192,18471,5,4,0:0:0:0:
50,54,21974,5,4,0:0:0:0:
52,68,22029,1,0,0:0:0:0:
54,82,22084,1,0,0:0:0:0:
56,96,22139,1,0,0:0:0:0:
58,109,22193,2,0,L|76:227,1,95
176,300,22412,1,4,0:0:0:0:
178,286,22467,1,0,0:0:0:0:
180,272,22522,1,0,0:0:0:0:
182,258,22577,1,0,0:0:0:0:
184,245,22631,2,0,L|202:127,1,95
303,54,22850,5,4,0:0:0:0:
305,68,22905,1,0,0:0:0:0:
307,82,22960,1,0,0:0:0:0:
309,96,23015,1,0,0:0:0:0:
311,109,23069,2,0,L|329:227,1,95
429,301,23288,1,4,0:0:0:0:
429,301,23398,1,0,0:0:0:0:
440,188,23507,1,0,0:0:0:0:
440,188,23617,1,0,0:0:0:0:
256,320,23726,6,0,L|87:307,1,152,4|0,0:0|0:0,0:0:0:0:
288,200,24055,2,0,L|457:187,1,152,0|0,0:0|0:0,0:0:0:0:
212,116,24383,2,0,L|43:103,1,152,0|0,0:0|0:0,0:0:0:0:
312,48,24712,2,0,L|481:35,1,152,0|0,0:0|0:0,0:0:0:0:
136,204,25040,6,0,L|48:196,1,76,0|0,0:0|0:0,0:0:0:0:
368,288,25259,2,0,L|456:280,1,76,0|0,0:0|0:0,0:0:0:0:
136,204,25478,6,0,L|144:292,1,76,2|2,0:0|0:0,0:0:0:0:
375,364,25697,2,0,L|367:276,1,76,2|2,0:0|0:0,0:0:0:0:
17,172,25916,6,0,L|25:260,1,76,2|2,0:0|0:0,0:0:0:0:
256,332,26135,2,0,L|248:244,1,76,2|2,0:0|0:0,0:0:0:0:
220,92,26354,6,0,L|132:100,1,76,2|2,0:0|0:0,0:0:0:0:
60,331,26573,2,0,L|148:323,1,76,2|2,0:0|0:0,0:0:0:0:
376,304,26792,1,0,0:0:0:0:
391,302,26847,1,0,0:0:0:0:
405,300,26901,1,0,0:0:0:0:
420,298,26956,1,0,0:0:0:0:
435,296,27011,1,0,0:0:0:0:
450,294,27066,1,0,0:0:0:0:
464,292,27120,1,0,0:0:0:0:
479,290,27175,1,0,0:0:0:0:
492,288,27230,6,0,L|496:156,1,95,4|0,0:0|0:0,0:0:0:0:
500,80,27449,2,0,P|416:36|328:64,1,190,8|0,0:0|0:0,0:0:0:0:
256,208,27777,1,0,0:0:0:0:
360,256,27887,2,0,P|372:208|360:160,1,95,8|0,0:0|0:0,0:0:0:0:
149,164,28106,6,0,P|140:210|152:256,1,95
182,62,28325,2,0,P|93:36|12:80,1,190,8|0,0:0|0:0,0:0:0:0:
16,192,28653,1,0,0:0:0:0:
256,208,28763,2,0,L|256:88,1,95,8|0,0:0|0:0,0:0:0:0:
212,308,28982,6,0,P|256:320|304:308,1,95
112,256,29201,2,0,P|100:300|112:348,1,95,8|0,0:0|0:0,0:0:0:0:
400,347,29420,2,0,P|412:301|400:256,2,95,0|0|8,0:0|0:0|0:0,0:0:0:0:
316,176,29748,6,0,P|400:136|488:176,1,190
196,324,30076,2,0,P|112:364|24:324,1,190,8|0,0:0|0:0,0:0:0:0:
12,212,30405,1,0,0:0:0:0:
112,164,30514,2,0,P|121:207|112:260,1,95,8|0,0:0|0:0,0:0:0:0:
60,48,30733,6,0,L|180:40,1,95,4|0,0:0|0:0,0:0:0:0:
336,212,30952,2,0,L|216:204,1,95,10|0,0:0|0:0,0:0:0:0:
296,104,31171,1,2,0:0:0:0:
348,312,31281,1,2,0:0:0:0:
500,168,31390,2,0,P|512:124|500:72,1,95,10|2,0:0|0:0,0:0:0:0:
160,156,31609,6,0,P|148:200|160:252,1,95,2|0,0:0|0:0,0:0:0:0:
212,64,31828,2,0,L|104:56,1,95,10|0,0:0|0:0,0:0:0:0:
351,228,32047,2,2,P|364:182|354:136,1,95
300,320,32266,2,0,L|408:328,1,95,10|2,0:0|0:0,0:0:0:0:
256,192,32485,5,4,0:0:0:0:
160,324,32595,1,0,0:0:0:0:
40,220,32704,2,0,L|48:328,1,95,10|2,0:0|0:0,0:0:0:0:
256,192,32923,5,2,0:0:0:0:
254,172,32978,1,0,0:0:0:0:
251,153,33033,1,2,0:0:0:0:
248,134,33087,1,0,0:0:0:0:
246,114,33142,1,2,0:0:0:0:
243,95,33197,1,0,0:0:0:0:
240,76,33252,1,2,0:0:0:0:
238,57,33306,1,0,0:0:0:0:
235,36,33361,5,4,0:0:0:0:
348,60,33471,1,4,0:0:0:0:
235,346,33799,1,4,0:0:0:0:
348,368,33909,1,4,0:0:0:0:
120,48,34237,5,0,0:0:0:0:
68,152,34347,1,0,0:0:0:0:
4,60,34456,1,0,0:0:0:0:
184,140,34566,5,0,0:0:0:0:
236,36,34675,1,8,0:0:0:0:
300,128,34785,1,0,0:0:0:0:
352,24,34894,5,0,0:0:0:0:
248,232,35004,1,0,0:0:0:0:
184,140,35113,5,0,0:0:0:0:
132,244,35222,1,0,0:0:0:0:
300,128,35332,5,0,0:0:0:0:
364,220,35441,1,0,0:0:0:0:
416,116,35551,1,2,0:0:0:0:
4,60,35989,6,0,L|104:52,1,95,4|0,0:0|0:0,0:0:0:0:
200,108,36208,2,0,P|212:200|148:268,1,190,8|0,0:0|0:0,0:0:0:0:
104,164,36536,1,0,0:0:0:0:
256,316,36646,2,0,L|356:308,1,95,8|0,0:0|0:0,0:0:0:0:
296,100,36865,6,0,L|201:107,1,95
392,144,37084,2,0,P|404:100|392:48,1,95,8|0,0:0|0:0,0:0:0:0:
160,268,37303,2,0,P|148:312|160:364,1,95
256,208,37522,1,8,0:0:0:0:
256,208,37631,1,0,0:0:0:0:
47,135,37741,6,0,P|139:138|199:68,1,190,4|0,0:0|0:0,0:0:0:0:
312,68,38069,2,0,P|368:136|464:136,1,190,2|0,0:0|0:0,0:0:0:0:
420,28,38398,1,8,0:0:0:0:
420,28,38507,1,0,0:0:0:0:
256,208,38617,6,0,L|256:316,2,95,2|0|0,0:0|0:0|0:0,0:0:0:0:
92,28,38945,1,2,0:0:0:0:
372,352,39164,2,0,P|440:280|424:196,1,190,2|0,0:0|0:0,0:0:0:0:
364,100,39493,6,0,L|476:92,2,95,4|0|0,0:0|0:0|0:0,0:0:0:0:
256,20,39821,1,0,0:0:0:0:
148,100,39931,2,0,L|36:92,2,95,8|0|0,0:0|0:0|0:0,0:0:0:0:
256,20,40259,1,0,0:0:0:0:
362,192,40368,6,0,P|374:148|362:96,1,95,4|0,0:0|0:0,0:0:0:0:
147,100,40587,2,0,P|137:146|150:192,1,95
362,192,40806,2,0,L|462:184,1,95,8|0,0:0|0:0,0:0:0:0:
148,100,41025,2,0,L|53:107,1,95,0|0,0:0|0:0,0:0:0:0:
256,268,41244,5,4,0:0:0:0:
256,104,41354,1,2,0:0:0:0:
356,232,41463,1,2,0:0:0:0:
200,184,41573,1,2,0:0:0:0:
356,136,41682,2,0,L|464:128,1,95,8|2,0:0|0:0,0:0:0:0:
200,184,41901,2,0,L|92:176,1,95,2|2,0:0|0:0,0:0:0:0:
344,336,42120,6,0,P|428:312|460:220,1,190,4|2,0:0|0:0,0:0:0:0:
436,32,42449,1,0,0:0:0:0:
288,148,42558,1,8,0:0:0:0:
288,148,42613,1,0,0:0:0:0:
288,148,42668,1,8,0:0:0:0:
460,224,42777,1,8,0:0:0:0:
404,128,42887,1,8,0:0:0:0:
120,100,43106,6,0,P|80:180|120:268,1,190,4|0,0:0|0:0,0:0:0:0:
393,266,43434,2,0,P|432:182|392:100,1,190,4|0,0:0|0:0,0:0:0:0:
256,48,43763,1,4,0:0:0:0:
212,184,43872,6,0,P|256:196|304:184,1,95,2|0,0:0|0:0,0:0:0:0:
123,45,44091,2,0,L|116:140,1,95,10|0,0:0|0:0,0:0:0:0:
396,140,44310,2,0,L|388:45,1,95,2|0,0:0|0:0,0:0:0:0:
256,336,44529,1,10,0:0:0:0:
256,48,44748,5,0,0:0:0:0:
168,200,44858,2,0,P|256:232|344:200,1,190,4|0,0:0|0:0,0:0:0:0:
76,112,45186,2,0,P|44:200|76:288,1,190,4|0,0:0|0:0,0:0:0:0:
256,116,45514,1,4,0:0:0:0:
168,20,45624,6,0,P|156:68|168:112,1,95,2|0,0:0|0:0,0:0:0:0:
344,111,45843,2,0,P|356:65|344:20,1,95,10|0,0:0|0:0,0:0:0:0:
380,196,46062,2,0,P|420:172|440:124,1,95,2|0,0:0|0:0,0:0:0:0:
72,129,46281,2,0,P|91:171|132:196,1,95,10|0,0:0|0:0,0:0:0:0:
256,12,46500,5,4,0:0:0:0:
256,192,46555,12,4,48252,0:0:0:0:
256,192,48306,12,0,49018,0:0:0:0:
132,224,49128,6,0,L|140:344,1,95,2|2,0:0|0:0,0:0:0:0:
373,318,49347,2,0,L|380:224,1,95,2|2,0:0|0:0,0:0:0:0:
256,24,49566,1,8,0:0:0:0:
132,224,49675,1,8,0:0:0:0:
380,224,49785,1,8,0:0:0:0:
256,148,49894,1,8,0:0:0:0:
256,148,50222,5,4,0:0:0:0:
180,64,53288,6,0,L|268:56,1,76,0|0,0:0|0:0,0:0:0:0:
324,120,53507,6,0,L|412:112,1,76,4|0,0:0|0:0,0:0:0:0:
484,76,53726,2,0,P|492:112|484:152,1,76,0|0,0:0|0:0,0:0:0:0:
376,340,53945,2,0,P|344:272|376:200,1,152,8|0,0:0|0:0,0:0:0:0:
440,268,54274,1,0,0:0:0:0:
256,360,54383,6,0,L|84:352,1,152,0|0,0:0|0:0,0:0:0:0:
60,204,54712,2,0,L|211:211,1,152,0|0,0:0|0:0,0:0:0:0:
256,64,55040,1,8,0:0:0:0:
376,288,55259,6,0,L|380:172,1,95,4|2,0:0|0:0,0:0:0:0:
132,193,55478,2,0,L|135:287,1,95,8|2,0:0|0:0,0:0:0:0:
424,124,55697,2,0,P|380:112|332:124,1,95,2|2,0:0|0:0,0:0:0:0:
92,356,55916,2,0,P|136:368|184:356,1,95,10|2,0:0|0:0,0:0:0:0:
212,136,56135,6,0,P|128:92|48:136,1,190,2|0,0:0|0:0,0:0:0:0:
220,232,56463,2,0,P|300:181|301:89,2,190,2|2|0,0:0|0:0|0:0,0:0:0:0:
132,192,57011,5,4,0:0:0:0:
56,248,57120,1,0,0:0:0:0:
72,344,57230,1,2,0:0:0:0:
160,376,57339,1,0,0:0:0:0:
240,324,57449,2,0,P|284:316|336:324,1,95,10|2,0:0|0:0,0:0:0:0:
472,360,57668,2,0,L|476:244,1,95,2|2,0:0|0:0,0:0:0:0:
480,124,57887,5,4,0:0:0:0:
420,52,57996,1,0,0:0:0:0:
324,44,58106,1,2,0:0:0:0:
256,104,58215,1,0,0:0:0:0:
256,200,58325,2,0,L|364:196,1,95,10|2,0:0|0:0,0:0:0:0:
188,44,58544,2,0,L|80:40,1,95,2|2,0:0|0:0,0:0:0:0:
8,212,58763,5,4,0:0:0:0:
72,284,58872,1,0,0:0:0:0:
128,208,58982,1,2,0:0:0:0:
196,272,59091,1,0,0:0:0:0:
256,200,59201,2,0,P|300:188|348:200,1,95,10|2,0:0|0:0,0:0:0:0:
240,356,59420,2,0,P|196:368|148:356,1,95,2|2,0:0|0:0,0:0:0:0:
432,156,59639,6,0,L|428:280,1,95,12|2,0:0|0:0,0:0:0:0:
83,250,59858,2,0,L|80:156,1,95,2|2,0:0|0:0,0:0:0:0:
256,32,60076,1,8,0:0:0:0:
279,31,60131,1,8,0:0:0:0:
302,30,60186,1,8,0:0:0:0:
325,28,60241,1,0,0:0:0:0:
348,26,60295,1,8,0:0:0:0:
371,25,60350,1,0,0:0:0:0:
394,23,60405,1,8,0:0:0:0:
417,22,60460,1,0,0:0:0:0:
440,20,60514,5,4,0:0:0:0:
344,328,60733,2,0,P|256:364|172:328,1,190,12|0,0:0|0:0,0:0:0:0:
256,248,61062,1,0,0:0:0:0:
420,280,61171,2,0,P|432:328|420:376,1,95,8|0,0:0|0:0,0:0:0:0:
89,371,61390,6,0,P|80:325|92:280,1,95
152,160,61609,2,0,L|44:152,2,95,8|0|0,0:0|0:0|0:0,0:0:0:0:
256,248,61938,1,0,0:0:0:0:
360,160,62047,2,0,L|468:152,1,95,8|0,0:0|0:0,0:0:0:0:
176,332,62266,6,0,P|148:288|144:244,1,95,4|0,0:0|0:0,0:0:0:0:
368,246,62485,2,0,P|362:292|336:332,1,95,8|0,0:0|0:0,0:0:0:0:
256,132,62704,1,0,0:0:0:0:
256,124,62759,1,0,0:0:0:0:
256,116,62814,1,0,0:0:0:0:
256,108,62868,1,0,0:0:0:0:
256,100,62923,1,0,0:0:0:0:
256,92,62978,1,0,0:0:0:0:
256,84,63033,1,0,0:0:0:0:
256,76,63087,1,0,0:0:0:0:
256,68,63142,5,4,0:0:0:0:
256,248,63252,1,4,0:0:0:0:
468,132,63580,6,0,P|528:64|396:80,1,285
360,148,64018,6,0,L|368:252,1,95,4|0,0:0|0:0,0:0:0:0:
312,344,64237,2,0,P|400:360|472:296,1,190,8|0,0:0|0:0,0:0:0:0:
256,248,64566,1,0,0:0:0:0:
108,344,64675,2,0,P|152:356|200:344,1,95,8|0,0:0|0:0,0:0:0:0:
24,292,64894,6,0,P|12:336|24:384,1,95
148,252,65113,2,0,P|188:168|152:84,1,190,8|0,0:0|0:0,0:0:0:0:
68,164,65441,1,0,0:0:0:0:
108,344,65551,2,0,P|152:356|200:344,1,95,8|0,0:0|0:0,0:0:0:0:
408,188,65770,6,0,P|364:176|316:188,1,95
360,364,65989,2,0,L|364:256,1,95,8|0,0:0|0:0,0:0:0:0:
151,157,66208,2,0,L|148:252,1,95
196,76,66427,2,0,P|152:64|104:76,1,95,8|0,0:0|0:0,0:0:0:0:
280,124,66646,6,0,P|292:80|280:32,1,95
68,212,66865,2,0,P|64:300|140:360,1,190,8|0,0:0|0:0,0:0:0:0:
256,248,67193,1,0,0:0:0:0:
373,359,67303,2,0,L|476:352,1,95,8|0,0:0|0:0,0:0:0:0:
404,172,67522,6,0,L|309:179,1,95
480,260,67741,2,0,P|520:176|480:88,1,190,8|0,0:0|0:0,0:0:0:0:
372,68,68069,1,0,0:0:0:0:
208,272,68179,2,0,P|256:284|304:272,1,95,8|0,0:0|0:0,0:0:0:0:
116,224,68398,6,0,P|104:272|116:320,1,95
398,315,68617,2,0,P|407:269|396:224,1,95,8|0,0:0|0:0,0:0:0:0:
332,76,68836,1,0,0:0:0:0:
236,204,68945,1,0,0:0:0:0:
396,224,69055,2,0,L|496:216,1,95,8|0,0:0|0:0,0:0:0:0:
332,76,69274,6,0,L|232:68,1,95
76,56,69493,1,8,0:0:0:0:
184,176,69602,1,0,0:0:0:0:
64,284,69712,2,0,L|56:172,1,95
316,168,69931,2,0,L|309:262,1,95,8|0,0:0|0:0,0:0:0:0:
192,372,70149,5,8,0:0:0:0:
192,372,70259,1,8,0:0:0:0:
184,176,70368,2,0,L|181:100,6,47.5,0|0|0|0|0|0|0,0:0|0:0|0:0|0:0|0:0|0:0|0:0,0:0:0:0:
448,272,70916,2,0,P|496:312|400:352,1,190
344,280,71244,6,0,L|348:160,1,95,8|2,0:0|0:0,0:0:0:0:
456,64,71463,2,0,L|452:158,1,95,0|2,0:0|0:0,0:0:0:0:
168,280,71682,2,0,L|164:160,1,95,10|2,0:0|0:0,0:0:0:0:
56,64,71901,6,0,L|59:158,1,95,2|2,0:0|0:0,0:0:0:0:
300,88,72120,2,0,P|256:76|208:88,1,95,10|2,0:0|0:0,0:0:0:0:
452,158,72339,2,0,L|456:87,2,63.3333333333333,2|0|0,0:0|0:0|0:0,0:0:0:0:
500,220,72558,1,2,0:0:0:0:
168,280,72887,6,0,P|256:312|344:280,1,190,4|0,0:0|0:0,0:0:0:0:
76,152,73215,2,0,L|88:348,1,190,4|0,0:0|0:0,0:0:0:0:
424,341,73544,2,0,L|436:152,1,190,4|0,0:0|0:0,0:0:0:0:
256,32,73872,5,2,0:0:0:0:
223,26,73927,1,0,0:0:0:0:
189,23,73982,1,2,0:0:0:0:
156,25,74036,1,0,0:0:0:0:
123,32,74091,1,10,0:0:0:0:
92,45,74146,1,0,0:0:0:0:
64,64,74201,1,10,0:0:0:0:
41,88,74255,1,0,0:0:0:0:
24,117,74310,1,10,0:0:0:0:
13,148,74365,1,0,0:0:0:0:
9,181,74420,1,2,0:0:0:0:
9,213,74474,1,0,0:0:0:0:
12,248,74529,5,4,0:0:0:0:
128,360,74748,1,0,0:0:0:0:
256,260,74967,1,0,0:0:0:0:
384,360,75186,1,0,0:0:0:0:
500,248,75405,1,0,0:0:0:0:
500,248,75514,2,0,L|436:240,1,47.5,8|0,0:0|0:0,0:0:0:0:
416,168,75733,2,0,L|480:160,1,47.5,8|0,0:0|0:0,0:0:0:0:
500,88,75952,1,0,0:0:0:0:
500,88,76062,1,8,0:0:0:0:
160,304,76281,6,0,P|148:256|160:212,1,95,4|0,0:0|0:0,0:0:0:0:
352,212,76500,2,0,P|364:258|352:304,1,95,0|0,0:0|0:0,0:0:0:0:
256,368,76719,1,0,0:0:0:0:
256,368,76774,1,0,0:0:0:0:
256,368,76828,1,0,0:0:0:0:
308,128,76938,2,0,P|356:116|400:128,1,95
160,304,77157,6,0,L|44:292,2,95,0|0|0,0:0|0:0|0:0,0:0:0:0:
256,240,77485,1,0,0:0:0:0:
352,308,77595,2,0,L|408:304,2,47.5,0|0|0,0:0|0:0|0:0,0:0:0:0:
256,140,77814,1,8,0:0:0:0:
256,368,77923,1,4,0:0:0:0:
118,109,78252,6,0,P|78:189|118:277,1,190,4|0,0:0|0:0,0:0:0:0:
392,276,78580,2,0,P|430:192|390:109,1,190,4|0,0:0|0:0,0:0:0:0:
32,328,78909,6,0,P|112:368|200:328,1,190,4|0,0:0|0:0,0:0:0:0:
476,56,79237,2,0,P|396:16|308:56,1,190,4|0,0:0|0:0,0:0:0:0:
256,188,79566,1,4,0:0:0:0:
396,228,79675,2,0,P|408:184|396:136,2,95,0|0|0,0:0|0:0|0:0,0:0:0:0:
200,308,80004,6,0,L|8:292,1,190,4|0,0:0|0:0,0:0:0:0:
312,232,80332,2,0,L|504:216,1,190,4|0,0:0|0:0,0:0:0:0:
200,156,80660,6,0,L|92:148,1,95,8|8,0:0|0:0,0:0:0:0:
312,368,80879,2,0,L|420:360,1,95,8|8,0:0|0:0,0:0:0:0:
500,216,81098,1,8,0:0:0:0:
496,192,81153,1,0,0:0:0:0:
492,168,81208,1,8,0:0:0:0:
488,144,81263,1,0,0:0:0:0:
484,120,81317,1,8,0:0:0:0:
480,96,81372,1,0,0:0:0:0:
476,72,81427,1,8,0:0:0:0:
256,192,81536,12,0,82303,0:0:0:0:
208,24,82412,6,0,L|308:20,1,95
376,164,82631,2,0,L|280:160,1,95
120,152,82850,1,8,0:0:0:0:
120,152,82960,1,8,0:0:0:0:
152,360,83069,1,8,0:0:0:0:
152,360,83178,1,8,0:0:0:0:
216,268,83288,6,0,P|124:252|52:312,1,190,4|0,0:0|0:0,0:0:0:0:
272,368,83617,1,0,0:0:0:0:
376,320,83726,2,0,P|388:272|376:224,1,95
324,128,83945,2,0,L|448:120,1,95,0|0,0:0|0:0,0:0:0:0:
268,272,84164,6,0,L|132:260,1,95,0|0,0:0|0:0,0:0:0:0:
72,212,84383,2,0,P|60:260|72:308,1,95,8|0,0:0|0:0,0:0:0:0:
224,160,84602,2,0,P|236:112|224:64,1,95,0|0,0:0|0:0,0:0:0:0:
28,124,84821,2,0,L|164:112,1,95,8|0,0:0|0:0,0:0:0:0:
336,104,85040,6,0,P|424:104|484:180,1,190,0|0,0:0|0:0,0:0:0:0:
492,292,85368,1,0,0:0:0:0:
388,344,85478,1,0,0:0:0:0:
364,340,85533,1,0,0:0:0:0:
340,336,85587,1,0,0:0:0:0:
316,332,85642,1,0,0:0:0:0:
292,328,85697,2,0,L|288:216,1,95,0|0,0:0|0:0,0:0:0:0:
140,168,85916,6,0,L|143:262,1,95,4|0,0:3|0:0,0:0:0:0:
416,264,86135,2,0,L|412:169,1,95,8|0,0:0|0:0,0:0:0:0:
404,8,86354,1,4,0:3:0:0:
268,96,86463,1,0,0:0:0:0:
412,168,86573,2,0,P|460:180|512:168,1,95,8|0,0:0|0:0,0:0:0:0:
268,96,86792,6,0,P|184:60|96:96,1,190,4|0,0:0|0:0,0:0:0:0:
76,208,87120,1,0,0:0:0:0:
180,252,87230,2,0,P|192:204|180:160,1,95
136,352,87449,2,0,P|184:364|228:352,1,95,0|0,0:0|0:0,0:0:0:0:
376,208,87668,6,0,P|328:196|284:208,1,95,0|0,0:0|0:0,0:0:0:0:
472,256,87887,2,0,P|484:208|472:164,1,95,8|0,0:0|0:0,0:0:0:0:
332,304,88106,1,0,0:0:0:0:
332,304,88215,1,0,0:0:0:0:
436,352,88325,2,0,L|532:344,1,95,8|0,0:0|0:0,0:0:0:0:
256,248,88544,6,0,L|48:232,1,190,4|8,0:0|0:0,0:0:0:0:
132,328,88872,1,0,0:0:0:0:
256,144,88982,2,0,L|456:128,1,190,0|8,0:0|0:0,0:0:0:0:
380,224,89310,1,0,0:0:0:0:
256,40,89420,1,0,0:0:0:0:
237,38,89474,1,0,0:0:0:0:
217,36,89529,1,0,0:0:0:0:
197,34,89584,1,0,0:0:0:0:
177,32,89639,1,0,0:0:0:0:
158,30,89693,1,0,0:0:0:0:
138,29,89748,1,0,0:0:0:0:
118,28,89803,1,0,0:0:0:0:
98,27,89858,6,0,L|104:136,1,95
256,248,90076,2,0,L|261:153,1,95,0|0,0:0|0:0,0:0:0:0:
168,324,90295,6,0,P|256:360|344:324,1,190,4|8,0:0|0:0,0:0:0:0:
360,212,90624,1,4,0:0:0:0:
256,156,90733,2,0,P|244:202|256:248,1,95
344,80,90952,2,0,P|256:44|168:80,1,190,12|0,0:0|0:0,0:0:0:0:
360,212,91281,6,0,L|464:204,2,95,4|8|0,0:0|0:0|0:0,0:0:0:0:
152,212,91609,2,0,L|57:204,1,95,4|0,0:0|0:0,0:0:0:0:
256,352,91828,2,0,P|264:304|256:256,1,95,12|0,0:0|0:0,0:0:0:0:
172,88,92047,6,0,P|256:124|348:88,1,190,4|8,0:0|0:0,0:0:0:0:
64,24,92376,2,0,L|72:216,1,190,4|0,0:0|0:0,0:0:0:0:
120,320,92704,2,0,P|72:332|24:320,1,95,12|0,0:0|0:0,0:0:0:0:
196,224,92923,5,4,0:0:0:0:
196,224,93033,1,2,0:0:0:0:
300,268,93142,2,0,L|292:364,1,95,8|0,0:0|0:0,0:0:0:0:
92,184,93361,2,0,L|84:89,1,95,2|0,0:0|0:0,0:0:0:0:
180,24,93580,1,0,0:0:0:0:
203,23,93635,1,0,0:0:0:0:
226,22,93690,1,0,0:0:0:0:
249,20,93744,1,0,0:0:0:0:
272,19,93799,5,4,0:0:0:0:
240,365,94018,1,4,0:0:0:0:
480,120,94237,1,4,0:0:0:0:
404,36,94347,2,0,P|364:116|404:204,1,190,4|4,0:0|0:0,0:0:0:0:
32,264,94785,1,4,0:0:0:0:
108,348,94895,2,0,P|148:268|108:180,1,190,4|0,0:0|0:0,0:0:0:0:
20,112,95222,1,2,0:0:0:0:
104,36,95332,6,0,L|212:28,1,95,2|0,0:0|0:0,0:0:0:0:
424,108,95551,2,0,L|316:100,1,95,2|0,0:0|0:0,0:0:0:0:
64,188,95770,2,0,L|172:180,1,95,2|0,0:0|0:0,0:0:0:0:
464,256,95989,2,0,L|356:248,1,95,2|0,0:0|0:0,0:0:0:0:
32,332,96208,5,2,0:0:0:0:
160,180,96317,1,0,0:0:0:0:
256,356,96427,1,2,0:0:0:0:
256,192,96482,12,0,97193,0:0:0:0:
256,40,97303,5,8,0:0:0:0:
256,40,97412,1,8,0:0:0:0:
256,40,97522,1,8,0:0:0:0:
256,40,97631,1,8,0:0:0:0:
68,248,97850,1,8,0:0:0:0:
24,332,97960,2,0,P|68:344|116:332,1,95,0|2,0:0|0:0,0:0:0:0:
196,284,98179,5,2,0:0:0:0:
240,368,98288,2,0,L|352:364,1,95,4|0,0:0|0:0,0:0:0:0:
400,296,98507,1,0,0:0:0:0:
400,296,98617,1,10,0:0:0:0:
448,216,98726,2,0,L|336:212,1,95,12|8,0:0|0:0,0:0:0:0:
304,132,98945,1,10,0:0:0:0:
256,48,99055,6,0,L|28:36,1,190,2|0,0:0|0:0,0:0:0:0:
4,136,99383,1,8,0:0:0:0:
116,236,99493,2,0,P|128:192|116:144,1,95,8|0,0:0|0:0,0:0:0:0:
68,348,99712,2,0,P|112:360|160:348,1,95,8|8,0:0|0:0,0:0:0:0:
256,184,99931,5,4,0:0:0:0:
328,124,100040,1,0,0:0:0:0:
424,124,100149,1,2,0:0:0:0:
496,184,100259,1,0,0:0:0:0:
504,280,100368,2,0,L|496:376,1,95,2|0,0:0|0:0,0:0:0:0:
248,278,100587,2,0,L|256:184,1,95,2|0,0:0|0:0,0:0:0:0:
344,48,100806,6,0,P|256:76|168:44,1,190,4|0,0:0|0:0,0:0:0:0:
56,16,101135,1,0,0:0:0:0:
4,116,101244,2,0,L|12:244,1,95,12|0,0:0|0:0,0:0:0:0:
172,248,101463,2,0,L|177:153,1,95,0|0,0:0|0:0,0:0:0:0:
84,332,101682,6,0,P|172:368|256:334,1,190,4|0,0:0|0:0,0:0:0:0:
340,248,102011,1,0,0:0:0:0:
428,332,102120,1,12,0:0:0:0:
256,36,102339,1,0,0:0:0:0:
84,332,102558,5,8,0:0:0:0:
84,332,102668,1,8,0:0:0:0:
188,284,102777,1,8,0:0:0:0:
188,284,102887,1,8,0:0:0:0:
24,232,102996,1,8,0:0:0:0:
24,232,103106,1,8,0:0:0:0:
128,76,103215,2,0,L|136:180,1,95,8|0,0:0|0:0,0:0:0:0:
324,284,103434,5,4,0:0:0:0:
464,200,103544,2,0,P|500:288|464:372,1,190,4|0,0:0|0:0,0:0:0:0:
256,176,103872,1,10,0:0:0:0:
256,160,103927,1,0,0:0:0:0:
256,144,103982,1,10,0:0:0:0:
256,128,104036,1,0,0:0:0:0:
256,112,104091,1,2,0:0:0:0:
256,96,104146,1,0,0:0:0:0:
256,80,104201,1,2,0:0:0:0:
256,64,104255,1,0,0:0:0:0:
256,48,104310,5,4,0:0:0:0:
256,48,104967,1,0,0:0:0:0:
256,48,105076,2,0,L|168:44,1,76,4|0,0:0|0:0,0:0:0:0:
92,64,105295,2,0,P|44:160|92:264,1,228,0|0,0:0|0:0,0:0:0:0:
256,184,105843,1,0,0:0:0:0:
420,264,106062,5,4,0:0:0:0:
420,264,106500,1,0,0:0:0:0:
420,264,106609,2,0,L|424:180,1,76
432,96,106828,2,0,P|324:52|228:96,1,228,4|0,0:0|0:0,0:0:0:0:
24,284,107814,6,0,P|92:264|168:284,1,152,4|0,0:0|0:0,0:0:0:0:
256,316,108142,1,0,0:0:0:0:
256,316,108252,2,0,P|328:336|400:316,1,152,8|0,0:0|0:0,0:0:0:0:
476,268,108580,1,0,0:0:0:0:
476,268,108690,2,0,L|484:104,1,152,4|0,0:0|0:0,0:0:0:0:
256,32,109128,5,8,0:0:0:0:
256,32,109785,1,8,0:0:0:0:
124,360,110004,2,0,P|68:308|64:236,1,152,0|0,0:0|0:0,0:0:0:0:
448,236,110441,2,0,P|442:310|387:359,1,152
256,232,110770,5,0,0:0:0:0:
354,193,110879,2,0,P|359:230|351:267,1,76,8|8,0:0|0:0,0:0:0:0:
160,268,111098,2,0,P|152:228|160:188,1,76,8|8,0:0|0:0,0:0:0:0:
256,52,111317,6,0,L|380:48,1,109.250002083778,4|0,0:0|0:0,0:0:0:0:
157,192,111536,2,0,L|33:188,1,109.250002083778,8|0,0:0|0:0,0:0:0:0:
288,140,111755,2,0,P|299:193|287:245,1,109.250002083778,0|0,0:0|0:0,0:0:0:0:
120,324,111974,1,8,0:0:0:0:
8,92,112084,6,0,P|84:32|192:72,1,218.500004167557,4|0,0:0|0:0,0:0:0:0:
256,184,112412,1,8,0:0:0:0:
322,69,112522,2,0,P|419:30|504:92,1,218.500004167557,4|0,0:0|0:0,0:0:0:0:
408,244,112850,2,0,P|392:192|408:140,1,109.250002083778,8|0,0:0|0:0,0:0:0:0:
460,352,113069,6,0,L|328:344,1,109.250002083778
148,280,113288,2,0,L|280:272,1,109.250002083778,8|0,0:0|0:0,0:0:0:0:
460,220,113507,2,0,L|328:212,1,109.250002083778
148,148,113726,2,0,L|280:140,1,109.250002083778,8|0,0:0|0:0,0:0:0:0:
460,80,113945,5,0,0:0:0:0:
256,360,114164,1,0,0:0:0:0:
52,80,114383,1,2,0:0:0:0:
256,360,114602,5,2,0:0:0:0:
352,268,114712,2,0,P|256:224|160:268,1,218.500004167557,2|0,0:0|0:0,0:0:0:0:
56,368,115040,6,0,L|48:212,1,152,2|0,0:0|0:0,0:0:0:0:
216,16,115478,2,0,L|223:167,1,152
388,368,115916,5,2,0:0:0:0:
504,268,116135,1,2,0:0:0:0:
304,196,116354,1,2,0:0:0:0:
512,76,116573,6,0,P|436:127|347:104,1,190,4|0,0:0|0:0,0:0:0:0:
240,60,116901,2,0,P|150:36|74:87,1,190,4|0,0:0|0:0,0:0:0:0:
8,180,117230,2,0,L|20:376,1,190,4|0,0:0|0:0,0:0:0:0:
128,352,117558,6,0,L|120:196,1,152
232,220,117887,6,0,L|240:348,1,113.999996520996,2|0,0:0|0:0,0:0:0:0:
352,316,118215,1,0,0:0:0:0:
352,316,118325,6,0,P|436:316|496:232,1,190,4|8,0:0|0:0,0:0:0:0:
508,124,118653,1,4,0:0:0:0:
424,44,118763,2,0,P|376:32|328:44,1,95
256,128,118982,1,8,0:0:0:0:
352,316,119091,6,0,P|407:242|383:154,1,190
128,154,119420,2,0,P|104:242|160:316,1,190,8|0,0:0|0:0,0:0:0:0:
256,256,119748,1,0,0:0:0:0:
179,41,119858,2,0,P|133:32|88:44,1,95,8|0,0:0|0:0,0:0:0:0:
336,192,120076,6,0,P|382:201|427:189,1,95,4|0,0:0|0:0,0:0:0:0:
504,108,120295,1,8,0:0:0:0:
504,108,120405,1,0,0:0:0:0:
236,148,120514,2,0,P|226:194|238:239,2,95,0|0|8,0:0|0:0|0:0,0:0:0:0:
296,52,120843,1,0,0:0:0:0:
428,192,120952,6,0,P|416:304|324:344,1,190,0|8,0:0|0:0,0:0:0:0:
256,284,121281,1,0,0:0:0:0:
155,341,121390,2,0,P|83:283|84:192,1,190,0|8,0:0|0:0,0:0:0:0:
120,84,121719,1,0,0:0:0:0:
8,104,121828,1,4,0:0:0:0:
428,192,122047,5,0,0:0:0:0:
392,84,122156,1,0,0:0:0:0:
504,104,122266,1,4,0:0:0:0:
104,304,122485,5,0,0:0:0:0:
140,196,122594,1,0,0:0:0:0:
28,216,122704,1,4,0:0:0:0:
408,360,122923,5,0,0:0:0:0:
372,252,123032,1,0,0:0:0:0:
484,272,123142,1,4,0:0:0:0:
256,44,123361,1,0,0:0:0:0:
172,320,123580,6,0,P|256:360|340:324,1,190,4|0,0:0|0:0,0:0:0:0:
256,240,123909,1,0,0:0:0:0:
64,272,124018,2,0,P|56:320|64:368,2,95,4|0|0,0:0|0:0|0:0,0:0:0:0:
192,132,124347,6,0,L|-4:120,1,190,8|0,0:0|0:0,0:0:0:0:
320,352,124785,2,0,L|516:340,1,190,8|0,0:0|0:0,0:0:0:0:
192,24,125222,1,8,0:0:0:0:
92,80,125332,6,0,L|-8:72,1,95,8|8,0:0|0:0,0:0:0:0:
192,132,125551,2,0,L|292:124,1,95,8|8,0:0|0:0,0:0:0:0:
476,112,125770,1,2,0:0:0:0:
473,126,125825,1,0,0:0:0:0:
470,139,125879,1,2,0:0:0:0:
467,153,125934,1,0,0:0:0:0:
464,167,125989,1,2,0:0:0:0:
462,181,126044,1,0,0:0:0:0:
460,195,126098,1,2,0:0:0:0:
458,209,126153,1,0,0:0:0:0:
456,223,126208,1,12,0:0:0:0:
376,24,126317,5,4,0:0:0:0:
376,24,127084,6,0,L|384:152,1,109.250002083778,4|0,0:0|0:0,0:0:0:0:
392,288,127303,1,8,0:0:0:0:
256,220,127412,1,2,0:0:0:0:
384,132,127522,2,0,P|436:120|492:132,1,109.250002083778,2|0,0:0|0:0,0:0:0:0:
256,220,127741,2,0,P|204:232|148:220,1,109.250002083778,8|0,0:0|0:0,0:0:0:0:
16,124,127960,5,2,0:0:0:0:
240,92,128069,1,0,0:0:0:0:
40,248,128179,1,8,0:0:0:0:
116,40,128288,1,2,0:0:0:0:
256,220,128398,2,0,L|372:212,1,109.250002083778,0|0,0:0|0:0,0:0:0:0:
512,44,128617,2,0,L|396:36,1,109.250002083778,10|0,0:0|0:0,0:0:0:0:
136,164,128836,6,0,P|124:216|140:272,1,109.250002083778,4|0,0:0|0:0,0:0:0:0:
460,356,129055,2,0,P|474:303|462:251,1,109.250002083778,8|2,0:0|0:0,0:0:0:0:
376,108,129274,1,2,0:0:0:0:
256,220,129383,1,2,0:0:0:0:
356,352,129493,2,0,L|360:216,1,109.250002083778,8|0,0:0|0:0,0:0:0:0:
156,88,129712,6,0,L|152:224,1,109.250002083778,2|0,0:0|0:0,0:0:0:0:
148,360,129931,1,8,0:0:0:0:
256,220,130040,1,2,0:0:0:0:
48,204,130149,1,0,0:0:0:0:
272,344,130259,1,0,0:0:0:0:
288,80,130368,2,0,P|340:68|396:80,1,109.250002083778,10|0,0:0|0:0,0:0:0:0:
508,224,130587,5,4,0:0:0:0:
4,160,130806,1,0,0:0:0:0:
490,93,131025,5,4,0:0:0:0:
21,290,131244,1,0,0:0:0:0:
458,345,131463,5,4,0:0:0:0:
53,38,131682,1,0,0:0:0:0:
256,320,131901,6,0,B|288:208|224:208|256:104,1,218.500004167557,4|0,0:0|0:0,0:0:0:0:
324,48,132193,2,0,P|360:44|396:48,1,72.833334722519
468,100,132339,6,0,P|464:220|388:264,1,218.500004167557,4|0,0:0|0:0,0:0:0:0:
124,264,132668,2,0,P|38:204|44:100,1,218.500004167557,4|0,0:0|0:0,0:0:0:0:
256,144,132996,6,0,L|256:368,1,218.500004167557,4|0,0:0|0:0,0:0:0:0:
160,60,133325,2,0,P|256:16|356:60,1,218.500004167557,4|0,0:0|0:0,0:0:0:0:
124,264,133653,6,0,P|108:208|120:156,1,109.250002083778,4|0,0:0|0:0,0:0:0:0:
393,159,133872,2,0,P|403:212|388:264,1,109.250002083778,4|0,0:0|0:0,0:0:0:0:
164,368,134091,6,0,L|36:352,1,109.250002083778,4|0,0:0|0:0,0:0:0:0:
256,232,134310,1,0,0:0:0:0:
348,368,134420,2,0,L|476:352,1,109.250002083778,4|0,0:0|0:0,0:0:0:0:
468,108,134639,1,0,0:0:0:0:
256,232,134748,1,4,0:0:0:0:
400,240,134858,5,2,0:0:0:0:
44,108,135186,2,0,L|40:148,22,27.3125005209446,0|0|0|0|0|0|0|0|0|0|0|0|0|0|0|0|0|0|0|0|0|0|0,0:0|0:0|0:0|0:0|0:0|0:0|0:0|0:0|0:0|0:0|0:0|0:0|0:0|0:0|0:0|0:0|0:0|0:0|0:0|0:0|0:0|0:0|0:0,0:0:0:0:
68,216,135843,5,4,0:0:0:0:
256,192,135898,12,4,140222,0:0:0:0:
