osu file format v14

[General]
AudioFilename: gokusai1.mp3
AudioLeadIn: 0
PreviewTime: 64018
Countdown: 0
SampleSet: Soft
StackLeniency: 0.7
Mode: 0
LetterboxInBreaks: 0
WidescreenStoryboard: 0

[Editor]
Bookmarks: 7960,14967,18471,21974,27230,34237,43106,50222,53507,57011,64018,74529,83288,90295,97303,104310,111317,118325,127084,135843
DistanceSpacing: 1.2
BeatDivisor: 4
GridSize: 4
TimelineZoom: 2.1

[Metadata]
Title:Ai to Bonnou to Rinne to Joushiki no Gokusai Sekai
TitleUnicode:愛と煩悩と輪廻と常識の極彩世界
Artist:sound piercer feat. Ritsu
ArtistUnicode:sound piercer feat. Ritsu
Creator:Cherry Blossom
Version:CBnother
Source:BMS
Tags:bof2013 of fighters konzertsaal progressive fantasia dialgadu77
BeatmapID:584885
BeatmapSetID:125492

[Difficulty]
HPDrainRate:6
CircleSize:4
OverallDifficulty:7.5
ApproachRate:9.3
SliderMultiplier:1.7
SliderTickRate:1

[Events]
//Background and Video events
0,0,"_title.jpg",0,0
//Break Periods
2,1152,7406
2,18671,21420
2,50422,52734
//Storyboard Layer 0 (Background)
//Storyboard Layer 1 (Fail)
//Storyboard Layer 2 (Pass)
//Storyboard Layer 3 (Foreground)
//Storyboard Sound Samples

[TimingPoints]
77,218.978102189781,4,2,1,70,1,0
23726,-125,4,2,1,70,0,0
27230,-100,4,2,1,70,0,0
53288,-125,4,2,1,70,0,0
55259,-100,4,2,1,70,0,0
63580,-100,4,2,1,35,0,0
64018,-100,4,2,1,70,0,0
74584,-200,4,2,1,70,0,0
76281,-100,4,2,1,70,0,0
78252,-100,4,2,1,70,0,1
81536,-100,4,2,1,70,0,0
104420,-125,4,2,1,70,0,0
111317,-86.9565217391304,4,2,1,80,0,1
115040,-125,4,2,1,80,0,0
116573,-100,4,2,1,80,0,0
117558,-125,4,2,1,80,0,0
117887,-166.666666666667,4,2,1,80,0,0
118325,-100,4,2,1,80,0,0
127084,-86.9565217391304,4,2,1,80,0,1
135186,-86.9565217391304,4,2,1,35,0,0
135843,-86.9565217391304,4,2,1,80,0,0
135898,-86.9565217391304,4,2,1,35,0,0
140222,-86.9565217391304,4,2,1,80,0,0

[Colours]
Combo1 : 83,226,14
Combo2 : 242,47,115
Combo3 : 9,145,255
Combo4 : 0,255,255

[HitObjects]
256,80,952,5,4,0:0:0:0:
164,84,7960,6,0,L|64:72,2,85,4|4|0,0:0|0:0|0:0,0:0:0:0:
256,40,8288,2,0,L|428:28,1,170,4|0,0:0|0:0,0:0:0:0:
508,88,8617,2,0,L|500:180,1,85,4|4,0:0|0:0,0:0:0:0:
404,208,8836,6,0,L|411:123,1,85,0|4,0:0|0:0,0:0:0:0:
488,272,9055,2,0,P|416:316|340:292,1,170,0|0,0:0|0:0,0:0:0:0:
24,272,9493,6,0,L|32:360,2,85,4|4|0,0:0|0:0|0:0,0:0:0:0:
12,172,9821,2,0,P|88:140|164:172,1,170,4|0,0:0|0:0,0:0:0:0:
216,260,10149,2,0,P|256:272|300:260,1,85,4|0,0:0|0:0,0:0:0:0:
352,176,10368,1,0,0:0:0:0:
436,232,10478,1,4,0:0:0:0:
244,28,10697,6,0,L|144:20,2,85,0|0|0,0:0|0:0|0:0,0:0:0:0:
344,40,11025,1,0,0:0:0:0:
444,52,11135,2,0,L|440:156,1,85,0|0,0:0|0:0,0:0:0:0:
256,216,11354,2,0,L|259:131,1,85,0|0,0:0|0:0,0:0:0:0:
296,312,11573,6,0,P|256:324|216:312,2,85,4|4|0,0:0|0:0|0:0,0:0:0:0:
360,232,11901,2,0,P|444:224|504:284,1,170,4|0,0:0|0:0,0:0:0:0:
408,324,12230,1,4,0:0:0:0:
256,216,12339,6,0,L|259:131,1,85,0|0,0:0|0:0,0:0:0:0:
200,48,12558,2,0,L|96:44,1,85,4|0,0:0|0:0,0:0:0:0:
336,72,12777,2,0,L|452:68,1,85,0|0,0:0|0:0,0:0:0:0:
408,324,13106,5,4,0:0:0:0:
316,368,13215,2,0,L|204:356,1,85,4|0,0:0|0:0,0:0:0:0:
140,316,13434,2,0,P|112:232|140:156,1,170,4|0,0:0|0:0,0:0:0:0:
216,88,13763,1,4,0:0:0:0:
340,184,13872,2,0,P|296:192|256:184,1,85,4|0,0:0|0:0,0:0:0:0:
428,108,14091,6,0,P|454:187|426:265,1,170,4|0,0:0|0:0,0:0:0:0:
348,332,14420,1,4,0:0:0:0:
256,288,14529,2,0,L|168:284,1,85,0|0,0:0|0:0,0:0:0:0:
76,244,14748,2,0,P|68:284|76:332,1,85,0|0,0:0|0:0,0:0:0:0:
156,192,14967,6,0,P|164:152|156:108,1,85,4|0,0:0|0:0,0:0:0:0:
88,32,15186,2,0,L|260:28,1,170,8|0,0:0|0:0,0:0:0:0:
352,64,15514,1,0,0:0:0:0:
444,108,15624,2,0,P|452:68|444:24,1,85,8|0,0:0|0:0,0:0:0:0:
304,148,15843,6,0,P|296:188|304:232,1,85,0|0,0:0|0:0,0:0:0:0:
348,324,16062,2,0,L|520:312,1,170,8|0,0:0|0:0,0:0:0:0:
168,360,16500,2,0,L|80:352,1,85,8|0,0:0|0:0,0:0:0:0:
24,276,16719,6,0,P|16:236|24:192,1,85,4|0,0:0|0:0,0:0:0:0:
144,108,16938,2,0,P|48:108|0:52,1,170,8|0,0:0|0:0,0:0:0:0:
96,16,17266,1,0,0:0:0:0:
256,72,17376,2,0,L|256:172,1,85,8|0,0:0|0:0,0:0:0:0:
256,260,17595,5,8,0:0:0:0:
256,260,17704,1,8,0:0:0:0:
360,88,18033,1,8,0:0:0:0:
360,88,18143,1,8,0:0:0:0:
152,88,18471,5,4,0:0:0:0:
88,52,21974,6,0,L|28:44,2,42.5,4|0|0,0:0|0:0|0:0,0:0:0:0:
188,64,22193,1,0,0:0:0:0:
76,216,22412,2,0,L|16:208,2,42.5,4|0|0,0:0|0:0|0:0,0:0:0:0:
176,228,22631,1,0,0:0:0:0:
324,64,22850,2,0,L|320:12,2,42.5,4|0|0,0:0|0:0|0:0,0:0:0:0:
332,168,23069,1,0,0:0:0:0:
188,64,23288,2,0,L|192:12,2,42.5,4|0|0,0:0|0:0|0:0,0:0:0:0:
180,168,23507,2,0,L|96:160,1,85,0|0,0:0|0:0,0:0:0:0:
256,280,23726,6,0,L|396:272,1,136,4|0,0:0|0:0,0:0:0:0:
208,352,24055,2,0,L|68:344,1,136,0|0,0:0|0:0,0:0:0:0:
304,200,24383,2,0,L|444:192,1,136,0|0,0:0|0:0,0:0:0:0:
172,268,24712,2,0,L|32:260,1,136,0|0,0:0|0:0,0:0:0:0:
344,120,25040,2,0,L|412:116,1,68,0|0,0:0|0:0,0:0:0:0:
144,184,25259,2,0,L|76:180,1,68,0|0,0:0|0:0,0:0:0:0:
344,284,25478,5,2,0:0:0:0:
344,284,25587,1,2,0:0:0:0:
344,284,25697,2,0,L|424:280,1,68,2|2,0:0|0:0,0:0:0:0:
480,120,25916,1,2,0:0:0:0:
480,120,26025,1,2,0:0:0:0:
480,120,26135,2,0,L|400:116,1,68,2|2,0:0|0:0,0:0:0:0:
320,204,26354,6,0,L|400:200,1,68,2|2,0:0|0:0,0:0:0:0:
492,32,26573,2,0,L|412:28,1,68,2|2,0:0|0:0,0:0:0:0:
256,64,26792,2,0,L|200:60,7,34,0|0|0|0|0|0|0|0,0:0|0:0|0:0|0:0|0:0|0:0|0:0|0:0,0:0:0:0:
172,72,27230,6,0,P|164:112|172:160,1,85,4|0,0:0|0:0,0:0:0:0:
252,276,27449,2,0,P|176:244|100:276,1,170,8|0,0:0|0:0,0:0:0:0:
176,344,27777,1,0,0:0:0:0:
352,324,27887,2,0,P|358:282|350:240,1,85,8|0,0:0|0:0,0:0:0:0:
300,152,28106,6,0,L|384:144,1,85,0|0,0:0|0:0,0:0:0:0:
464,76,28325,1,8,0:0:0:0:
352,324,28544,2,0,L|260:316,1,85,0|0,0:0|0:0,0:0:0:0:
176,272,28763,2,0,P|168:316|176:356,1,85,8|0,0:0|0:0,0:0:0:0:
256,216,28982,6,0,P|184:176|104:204,1,170,0|8,0:0|0:0,0:0:0:0:
256,40,29420,2,0,P|296:48|340:40,1,85,0|0,0:0|0:0,0:0:0:0:
436,8,29639,1,8,0:0:0:0:
504,80,29748,2,0,L|496:260,1,170,0|0,0:0|0:0,0:0:0:0:
428,328,30076,2,0,P|348:360|272:324,1,170,8|0,0:0|0:0,0:0:0:0:
256,228,30405,1,0,0:0:0:0:
348,188,30514,2,0,P|356:232|344:288,1,85,8|0,0:0|0:0,0:0:0:0:
161,271,30733,6,0,P|156:229|164:188,1,85,4|0,0:0|0:0,0:0:0:0:
204,96,30952,2,0,L|108:92,1,85,10|0,0:0|0:0,0:0:0:0:
256,228,31171,2,0,L|352:224,1,85,2|2,0:0|0:0,0:0:0:0:
436,184,31390,2,0,P|444:224|436:268,1,85,10|2,0:0|0:0,0:0:0:0:
396,84,31609,6,0,L|496:76,2,85,2|0|10,0:0|0:0|0:0,0:0:0:0:
312,20,31938,1,0,0:0:0:0:
256,104,32047,2,0,L|144:96,1,85,2|2,0:0|0:0,0:0:0:0:
68,88,32266,1,10,0:0:0:0:
68,88,32376,1,2,0:0:0:0:
0,164,32485,6,0,L|8:260,1,85,4|0,0:0|0:0,0:0:0:0:
144,300,32704,2,0,L|151:215,1,85,10|2,0:0|0:0,0:0:0:0:
256,104,32923,1,2,0:0:0:0:
268,100,32978,1,0,0:0:0:0:
280,96,33033,1,2,0:0:0:0:
292,92,33087,1,0,0:0:0:0:
304,88,33142,2,0,L|352:92,3,42.5,2|0|2|0,0:0|0:0|0:0|0:0,0:0:0:0:
396,96,33361,6,0,L|404:200,1,85,4|4,0:0|0:0,0:0:0:0:
68,352,33799,2,0,L|60:248,1,85,4|4,0:0|0:0,0:0:0:0:
488,132,34237,5,0,0:0:0:0:
488,132,34347,1,0,0:0:0:0:
448,224,34456,2,0,L|336:216,1,85,0|0,0:0|0:0,0:0:0:0:
304,88,34675,2,0,L|416:80,1,85,8|0,0:0|0:0,0:0:0:0:
220,128,34894,2,0,P|212:88|220:44,1,85,0|0,0:0|0:0,0:0:0:0:
448,224,35113,6,0,P|455:265|447:307,1,85,0|0,0:0|0:0,0:0:0:0:
312,360,35332,2,0,L|196:352,1,85,0|0,0:0|0:0,0:0:0:0:
84,344,35551,1,2,0:0:0:0:
84,344,35989,6,0,L|88:236,1,85,4|0,0:0|0:0,0:0:0:0:
156,132,36208,2,0,P|76:152|4:104,1,170,8|0,0:0|0:0,0:0:0:0:
92,48,36536,1,0,0:0:0:0:
256,96,36646,2,0,L|252:192,1,85,8|0,0:0|0:0,0:0:0:0:
244,284,36865,5,0,0:0:0:0:
244,284,36974,1,0,0:0:0:0:
340,244,37084,2,0,P|380:236|424:244,1,85,8|0,0:0|0:0,0:0:0:0:
152,328,37303,2,0,P|112:336|68:328,1,85,0|0,0:0|0:0,0:0:0:0:
16,240,37522,2,0,L|12:144,1,85,8|0,0:0|0:0,0:0:0:0:
168,52,37741,6,0,L|160:224,1,170,4|0,0:0|0:0,0:0:0:0:
332,348,38069,2,0,P|404:332|444:244,1,170,2|0,0:0|0:0,0:0:0:0:
404,84,38398,2,0,L|512:76,1,85,8|0,0:0|0:0,0:0:0:0:
336,180,38617,2,0,L|160:164,1,170,2|0,0:0|0:0,0:0:0:0:
96,88,38945,2,0,P|64:160|96:240,2,170,2|2|0,0:0|0:0|0:0,0:0:0:0:
184,36,39493,6,0,L|292:32,1,85,4|0,0:0|0:0,0:0:0:0:
364,72,39712,2,0,P|372:116|364:156,1,85,0|0,0:0|0:0,0:0:0:0:
276,208,39931,2,0,P|268:252|276:292,1,85,8|0,0:0|0:0,0:0:0:0:
356,352,40149,2,0,L|460:348,1,85,0|0,0:0|0:0,0:0:0:0:
276,208,40368,6,0,L|172:204,1,85,4|0,0:0|0:0,0:0:0:0:
96,244,40587,2,0,P|88:200|96:160,1,85,0|0,0:0|0:0,0:0:0:0:
144,72,40806,2,0,L|248:68,1,85,8|0,0:0|0:0,0:0:0:0:
324,108,41025,2,0,P|332:68|324:24,1,85,0|0,0:0|0:0,0:0:0:0:
276,208,41244,6,0,L|380:204,1,85,4|2,0:0|0:0,0:0:0:0:
464,204,41463,1,2,0:0:0:0:
464,204,41573,1,2,0:0:0:0:
488,304,41682,2,0,P|416:352|332:324,1,170,8|2,0:0|0:0,0:0:0:0:
172,84,42120,6,0,P|244:36|328:64,1,170,4|2,0:0|0:0,0:0:0:0:
348,156,42449,1,0,0:0:0:0:
256,204,42558,1,8,0:0:0:0:
256,204,42613,1,0,0:0:0:0:
256,204,42668,2,0,P|248:164|256:120,2,85,8|8|8,0:0|0:0|0:0,0:0:0:0:
460,296,43106,6,0,P|384:268|304:296,1,170,4|0,0:0|0:0,0:0:0:0:
208,344,43434,2,0,P|129:372|51:344,1,170,4|0,0:0|0:0,0:0:0:0:
12,248,43763,2,0,L|8:152,1,85,4|2,0:0|0:0,0:0:0:0:
4,60,43982,1,0,0:0:0:0:
92,112,44091,2,0,P|132:120|176:112,1,85,10|0,0:0|0:0,0:0:0:0:
296,32,44310,2,0,P|256:24|212:32,1,85,2|0,0:0|0:0,0:0:0:0:
212,200,44529,1,10,0:0:0:0:
428,28,44748,5,0,0:0:0:0:
508,92,44858,2,0,L|504:264,1,170,4|0,0:0|0:0,0:0:0:0:
448,348,45186,2,0,P|364:372|284:348,1,170,4|0,0:0|0:0,0:0:0:0:
232,264,45514,1,4,0:0:0:0:
104,356,45624,6,0,L|192:352,1,85,2|0,0:0|0:0,0:0:0:0:
276,172,45843,2,0,L|188:168,1,85,10|0,0:0|0:0,0:0:0:0:
148,260,46062,1,2,0:0:0:0:
148,260,46171,1,0,0:0:0:0:
352,212,46281,2,0,P|359:170|351:128,1,85,10|0,0:0|0:0,0:0:0:0:
256,20,46500,5,4,0:0:0:0:
256,192,46555,12,4,48252,0:0:0:0:
256,192,48306,12,0,49018,0:0:0:0:
180,192,49128,6,0,L|184:292,1,85,2|2,0:0|0:0,0:0:0:0:
328,276,49347,2,0,L|331:191,1,85,2|2,0:0|0:0,0:0:0:0:
256,72,49566,1,8,0:0:0:0:
256,72,49675,1,8,0:0:0:0:
256,72,49785,1,8,0:0:0:0:
256,72,49894,1,8,0:0:0:0:
256,336,50222,1,4,0:0:0:0:
112,76,53288,6,0,L|204:72,1,68,0|0,0:0|0:0,0:0:0:0:
256,104,53507,6,0,P|264:68|256:36,1,68,4|0,0:0|0:0,0:0:0:0:
148,152,53726,2,0,P|140:188|148:220,1,68,0|0,0:0|0:0,0:0:0:0:
184,292,53945,2,0,L|344:284,1,136,8|0,0:0|0:0,0:0:0:0:
400,272,54274,1,0,0:0:0:0:
468,228,54383,6,0,P|488:160|468:96,1,136,0|0,0:0|0:0,0:0:0:0:
392,68,54712,2,0,L|232:60,1,136,0|0,0:0|0:0,0:0:0:0:
180,28,55040,1,8,0:0:0:0:
338,264,55259,6,0,L|336:360,1,85,4|2,0:0|0:0,0:0:0:0:
175,349,55478,2,0,L|173:264,1,85,8|2,0:0|0:0,0:0:0:0:
256,200,55697,1,2,0:0:0:0:
256,200,55806,1,2,0:0:0:0:
84,220,55916,2,0,L|-4:212,1,85,10|2,0:0|0:0,0:0:0:0:
168,112,56135,6,0,L|364:96,1,170,2|0,0:0|0:0,0:0:0:0:
400,176,56463,2,0,P|436:96|400:24,2,170,2|2|0,0:0|0:0|0:0,0:0:0:0:
300,220,57011,5,4,0:0:0:0:
300,220,57120,1,0,0:0:0:0:
300,220,57230,2,0,L|196:216,1,85,2|0,0:0|0:0,0:0:0:0:
348,324,57449,2,0,L|452:320,1,85,10|2,0:0|0:0,0:0:0:0:
268,108,57668,2,0,L|164:104,1,85,2|2,0:0|0:0,0:0:0:0:
44,204,57887,5,4,0:0:0:0:
44,204,57996,1,0,0:0:0:0:
44,204,58106,2,0,L|48:308,1,85,2|0,0:0|0:0,0:0:0:0:
220,304,58325,2,0,L|216:219,1,85,10|2,0:0|0:0,0:0:0:0:
132,52,58544,2,0,L|136:156,1,85,2|2,0:0|0:0,0:0:0:0:
308,152,58763,5,4,0:0:0:0:
308,152,58872,1,0,0:0:0:0:
308,152,58982,2,0,L|304:67,1,85,2|0,0:0|0:0,0:0:0:0:
44,204,59201,2,0,L|48:308,1,85,10|2,0:0|0:0,0:0:0:0:
128,352,59420,2,0,P|168:360|212:352,1,85,2|2,0:0|0:0,0:0:0:0:
304,240,59639,6,0,P|380:204|456:236,1,170,12|2,0:0|0:0,0:0:0:0:
384,312,59967,1,2,0:0:0:0:
204,260,60076,1,8,0:0:0:0:
200,240,60131,1,8,0:0:0:0:
196,220,60186,1,8,0:0:0:0:
192,200,60241,1,0,0:0:0:0:
188,180,60295,2,0,L|144:176,4,42.5,8|0|8|0|4,0:0|0:0|0:0|0:0|0:0,0:0:0:0:
480,44,60733,6,0,P|420:96|332:80,1,170,12|0,0:0|0:0,0:0:0:0:
256,20,61062,1,0,0:0:0:0:
176,84,61171,2,0,P|168:128|176:172,1,85,8|0,0:0|0:0,0:0:0:0:
336,268,61390,6,0,P|344:224|336:180,1,85,0|0,0:0|0:0,0:0:0:0:
256,328,61609,2,0,P|328:368|408:340,1,170,8|0,0:0|0:0,0:0:0:0:
440,244,61938,1,0,0:0:0:0:
168,284,62047,2,0,P|160:328|168:368,1,85,8|0,0:0|0:0,0:0:0:0:
336,268,62266,6,0,P|344:224|336:180,1,85,4|0,0:0|0:0,0:0:0:0:
320,84,62485,2,0,L|420:76,1,85,8|0,0:0|0:0,0:0:0:0:
192,136,62704,2,0,L|92:128,1,85,0|0,0:0|0:0,0:0:0:0:
336,184,62923,2,0,L|436:176,1,85,0|0,0:0|0:0,0:0:0:0:
176,236,63142,5,4,0:0:0:0:
212,40,63252,1,4,0:0:0:0:
356,288,63580,2,0,P|436:264|376:356,1,255,0|0,0:0|0:0,0:0:0:0:
284,356,64018,6,0,L|176:344,1,85,4|0,0:0|0:0,0:0:0:0:
100,324,64237,2,0,P|68:248|104:172,1,170,8|0,0:0|0:0,0:0:0:0:
204,156,64566,1,0,0:0:0:0:
248,248,64675,2,0,P|204:256|164:248,1,85,8|0,0:0|0:0,0:0:0:0:
340,208,64894,6,0,L|336:320,1,85,0|0,0:0|0:0,0:0:0:0:
300,112,65113,2,0,P|380:112|440:176,1,170,8|0,0:0|0:0,0:0:0:0:
340,208,65441,1,0,0:0:0:0:
204,156,65551,2,0,L|207:71,1,85,8|0,0:0|0:0,0:0:0:0:
296,16,65770,5,0,0:0:0:0:
336,304,65989,2,0,P|256:336|180:304,1,170,8|0,0:0|0:0,0:0:0:0:
96,248,66317,1,0,0:0:0:0:
4,200,66427,2,0,P|-4:244|4:288,1,85,8|0,0:0|0:0,0:0:0:0:
192,208,66646,6,0,P|200:164|192:120,1,85,0|0,0:0|0:0,0:0:0:0:
136,40,66865,2,0,L|328:32,1,170,8|0,0:0|0:0,0:0:0:0:
404,64,67193,1,0,0:0:0:0:
496,108,67303,2,0,L|492:208,1,85,8|0,0:0|0:0,0:0:0:0:
488,296,67522,5,0,0:0:0:0:
180,160,67741,2,0,P|256:128|332:160,1,170,8|0,0:0|0:0,0:0:0:0:
348,260,68069,1,0,0:0:0:0:
256,304,68179,2,0,P|248:260|256:220,1,85,8|0,0:0|0:0,0:0:0:0:
440,224,68398,6,0,P|448:268|440:308,1,85,0|0,0:0|0:0,0:0:0:0:
404,128,68617,2,0,P|484:132|536:200,1,170,8|0,0:0|0:0,0:0:0:0:
440,224,68945,1,0,0:0:0:0:
308,168,69055,2,0,P|300:124|308:84,1,85,8|0,0:0|0:0,0:0:0:0:
348,260,69274,6,0,L|232:256,1,85,0|0,0:0|0:0,0:0:0:0:
176,200,69493,1,8,0:0:0:0:
176,200,69602,1,0,0:0:0:0:
120,284,69712,2,0,L|124:368,1,85,0|0,0:0|0:0,0:0:0:0:
388,368,69931,2,0,L|392:284,1,85,8|0,0:0|0:0,0:0:0:0:
404,120,70149,5,8,0:0:0:0:
404,120,70259,1,8,0:0:0:0:
256,188,70368,2,0,L|256:240,6,42.5,0|0|0|0|0|0|0,0:0|0:0|0:0|0:0|0:0|0:0|0:0,0:0:0:0:
108,120,70916,6,0,P|48:112|28:204,1,170,0|0,0:0|0:0,0:0:0:0:
88,280,71244,2,0,P|128:288|172:280,1,85,8|2,0:0|0:0,0:0:0:0:
296,164,71463,2,0,P|256:156|213:163,1,85,0|2,0:0|0:0,0:0:0:0:
340,280,71682,2,0,P|382:288|424:280,1,85,10|2,0:0|0:0,0:0:0:0:
504,160,71901,6,0,L|508:60,1,85,2|2,0:0|0:0,0:0:0:0:
364,52,72120,2,0,L|360:136,1,85,10|2,0:0|0:0,0:0:0:0:
228,196,72339,2,0,L|152:188,2,56.6666666666667,2|0|0,0:0|0:0|0:0,0:0:0:0:
256,260,72558,2,0,L|256:344,1,85,2|0,0:0|0:0,0:0:0:0:
460,88,72887,6,0,P|384:116|304:88,1,170,4|0,0:0|0:0,0:0:0:0:
212,40,73215,2,0,P|133:11|55:39,1,170,4|0,0:0|0:0,0:0:0:0:
0,128,73544,2,0,L|12:300,1,170,4|0,0:0|0:0,0:0:0:0:
100,348,73872,1,2,0:0:0:0:
112,346,73927,1,0,0:0:0:0:
124,343,73982,1,2,0:0:0:0:
136,340,74036,1,0,0:0:0:0:
148,336,74091,2,0,L|232:344,1,85,10|10,0:0|0:0,0:0:0:0:
364,232,74310,2,0,L|280:240,1,85,10|2,0:0|0:0,0:0:0:0:
148,132,74529,5,4,0:0:0:0:
364,28,74748,1,0,0:0:0:0:
148,28,74967,1,0,0:0:0:0:
364,132,75186,1,0,0:0:0:0:
56,84,75405,5,0,0:0:0:0:
56,84,75514,2,0,L|48:136,1,42.5,8|0,0:0|0:0,0:0:0:0:
148,132,75733,2,0,L|140:184,1,42.5,8|0,0:0|0:0,0:0:0:0:
256,176,75952,1,0,0:0:0:0:
256,176,76062,1,8,0:0:0:0:
84,320,76281,6,0,L|-4:316,2,85,4|0|0,0:0|0:0|0:0,0:0:0:0:
168,260,76609,1,0,0:0:0:0:
216,352,76719,2,0,L|324:348,1,85,0|0,0:0|0:0,0:0:0:0:
388,292,76938,2,0,P|396:248|388:204,1,85,0|0,0:0|0:0,0:0:0:0:
320,80,77157,6,0,L|412:72,1,85,0|0,0:0|0:0,0:0:0:0:
192,120,77376,2,0,L|100:112,1,85,0|0,0:0|0:0,0:0:0:0:
304,216,77595,2,0,L|396:208,1,85,0|0,0:0|0:0,0:0:0:0:
176,256,77814,1,8,0:0:0:0:
176,256,77923,1,4,0:0:0:0:
352,16,78252,6,0,P|384:92|352:172,1,170,4|0,0:0|0:0,0:0:0:0:
157,169,78580,2,0,P|127:92|160:16,1,170,4|0,0:0|0:0,0:0:0:0:
256,92,78909,2,0,L|256:276,1,170,4|0,0:0|0:0,0:0:0:0:
184,332,79237,2,0,L|92:324,2,85,4|0|0,0:0|0:0|0:0,0:0:0:0:
328,332,79566,2,0,L|420:324,2,85,4|0|0,0:0|0:0|0:0,0:0:0:0:
52,120,80004,6,0,P|128:144|212:120,1,170,4|0,0:0|0:0,0:0:0:0:
300,36,80332,2,0,P|380:11|460:35,1,170,4|0,0:0|0:0,0:0:0:0:
512,144,80660,2,0,L|508:244,1,85,8|8,0:0|0:0,0:0:0:0:
372,332,80879,2,0,L|368:247,1,85,8|8,0:0|0:0,0:0:0:0:
256,120,81098,1,8,0:0:0:0:
244,116,81153,1,0,0:0:0:0:
232,112,81208,2,0,L|184:116,4,42.5,8|0|8|0|8,0:0|0:0|0:0|0:0|0:0,0:0:0:0:
256,192,81536,12,0,82303,0:0:0:0:
407,208,82412,6,0,P|325:220|256:174,1,170,0|0,0:0|0:0,0:0:0:0:
256,72,82741,1,0,0:0:0:0:
348,32,82850,2,0,P|356:72|348:116,1,85,8|8,0:0|0:0,0:0:0:0:
163,115,83069,2,0,P|155:73|164:32,1,85,8|8,0:0|0:0,0:0:0:0:
256,176,83288,6,0,P|263:217|255:259,1,85,4|0,0:0|0:0,0:0:0:0:
184,332,83507,2,0,L|88:324,2,85,0|0|0,0:0|0:0|0:0,0:0:0:0:
284,360,83836,2,0,L|472:348,1,170,0|0,0:0|0:0,0:0:0:0:
500,256,84164,6,0,P|508:216|500:172,1,85,0|0,0:0|0:0,0:0:0:0:
452,84,84383,2,0,L|352:80,1,85,8|0,0:0|0:0,0:0:0:0:
320,220,84602,2,0,L|420:216,1,85,0|0,0:0|0:0,0:0:0:0:
232,116,84821,2,0,L|132:112,1,85,8|0,0:0|0:0,0:0:0:0:
60,228,85040,6,0,P|100:312|168:332,1,170,0|0,0:0|0:0,0:0:0:0:
256,280,85368,1,0,0:0:0:0:
343,331,85478,1,0,0:0:0:0:
343,331,85533,1,0,0:0:0:0:
343,331,85587,2,0,P|420:304|452:228,1,170,0|0,0:0|0:0,0:0:0:0:
336,140,85916,6,0,L|344:228,1,85,4|0,0:3|0:0,0:0:0:0:
376,48,86135,2,0,P|336:40|292:48,1,85,8|0,0:0|0:0,0:0:0:0:
472,96,86354,2,0,L|476:4,1,85,4|0,0:3|0:0,0:0:0:0:
232,136,86573,6,0,L|240:224,1,85,8|0,0:0|0:0,0:0:0:0:
344,332,86792,2,0,P|384:340|432:332,2,85,4|0|0,0:0|0:0|0:0,0:0:0:0:
168,52,87230,2,0,P|128:44|80:52,1,85,0|0,0:0|0:0,0:0:0:0:
16,124,87449,2,0,L|20:212,1,85,0|0,0:0|0:0,0:0:0:0:
32,312,87668,5,0,0:0:0:0:
32,312,87777,1,0,0:0:0:0:
116,252,87887,2,0,P|156:244|200:252,1,85,8|0,0:0|0:0,0:0:0:0:
296,360,88106,2,0,P|256:368|212:360,1,85,0|0,0:0|0:0,0:0:0:0:
312,251,88325,2,0,P|354:243|396:252,1,85,8|0,0:0|0:0,0:0:0:0:
480,312,88544,6,0,L|484:120,1,170,4|8,0:0|0:0,0:0:0:0:
484,40,88872,1,0,0:0:0:0:
392,92,88982,2,0,P|352:100|308:92,1,85,0|0,0:0|0:0,0:0:0:0:
204,64,89201,2,0,P|162:56|120:64,1,85,8|0,0:0|0:0,0:0:0:0:
40,124,89420,5,0,0:0:0:0:
41,136,89474,1,0,0:0:0:0:
42,148,89529,1,0,0:0:0:0:
43,160,89584,1,0,0:0:0:0:
45,172,89639,2,0,L|60:296,1,85,0|0,0:0|0:0,0:0:0:0:
156,360,89858,2,0,L|166:275,1,85,0|0,0:0|0:0,0:0:0:0:
256,160,90076,2,0,L|271:284,1,85,0|0,0:0|0:0,0:0:0:0:
352,360,90295,6,0,P|440:352|480:276,1,170,4|8,0:0|0:0,0:0:0:0:
500,144,90624,2,0,L|324:132,1,170,4|0,0:0|0:0,0:0:0:0:
181,132,90952,2,0,L|12:144,1,170,12|0,0:0|0:0,0:0:0:0:
0,252,91281,5,4,0:0:0:0:
88,296,91390,2,0,P|96:252|88:212,1,85,8|0,0:0|0:0,0:0:0:0:
32,40,91609,2,0,L|148:32,1,85,4|0,0:0|0:0,0:0:0:0:
267,139,91828,2,0,L|151:131,1,85,12|0,0:0|0:0,0:0:0:0:
396,36,92047,6,0,L|404:224,1,170,4|8,0:0|0:0,0:0:0:0:
484,328,92376,2,0,P|408:356|328:328,1,170,4|0,0:0|0:0,0:0:0:0:
256,204,92704,2,0,P|177:175|99:203,1,170,12|4,0:0|0:0,0:0:0:0:
20,272,93033,6,0,L|28:372,2,85,2|8|0,0:0|0:0|0:0,0:0:0:0:
0,128,93361,1,2,0:0:0:0:
184,352,93580,1,0,0:0:0:0:
196,350,93635,1,0,0:0:0:0:
208,348,93690,1,0,0:0:0:0:
220,346,93744,1,0,0:0:0:0:
232,343,93799,6,0,L|407:351,1,170,4|4,0:0|0:0,0:0:0:0:
500,172,94237,1,4,0:0:0:0:
408,128,94347,2,0,P|400:168|408:212,1,85,4|0,0:0|0:0,0:0:0:0:
488,68,94566,6,0,P|428:32|336:60,1,170,4|4,0:0|0:0,0:0:0:0:
256,124,94894,2,0,P|178:152|105:114,1,170,4|0,0:0|0:0,0:0:0:0:
184,52,95222,1,2,0:0:0:0:
360,168,95332,2,0,L|356:272,1,85,2|0,0:0|0:0,0:0:0:0:
224,312,95551,2,0,L|220:227,1,85,2|0,0:0|0:0,0:0:0:0:
460,144,95770,2,0,L|456:248,1,85,2|0,0:0|0:0,0:0:0:0:
124,336,95989,2,0,L|120:251,1,85,2|0,0:0|0:0,0:0:0:0:
112,108,96208,1,2,0:0:0:0:
112,108,96317,1,0,0:0:0:0:
112,108,96427,1,2,0:0:0:0:
256,192,96482,12,0,97193,0:0:0:0:
208,92,97303,6,0,L|108:84,2,85,8|8|8,0:0|0:0|0:0,0:0:0:0:
300,48,97631,2,0,L|472:40,1,170,8|8,0:0|0:0,0:0:0:0:
512,136,97960,2,0,P|520:184|512:224,1,85,0|2,0:0|0:0,0:0:0:0:
460,308,98179,1,2,0:0:0:0:
380,248,98288,2,0,L|296:244,1,85,4|0,0:0|0:0,0:0:0:0:
204,200,98507,2,0,P|196:244|204:288,2,85,0|10|12,0:0|0:0|0:0,0:0:0:0:
292,144,98836,2,0,L|384:140,1,85,8|10,0:0|0:0,0:0:0:0:
216,32,99055,6,0,L|44:24,1,170,2|0,0:0|0:0,0:0:0:0:
8,120,99383,1,8,0:0:0:0:
100,248,99493,2,0,P|108:208|100:164,1,85,8|0,0:0|0:0,0:0:0:0:
8,344,99712,2,0,L|104:336,1,85,8|8,0:0|0:0,0:0:0:0:
256,324,99931,6,0,L|256:224,1,85,4|0,0:0|0:0,0:0:0:0:
256,136,100149,1,2,0:0:0:0:
256,136,100259,1,0,0:0:0:0:
348,176,100368,2,0,P|356:136|348:92,1,85,2|0,0:0|0:0,0:0:0:0:
163,92,100587,2,0,P|155:134|164:176,1,85,2|0,0:0|0:0,0:0:0:0:
364,280,100806,6,0,P|432:244|452:156,1,170,4|0,0:0|0:0,0:0:0:0:
59,158,101244,2,0,P|76:239|148:280,1,170,12|0,0:0|0:0,0:0:0:0:
340,44,101682,2,0,B|288:52|256:68|256:68|224:52|172:44,1,170,4|0,0:0|0:0,0:0:0:0:
177,339,102120,2,0,B|224:332|256:316|256:316|288:332|340:340,1,170,12|0,0:0|0:0,0:0:0:0:
59,158,102558,5,8,0:0:0:0:
59,158,102668,1,8,0:0:0:0:
152,196,102777,2,0,P|160:156|152:112,1,85,8|8,0:0|0:0,0:0:0:0:
112,288,102996,2,0,P|152:296|196:288,1,85,8|8,0:0|0:0,0:0:0:0:
256,204,103215,1,8,0:0:0:0:
256,204,103325,1,0,0:0:0:0:
316,288,103434,1,4,0:0:0:0:
316,288,103544,2,0,P|400:300|472:228,1,170,4|0,0:0|0:0,0:0:0:0:
488,152,103872,1,10,0:0:0:0:
476,148,103927,1,0,0:0:0:0:
464,144,103982,1,10,0:0:0:0:
452,140,104036,1,0,0:0:0:0:
440,136,104091,2,0,L|348:132,1,85,2|2,0:0|0:0,0:0:0:0:
256,24,104310,5,4,0:0:0:0:
256,360,104967,1,0,0:0:0:0:
256,360,105076,2,0,P|220:368|188:360,1,68,4|0,0:0|0:0,0:0:0:0:
116,324,105295,2,0,L|108:116,1,204,0|0,0:0|0:0,0:0:0:0:
256,48,105843,1,0,0:0:0:0:
404,120,106062,5,4,0:0:0:0:
404,120,106500,1,0,0:0:0:0:
404,120,106609,2,0,L|412:204,1,68,0|0,0:0|0:0,0:0:0:0:
420,268,106828,2,0,P|328:308|236:268,1,204,4|0,0:0|0:0,0:0:0:0:
488,64,107814,6,0,P|392:28|296:64,1,204,4|0,0:0|0:0,0:0:0:0:
256,128,108252,2,0,P|161:160|68:124,1,204,8|0,0:0|0:0,0:0:0:0:
28,52,108690,1,4,0:0:0:0:
88,276,108909,1,0,0:0:0:0:
156,20,109128,1,8,0:0:0:0:
156,20,109785,5,8,0:0:0:0:
88,276,110004,1,0,0:0:0:0:
28,52,110222,1,0,0:0:0:0:
256,112,110441,2,0,P|324:128|388:112,1,136,0|0,0:0|0:0,0:0:0:0:
440,48,110770,1,0,0:0:0:0:
504,96,110879,2,0,L|508:184,1,68,8|8,0:0|0:0,0:0:0:0:
420,264,111098,2,0,L|423:196,1,68,8|8,0:0|0:0,0:0:0:0:
468,352,111317,6,0,P|420:364|372:352,1,97.7500018644333,4|0,0:0|0:0,0:0:0:0:
208,264,111536,2,0,P|256:252|302:262,1,97.7500018644333,8|0,0:0|0:0,0:0:0:0:
138,353,111755,2,0,P|90:363|44:352,1,97.7500018644333,0|0,0:0|0:0,0:0:0:0:
4,264,111974,1,8,0:0:0:0:
0,164,112084,6,0,P|84:128|180:164,1,195.500003728867,4|0,0:0|0:0,0:0:0:0:
256,224,112412,1,8,0:0:0:0:
332,288,112522,2,0,P|421:321|509:285,1,195.500003728867,4|0,0:0|0:0,0:0:0:0:
412,120,112850,2,0,P|400:167|413:214,1,97.7500018644333,8|0,0:0|0:0,0:0:0:0:
472,32,113069,6,0,L|352:24,1,97.7500018644333,0|0,0:0|0:0,0:0:0:0:
308,100,113288,2,0,L|188:92,1,97.7500018644333,8|0,0:0|0:0,0:0:0:0:
72,36,113507,2,0,L|65:133,1,97.7500018644333,0|0,0:0|0:0,0:0:0:0:
140,200,113726,2,0,L|133:297,1,97.7500018644333,8|0,0:0|0:0,0:0:0:0:
256,372,113945,5,0,0:0:0:0:
256,80,114164,1,0,0:0:0:0:
132,296,114383,1,2,0:0:0:0:
380,296,114602,1,2,0:0:0:0:
380,296,114712,2,0,P|476:248|484:156,1,195.500003728867,2|0,0:0|0:0,0:0:0:0:
444,60,115040,6,0,L|296:52,1,136,2|0,0:0|0:0,0:0:0:0:
68,148,115478,2,0,L|216:140,1,136,0|0,0:0|0:0,0:0:0:0:
368,228,115916,2,0,L|364:364,2,136,2|2|2,0:0|0:0|0:0,0:0:0:0:
444,60,116573,6,0,P|368:96|280:72,1,170,4|0,0:0|0:0,0:0:0:0:
192,40,116901,2,0,P|110:21|35:57,1,170,4|0,0:0|0:0,0:0:0:0:
0,156,117230,2,0,L|16:336,1,170,4|0,0:0|0:0,0:0:0:0:
112,364,117558,6,0,B|144:348|176:364|176:364|208:348|240:364|240:364|276:348|312:364,1,204,0|2,0:0|0:0,0:0:0:0:
308,362,118325,6,0,P|392:332|420:260,1,170,4|8,0:0|0:0,0:0:0:0:
416,160,118653,1,4,0:0:0:0:
316,176,118763,2,0,P|308:220|316:260,2,85,0|0|8,0:0|0:0|0:0,0:0:0:0:
412,56,119091,2,0,P|336:84|256:56,1,170,0|0,0:0|0:0,0:0:0:0:
204,144,119420,2,0,P|125:115|47:143,1,170,8|0,0:0|0:0,0:0:0:0:
32,244,119748,1,0,0:0:0:0:
84,332,119858,2,0,P|124:340|168:332,1,85,8|0,0:0|0:0,0:0:0:0:
296,228,120076,6,0,P|256:220|212:228,1,85,4|0,0:0|0:0,0:0:0:0:
344,332,120295,2,0,P|396:288|400:184,1,170,8|0,0:0|0:0,0:0:0:0:
108,191,120624,2,0,P|108:274|168:332,1,170,0|0,0:0|0:0,0:0:0:0:
336,92,120952,6,0,P|256:60|180:92,1,170,0|8,0:0|0:0,0:0:0:0:
296,228,121281,2,0,L|468:220,1,170,0|0,0:0|0:0,0:0:0:0:
216,352,121609,2,0,L|116:340,1,85,8|0,0:0|0:0,0:0:0:0:
32,324,121828,5,4,0:0:0:0:
296,264,122047,6,0,L|396:252,1,85,0|0,0:0|0:0,0:0:0:0:
480,236,122266,1,4,0:0:0:0:
216,188,122485,6,0,L|116:176,1,85,0|0,0:0|0:0,0:0:0:0:
32,160,122704,1,4,0:0:0:0:
296,100,122923,6,0,L|396:88,1,85,0|0,0:0|0:0,0:0:0:0:
480,72,123142,1,4,0:0:0:0:
296,264,123361,1,0,0:0:0:0:
216,16,123580,6,0,L|40:28,1,170,4|0,0:0|0:0,0:0:0:0:
4,120,123909,2,0,P|-16:196|4:288,2,170,0|0|8,0:0|0:0|0:0,0:0:0:0:
192,200,124566,1,0,0:0:0:0:
320,40,124785,1,8,0:0:0:0:
508,120,125004,1,0,0:0:0:0:
508,120,125113,2,0,L|500:212,1,85,0|8,0:0|0:0,0:0:0:0:
384,292,125332,6,0,L|376:207,1,85,8|8,0:0|0:0,0:0:0:0:
256,128,125551,2,0,L|248:220,1,85,8|8,0:0|0:0,0:0:0:0:
128,292,125770,1,2,0:0:0:0:
112,288,125825,1,0,0:0:0:0:
96,284,125879,1,2,0:0:0:0:
80,280,125934,1,0,0:0:0:0:
64,276,125989,2,0,L|16:264,4,42.5,2|0|2|0|12,0:0|0:0|0:0|0:0|0:0,0:0:0:0:
108,184,126317,1,4,0:0:0:0:
108,184,127084,6,0,L|104:72,1,97.7500018644333,4|0,0:0|0:0,0:0:0:0:
8,20,127303,1,8,0:0:0:0:
8,20,127412,1,2,0:0:0:0:
208,112,127522,2,0,P|256:120|304:112,1,97.7500018644333,2|0,0:0|0:0,0:0:0:0:
404,52,127741,1,8,0:0:0:0:
404,52,127850,1,0,0:0:0:0:
436,248,127960,6,0,L|428:372,1,97.7500018644333,2|0,0:0|0:0,0:0:0:0:
178,257,128179,2,0,L|172:160,1,97.7500018644333,8|2,0:0|0:0,0:0:0:0:
340,160,128398,2,0,L|333:257,1,97.7500018644333,0|0,0:0|0:0,0:0:0:0:
82,345,128617,2,0,L|76:248,1,97.7500018644333,10|0,0:0|0:0,0:0:0:0:
24,88,128836,6,0,P|72:96|120:88,1,97.7500018644333,4|0,0:0|0:0,0:0:0:0:
304,20,129055,2,0,P|256:12|208:20,1,97.7500018644333,8|2,0:0|0:0,0:0:0:0:
392,88,129274,2,0,P|440:96|488:88,2,97.7500018644333,2|2|8,0:0|0:0|0:0,0:0:0:0:
284,132,129602,1,0,0:0:0:0:
372,304,129712,6,0,L|376:188,1,97.7500018644333,2|0,0:0|0:0,0:0:0:0:
136,206,129931,2,0,L|140:304,1,97.7500018644333,8|2,0:0|0:0,0:0:0:0:
188,108,130149,2,0,P|140:96|88:108,1,97.7500018644333,0|0,0:0|0:0,0:0:0:0:
256,200,130368,1,10,0:0:0:0:
256,12,130478,1,0,0:0:0:0:
416,104,130587,6,0,P|440:196|416:292,1,195.500003728867,4|0,0:0|0:0,0:0:0:0:
95,291,131025,2,0,P|71:197|96:104,1,195.500003728867,4|0,0:0|0:0,0:0:0:0:
352,344,131463,2,0,B|296:336|256:360|256:360|216:336|160:344,1,195.500003728867,4|0,0:0|0:0,0:0:0:0:
163,40,131901,2,0,B|216:48|256:24|256:24|296:48|352:40,1,195.500003728867,4|0,0:0|0:0,0:0:0:0:
424,12,132193,2,0,P|456:12|488:28,1,65.1666679096222,0|0,0:0|0:0,0:0:0:0:
508,104,132339,6,0,L|500:304,1,195.500003728867,4|0,0:0|0:0,0:0:0:0:
152,348,132668,2,0,L|144:152,1,195.500003728867,4|0,0:0|0:0,0:0:0:0:
367,152,132996,2,0,L|360:348,1,195.500003728867,4|0,0:0|0:0,0:0:0:0:
11,299,133325,2,0,L|4:104,1,195.500003728867,4|0,0:0|0:0,0:0:0:0:
256,96,133653,6,0,L|256:200,1,97.7500018644333,4|0,0:0|0:0,0:0:0:0:
152,348,133872,2,0,P|144:300|152:252,1,97.7500018644333,4|0,0:0|0:0,0:0:0:0:
360,252,134091,6,0,P|368:300|360:348,2,97.7500018644333,4|0|0,0:0|0:0|0:0,0:0:0:0:
160,156,134420,2,0,L|56:148,2,97.7500018644333,4|0|0,0:0|0:0|0:0,0:0:0:0:
352,36,134748,1,4,0:0:0:0:
352,36,134858,1,2,0:0:0:0:
256,304,135186,6,0,L|256:348,22,24.4375004661083,0|0|0|0|0|0|0|0|0|0|0|0|0|0|0|0|0|0|0|0|0|0|0,0:0|0:0|0:0|0:0|0:0|0:0|0:0|0:0|0:0|0:0|0:0|0:0|0:0|0:0|0:0|0:0|0:0|0:0|0:0|0:0|0:0|0:0|0:0,0:0:0:0:
256,244,135843,5,4,0:0:0:0:
256,192,135898,12,4,140222,0:0:0:0:
