osu file format v14

[General]
AudioFilename: Ten, Sen, Men, Rittai.mp3
AudioLeadIn: 0
PreviewTime: -1
Countdown: 0
SampleSet: Soft
StackLeniency: 0.7
Mode: 3
LetterboxInBreaks: 0
SpecialStyle: 0
WidescreenStoryboard: 1

[Editor]
DistanceSpacing: 1.2
BeatDivisor: 12
GridSize: 16
TimelineZoom: 1.6

[Metadata]
Title:Ten, Sen, Men, Rittai
TitleUnicode:點、線、面、立體
Artist:sound piercer
ArtistUnicode:sound piercer
Creator:c36098651
Version:NOODLE_Rittai
Source:BMS
Tags:
BeatmapID:759054
BeatmapSetID:343569

[Difficulty]
HPDrainRate:8
CircleSize:7
OverallDifficulty:0
ApproachRate:5
SliderMultiplier:1.4
SliderTickRate:1

[Events]
//Background and Video events
0,0,"_title.jpg",0,0
//Break Periods
//Storyboard Layer 0 (Background)
//Storyboard Layer 1 (Fail)
//Storyboard Layer 2 (Pass)
//Storyboard Layer 3 (Foreground)
//Storyboard Sound Samples

[TimingPoints]
1935,483.870967741935,4,2,0,0,1,0
16934,10000000,4,2,0,0,1,0
17176,483.870967741935,4,2,0,0,1,0
17902,10000000,4,2,0,0,1,0
18144,483.870967741935,4,2,0,0,1,0
18870,10000000,4,2,0,0,1,0
19112,483.870967741935,4,2,0,0,1,0
19838,10000000,4,2,0,0,1,0
20080,483.870967741935,4,2,0,0,1,0
20805,10000000,4,2,0,0,1,0
21047,483.870967741935,4,2,0,0,1,0
24676,10000000,4,2,0,0,1,0
24918,483.870967741935,4,2,0,0,1,0
31934,10000000,4,2,0,0,1,0
32781,483.870967741935,4,2,0,0,1,0
33385,483.870967741935,4,2,0,0,1,0
44031,10000000,4,2,0,0,1,0
44273,483.870967741935,4,2,0,0,1,0
44514,483.870967741935,4,2,0,0,1,0
77418,10000000,4,2,0,0,1,0
78386,483.870967741935,4,2,0,0,1,0
79353,483.870967741935,4,2,0,0,1,0

[HitObjects]
36,192,1935,128,0,2297:0:0:0:0:
182,192,1935,128,0,2176:0:0:0:0:
256,192,1935,1,0,0:0:0:0:0
402,192,1935,1,0,0:0:0:0:0
329,192,2055,128,0,2297:0:0:0:0:
475,192,2176,128,0,2297:0:0:0:0:
256,192,2176,128,0,2418:0:0:0:0:
109,192,2176,128,0,2297:0:0:0:0:
402,192,2176,128,0,2418:0:0:0:0:
182,192,2297,128,0,2539:0:0:0:0:
36,192,2418,128,0,2781:0:0:0:0:
109,192,2418,128,0,2660:0:0:0:0:
329,192,2418,128,0,2539:0:0:0:0:
475,192,2418,128,0,2781:0:0:0:0:
402,192,2539,128,0,2781:0:0:0:0:
256,192,2539,128,0,2660:0:0:0:0:
182,192,2660,128,0,2781:0:0:0:0:
329,192,2660,128,0,2902:0:0:0:0:
109,192,2781,128,0,3023:0:0:0:0:
256,192,2781,128,0,3023:0:0:0:0:
36,192,2902,128,0,3265:0:0:0:0:
475,192,2902,128,0,3023:0:0:0:0:
182,192,2902,128,0,3144:0:0:0:0:
402,192,2902,128,0,3023:0:0:0:0:
329,192,3023,128,0,3265:0:0:0:0:
475,192,3144,128,0,3265:0:0:0:0:
256,192,3144,128,0,3386:0:0:0:0:
402,192,3144,128,0,3386:0:0:0:0:
109,192,3144,128,0,3265:0:0:0:0:
182,192,3265,128,0,3507:0:0:0:0:
36,192,3386,128,0,3749:0:0:0:0:
329,192,3386,128,0,3507:0:0:0:0:
475,192,3386,128,0,3749:0:0:0:0:
109,192,3386,128,0,3628:0:0:0:0:
402,192,3507,128,0,3749:0:0:0:0:
256,192,3507,128,0,3628:0:0:0:0:
329,192,3628,128,0,3870:0:0:0:0:
182,192,3628,128,0,3749:0:0:0:0:
109,192,3749,128,0,3991:0:0:0:0:
256,192,3749,128,0,3991:0:0:0:0:
36,192,3870,128,0,4233:0:0:0:0:
182,192,3870,128,0,4112:0:0:0:0:
475,192,3870,128,0,3991:0:0:0:0:
402,192,3870,128,0,3991:0:0:0:0:
329,192,3991,128,0,4233:0:0:0:0:
256,192,4112,128,0,4354:0:0:0:0:
109,192,4112,128,0,4233:0:0:0:0:
475,192,4112,128,0,4233:0:0:0:0:
402,192,4112,128,0,4354:0:0:0:0:
182,192,4233,128,0,4475:0:0:0:0:
36,192,4354,128,0,4717:0:0:0:0:
329,192,4354,128,0,4475:0:0:0:0:
109,192,4354,128,0,4596:0:0:0:0:
475,192,4354,128,0,4717:0:0:0:0:
256,192,4475,128,0,4596:0:0:0:0:
402,192,4475,128,0,4717:0:0:0:0:
182,192,4596,128,0,4717:0:0:0:0:
329,192,4596,128,0,4838:0:0:0:0:
109,192,4717,128,0,4959:0:0:0:0:
256,192,4717,128,0,4959:0:0:0:0:
36,192,4838,128,0,5201:0:0:0:0:
402,192,4838,128,0,4959:0:0:0:0:
182,192,4838,128,0,5080:0:0:0:0:
475,192,4838,128,0,4959:0:0:0:0:
329,192,4959,128,0,5201:0:0:0:0:
402,192,5080,128,0,5201:0:0:0:0:
256,192,5080,128,0,5201:0:0:0:0:
109,192,5080,128,0,5201:0:0:0:0:
475,192,5080,128,0,5201:0:0:0:0:
182,192,5201,128,0,5805:0:0:0:0:
36,192,5322,128,0,5684:0:0:0:0:
109,192,5322,128,0,5926:0:0:0:0:
256,192,5322,128,0,5684:0:0:0:0:
475,192,5322,128,0,5684:0:0:0:0:
402,192,5322,128,0,5926:0:0:0:0:
329,192,5322,128,0,5684:0:0:0:0:
36,192,5805,128,0,6168:0:0:0:0:
475,192,5805,128,0,5926:0:0:0:0:
329,192,5805,128,0,6047:0:0:0:0:
256,192,5805,128,0,5926:0:0:0:0:
182,192,5926,128,0,6168:0:0:0:0:
402,192,6047,128,0,6531:0:0:0:0:
475,192,6047,128,0,6652:0:0:0:0:
109,192,6047,128,0,6289:0:0:0:0:
256,192,6047,128,0,6289:0:0:0:0:
329,192,6168,128,0,6410:0:0:0:0:
36,192,6289,128,0,6652:0:0:0:0:
182,192,6289,128,0,6410:0:0:0:0:
256,192,6410,128,0,6531:0:0:0:0:
109,192,6410,128,0,6652:0:0:0:0:
182,192,6531,128,0,6652:0:0:0:0:
329,192,6531,128,0,6773:0:0:0:0:
256,192,6652,128,0,6894:0:0:0:0:
402,192,6652,128,0,6894:0:0:0:0:
36,192,6773,128,0,6894:0:0:0:0:
182,192,6773,128,0,6894:0:0:0:0:
475,192,6773,128,0,7015:0:0:0:0:
109,192,6773,128,0,7257:0:0:0:0:
329,192,6894,128,0,7136:0:0:0:0:
36,192,7015,128,0,7136:0:0:0:0:
256,192,7015,128,0,7257:0:0:0:0:
182,192,7015,128,0,7136:0:0:0:0:
402,192,7015,128,0,7136:0:0:0:0:
475,192,7136,128,0,7620:0:0:0:0:
36,192,7257,128,0,7620:0:0:0:0:
329,192,7257,128,0,7378:0:0:0:0:
402,192,7257,128,0,7499:0:0:0:0:
182,192,7257,128,0,7378:0:0:0:0:
109,192,7378,128,0,7862:0:0:0:0:
256,192,7378,128,0,7499:0:0:0:0:
329,192,7499,128,0,7620:0:0:0:0:
182,192,7499,128,0,7620:0:0:0:0:
402,192,7620,128,0,7983:0:0:0:0:
256,192,7620,128,0,7741:0:0:0:0:
36,192,7741,128,0,8104:0:0:0:0:
182,192,7741,128,0,7862:0:0:0:0:
329,192,7741,128,0,7862:0:0:0:0:
475,192,7741,128,0,7862:0:0:0:0:
256,192,7862,128,0,8225:0:0:0:0:
329,192,7983,128,0,8104:0:0:0:0:
182,192,7983,128,0,8104:0:0:0:0:
475,192,7983,128,0,8104:0:0:0:0:
109,192,7983,128,0,8225:0:0:0:0:
402,192,8104,128,0,8467:0:0:0:0:
329,192,8225,128,0,8346:0:0:0:0:
182,192,8225,128,0,8346:0:0:0:0:
36,192,8225,128,0,8588:0:0:0:0:
475,192,8225,128,0,8588:0:0:0:0:
256,192,8346,128,0,8467:0:0:0:0:
109,192,8346,128,0,8588:0:0:0:0:
182,192,8467,128,0,8830:0:0:0:0:
329,192,8467,128,0,8588:0:0:0:0:
402,192,8588,128,0,8830:0:0:0:0:
256,192,8588,128,0,8709:0:0:0:0:
109,192,8709,128,0,9072:0:0:0:0:
329,192,8709,128,0,8830:0:0:0:0:
36,192,8709,128,0,8830:0:0:0:0:
475,192,8709,128,0,9193:0:0:0:0:
256,192,8830,128,0,8951:0:0:0:0:
402,192,8951,128,0,9072:0:0:0:0:
329,192,8951,128,0,9072:0:0:0:0:
182,192,8951,128,0,9072:0:0:0:0:
36,192,8951,128,0,9072:0:0:0:0:
256,192,9072,128,0,9555:0:0:0:0:
36,192,9193,128,0,9555:0:0:0:0:
109,192,9193,128,0,9434:0:0:0:0:
329,192,9193,128,0,9434:0:0:0:0:
402,192,9193,128,0,9555:0:0:0:0:
182,192,9193,128,0,9555:0:0:0:0:
109,192,9555,128,0,9797:0:0:0:0:
329,192,9555,128,0,9676:0:0:0:0:
402,192,9676,128,0,9797:0:0:0:0:
36,192,9676,128,0,9797:0:0:0:0:
256,192,9676,128,0,9797:0:0:0:0:
475,192,9676,128,0,9797:0:0:0:0:
182,192,9676,128,0,9918:0:0:0:0:
329,192,9797,128,0,10039:0:0:0:0:
402,192,9918,128,0,10160:0:0:0:0:
36,192,9918,128,0,10039:0:0:0:0:
475,192,9918,128,0,10039:0:0:0:0:
256,192,9918,128,0,10039:0:0:0:0:
109,192,9918,128,0,10039:0:0:0:0:
182,192,10039,128,0,10281:0:0:0:0:
36,192,10160,128,0,10281:0:0:0:0:
329,192,10160,128,0,10281:0:0:0:0:
256,192,10160,128,0,10281:0:0:0:0:
109,192,10160,128,0,10402:0:0:0:0:
475,192,10160,128,0,10281:0:0:0:0:
402,192,10281,128,0,10523:0:0:0:0:
475,192,10402,128,0,10644:0:0:0:0:
36,192,10402,128,0,10523:0:0:0:0:
256,192,10402,128,0,10523:0:0:0:0:
182,192,10402,128,0,10523:0:0:0:0:
329,192,10402,128,0,10523:0:0:0:0:
109,192,10523,128,0,10765:0:0:0:0:
402,192,10644,128,0,10765:0:0:0:0:
182,192,10644,128,0,10765:0:0:0:0:
256,192,10644,128,0,10765:0:0:0:0:
329,192,10644,128,0,10765:0:0:0:0:
36,192,10644,128,0,10886:0:0:0:0:
475,192,10765,128,0,11128:0:0:0:0:
182,192,10886,128,0,11007:0:0:0:0:
402,192,10886,128,0,11128:0:0:0:0:
109,192,10886,128,0,11007:0:0:0:0:
256,192,10886,128,0,11007:0:0:0:0:
329,192,10886,128,0,11128:0:0:0:0:
36,192,11007,128,0,11249:0:0:0:0:
256,192,11128,128,0,11249:0:0:0:0:
109,192,11128,128,0,11370:0:0:0:0:
182,192,11128,128,0,11249:0:0:0:0:
402,192,11249,128,0,11491:0:0:0:0:
182,192,11370,128,0,11491:0:0:0:0:
36,192,11370,128,0,11491:0:0:0:0:
256,192,11370,128,0,11612:0:0:0:0:
109,192,11491,128,0,11733:0:0:0:0:
475,192,11612,128,0,11733:0:0:0:0:
402,192,11612,128,0,11733:0:0:0:0:
36,192,11612,128,0,11733:0:0:0:0:
182,192,11612,128,0,11733:0:0:0:0:
329,192,11612,128,0,11854:0:0:0:0:
256,192,11733,128,0,11975:0:0:0:0:
36,192,11854,128,0,11975:0:0:0:0:
402,192,11854,128,0,11975:0:0:0:0:
182,192,11854,128,0,11975:0:0:0:0:
475,192,11854,128,0,11975:0:0:0:0:
109,192,11854,128,0,12096:0:0:0:0:
329,192,11975,128,0,12338:0:0:0:0:
36,192,12096,128,0,12217:0:0:0:0:
256,192,12096,128,0,12217:0:0:0:0:
182,192,12096,128,0,12217:0:0:0:0:
402,192,12096,128,0,12217:0:0:0:0:
475,192,12096,128,0,12217:0:0:0:0:
109,192,12217,128,0,12459:0:0:0:0:
36,192,12338,128,0,12459:0:0:0:0:
402,192,12338,128,0,12459:0:0:0:0:
182,192,12338,128,0,12580:0:0:0:0:
256,192,12338,128,0,12459:0:0:0:0:
475,192,12338,128,0,12459:0:0:0:0:
329,192,12459,128,0,12701:0:0:0:0:
36,192,12580,128,0,12822:0:0:0:0:
402,192,12580,128,0,12701:0:0:0:0:
256,192,12580,128,0,12701:0:0:0:0:
475,192,12580,128,0,12701:0:0:0:0:
109,192,12580,128,0,12701:0:0:0:0:
182,192,12701,128,0,13063:0:0:0:0:
329,192,12822,128,0,13064:0:0:0:0:
402,192,12822,128,0,12943:0:0:0:0:
475,192,12822,128,0,13064:0:0:0:0:
256,192,12822,128,0,12943:0:0:0:0:
109,192,12822,128,0,12943:0:0:0:0:
36,192,12943,128,0,13184:0:0:0:0:
109,192,13064,128,0,13305:0:0:0:0:
402,192,13064,1,0,0:0:0:0:0
256,192,13064,1,0,0:0:0:0:0
182,192,13184,128,0,13426:0:0:0:0:
36,192,13305,128,0,13426:0:0:0:0:
402,192,13305,128,0,13426:0:0:0:0:
256,192,13305,128,0,13547:0:0:0:0:
109,192,13426,128,0,13668:0:0:0:0:
36,192,13547,128,0,13668:0:0:0:0:
475,192,13547,128,0,13668:0:0:0:0:
182,192,13547,128,0,13668:0:0:0:0:
402,192,13547,128,0,13789:0:0:0:0:
329,192,13547,128,0,13668:0:0:0:0:
256,192,13668,128,0,13910:0:0:0:0:
36,192,13789,128,0,13910:0:0:0:0:
182,192,13789,128,0,14031:0:0:0:0:
329,192,13789,128,0,13910:0:0:0:0:
109,192,13789,128,0,13910:0:0:0:0:
475,192,13789,128,0,13910:0:0:0:0:
402,192,13910,128,0,14273:0:0:0:0:
109,192,14031,128,0,14152:0:0:0:0:
329,192,14031,128,0,14152:0:0:0:0:
36,192,14031,128,0,14152:0:0:0:0:
475,192,14031,128,0,14152:0:0:0:0:
256,192,14031,128,0,14152:0:0:0:0:
182,192,14152,128,0,14394:0:0:0:0:
36,192,14273,128,0,14515:0:0:0:0:
475,192,14273,128,0,14394:0:0:0:0:
109,192,14273,128,0,14394:0:0:0:0:
329,192,14273,128,0,14394:0:0:0:0:
256,192,14273,128,0,14394:0:0:0:0:
402,192,14394,128,0,14636:0:0:0:0:
109,192,14515,128,0,14636:0:0:0:0:
182,192,14515,128,0,14636:0:0:0:0:
475,192,14515,128,0,14636:0:0:0:0:
256,192,14515,128,0,14757:0:0:0:0:
329,192,14515,128,0,14636:0:0:0:0:
36,192,14636,128,0,14878:0:0:0:0:
402,192,14757,128,0,14878:0:0:0:0:
109,192,14757,128,0,14999:0:0:0:0:
329,192,14757,128,0,14999:0:0:0:0:
475,192,14757,128,0,14999:0:0:0:0:
182,192,14757,128,0,14878:0:0:0:0:
256,192,14878,128,0,15120:0:0:0:0:
36,192,14999,128,0,15120:0:0:0:0:
182,192,14999,128,0,15241:0:0:0:0:
402,192,14999,128,0,15120:0:0:0:0:
109,192,15120,128,0,15362:0:0:0:0:
36,192,15241,128,0,15483:0:0:0:0:
256,192,15241,128,0,15362:0:0:0:0:
402,192,15241,128,0,15362:0:0:0:0:
182,192,15362,128,0,15604:0:0:0:0:
329,192,15483,128,0,15604:0:0:0:0:
256,192,15483,128,0,15604:0:0:0:0:
402,192,15483,128,0,15725:0:0:0:0:
475,192,15483,128,0,15604:0:0:0:0:
109,192,15483,128,0,15604:0:0:0:0:
36,192,15604,128,0,15846:0:0:0:0:
475,192,15725,128,0,15846:0:0:0:0:
182,192,15725,128,0,15967:0:0:0:0:
329,192,15725,128,0,15846:0:0:0:0:
256,192,15725,128,0,15846:0:0:0:0:
109,192,15725,128,0,15846:0:0:0:0:
402,192,15846,128,0,16088:0:0:0:0:
36,192,15967,128,0,16088:0:0:0:0:
109,192,15967,128,0,16088:0:0:0:0:
329,192,15967,128,0,16088:0:0:0:0:
475,192,15967,128,0,16088:0:0:0:0:
256,192,15967,128,0,16209:0:0:0:0:
182,192,16088,128,0,16330:0:0:0:0:
36,192,16209,128,0,16330:0:0:0:0:
475,192,16209,128,0,16451:0:0:0:0:
329,192,16209,128,0,16330:0:0:0:0:
109,192,16209,128,0,16330:0:0:0:0:
402,192,16209,128,0,16330:0:0:0:0:
256,192,16330,128,0,16572:0:0:0:0:
36,192,16451,128,0,16572:0:0:0:0:
182,192,16451,128,0,16572:0:0:0:0:
109,192,16451,128,0,16693:0:0:0:0:
329,192,16451,128,0,16572:0:0:0:0:
402,192,16451,128,0,16572:0:0:0:0:
475,192,16572,128,0,16813:0:0:0:0:
36,192,16693,1,0,0:0:0:0:0
182,192,16693,1,0,0:0:0:0:0
256,192,16693,1,0,0:0:0:0:0
329,192,16693,1,0,0:0:0:0:0
402,192,16693,1,0,0:0:0:0:0
109,192,16814,128,0,17296:0:0:0:0:
475,192,16934,1,0,0:0:0:0:0
256,192,16934,1,0,0:0:0:0:0
182,192,16934,1,0,0:0:0:0:0
36,192,16934,1,0,0:0:0:0:0
402,192,16934,1,0,0:0:0:0:0
329,192,16934,1,0,0:0:0:0:0
475,192,17417,128,0,17659:0:0:0:0:
109,192,17417,128,0,17780:0:0:0:0:
329,192,17417,128,0,17659:0:0:0:0:
36,192,17780,128,0,18749:0:0:0:0:
475,192,17780,128,0,18264:0:0:0:0:
329,192,17780,128,0,18749:0:0:0:0:
182,192,17780,128,0,18748:0:0:0:0:
256,192,17901,128,0,18264:0:0:0:0:
402,192,17901,128,0,18627:0:0:0:0:
109,192,17901,128,0,18264:0:0:0:0:
475,192,18385,128,0,18749:0:0:0:0:
109,192,18385,128,0,18627:0:0:0:0:
256,192,18385,128,0,18627:0:0:0:0:
109,192,18748,128,0,19716:0:0:0:0:
402,192,18748,128,0,19717:0:0:0:0:
256,192,18748,128,0,19595:0:0:0:0:
182,192,18869,128,0,19232:0:0:0:0:
475,192,18870,1,0,0:0:0:0:0
36,192,18870,1,0,0:0:0:0:0
329,192,18870,1,0,0:0:0:0:0
475,192,19353,128,0,19595:0:0:0:0:
36,192,19353,128,0,19716:0:0:0:0:
182,192,19353,128,0,19595:0:0:0:0:
182,192,19716,128,0,20684:0:0:0:0:
475,192,19716,128,0,20684:0:0:0:0:
256,192,19716,128,0,20200:0:0:0:0:
109,192,19837,128,0,20563:0:0:0:0:
36,192,19837,128,0,20200:0:0:0:0:
329,192,19838,1,0,0:0:0:0:0
402,192,19838,1,0,0:0:0:0:0
402,192,20321,128,0,20563:0:0:0:0:
256,192,20321,128,0,20684:0:0:0:0:
36,192,20321,128,0,20563:0:0:0:0:
36,192,20684,128,0,21167:0:0:0:0:
109,192,20684,128,0,24071:0:0:0:0:
329,192,20684,128,0,22135:0:0:0:0:
402,192,20684,128,0,23103:0:0:0:0:
475,192,20805,1,0,0:0:0:0:0
182,192,20805,1,0,0:0:0:0:0
256,192,20805,1,0,0:0:0:0:0
182,192,21288,128,0,21530:0:0:0:0:
36,192,21288,128,0,21651:0:0:0:0:
475,192,21288,128,0,21409:0:0:0:0:
256,192,21288,128,0,21651:0:0:0:0:
475,192,21530,128,0,21651:0:0:0:0:
182,192,21651,128,0,22135:0:0:0:0:
36,192,21772,128,0,21893:0:0:0:0:
256,192,21772,128,0,22498:0:0:0:0:
475,192,21772,128,0,22135:0:0:0:0:
36,192,22014,128,0,22135:0:0:0:0:
36,192,22256,128,0,22619:0:0:0:0:
329,192,22256,128,0,23587:0:0:0:0:
182,192,22256,128,0,22619:0:0:0:0:
475,192,22256,128,0,22377:0:0:0:0:
475,192,22498,128,0,22619:0:0:0:0:
256,192,22619,128,0,23466:0:0:0:0:
36,192,22740,128,0,22861:0:0:0:0:
182,192,22740,128,0,23103:0:0:0:0:
475,192,22740,128,0,23103:0:0:0:0:
36,192,22982,128,0,23103:0:0:0:0:
36,192,23224,128,0,23587:0:0:0:0:
402,192,23224,128,0,24555:0:0:0:0:
475,192,23224,128,0,23345:0:0:0:0:
182,192,23224,128,0,24434:0:0:0:0:
475,192,23466,128,0,23587:0:0:0:0:
256,192,23587,128,0,24555:0:0:0:0:
36,192,23708,128,0,23829:0:0:0:0:
475,192,23708,128,0,24071:0:0:0:0:
329,192,23708,128,0,24071:0:0:0:0:
36,192,23950,128,0,24071:0:0:0:0:
36,192,24192,128,0,24555:0:0:0:0:
475,192,24192,128,0,24313:0:0:0:0:
329,192,24192,128,0,25038:0:0:0:0:
109,192,24192,128,0,24555:0:0:0:0:
475,192,24434,128,0,25401:0:0:0:0:
182,192,24555,128,0,25159:0:0:0:0:
36,192,24676,1,0,0:0:0:0:0
256,192,24676,1,0,0:0:0:0:0
402,192,24676,1,0,0:0:0:0:0
109,192,24676,1,0,0:0:0:0:0
36,192,25159,128,0,25401:0:0:0:0:
329,192,25159,128,0,25280:0:0:0:0:
109,192,25401,128,0,25522:0:0:0:0:
329,192,25401,128,0,25522:0:0:0:0:
36,192,25522,128,0,25764:0:0:0:0:
475,192,25522,128,0,25764:0:0:0:0:
256,192,25522,128,0,25764:0:0:0:0:
182,192,25643,128,0,26006:0:0:0:0:
329,192,25643,128,0,26127:0:0:0:0:
402,192,25643,128,0,26248:0:0:0:0:
109,192,25643,128,0,26127:0:0:0:0:
36,192,25885,128,0,26369:0:0:0:0:
256,192,25885,128,0,26248:0:0:0:0:
475,192,25885,128,0,26006:0:0:0:0:
182,192,26127,128,0,26369:0:0:0:0:
475,192,26127,128,0,26369:0:0:0:0:
402,192,26369,128,0,26490:0:0:0:0:
256,192,26369,128,0,26490:0:0:0:0:
36,192,26490,128,0,26732:0:0:0:0:
182,192,26490,128,0,26732:0:0:0:0:
475,192,26490,128,0,26732:0:0:0:0:
329,192,26611,128,0,27216:0:0:0:0:
402,192,26611,128,0,26974:0:0:0:0:
256,192,26611,128,0,27095:0:0:0:0:
109,192,26611,128,0,26974:0:0:0:0:
36,192,26853,128,0,27337:0:0:0:0:
182,192,26853,128,0,27216:0:0:0:0:
475,192,26853,128,0,27095:0:0:0:0:
109,192,27095,128,0,27337:0:0:0:0:
402,192,27095,128,0,27337:0:0:0:0:
182,192,27337,128,0,27458:0:0:0:0:
329,192,27337,128,0,27458:0:0:0:0:
36,192,27458,128,0,27700:0:0:0:0:
109,192,27458,128,0,27700:0:0:0:0:
402,192,27458,128,0,27700:0:0:0:0:
475,192,27579,128,0,27942:0:0:0:0:
329,192,27579,128,0,28305:0:0:0:0:
182,192,27579,128,0,27942:0:0:0:0:
256,192,27579,128,0,28063:0:0:0:0:
109,192,27821,128,0,28184:0:0:0:0:
402,192,27821,128,0,28184:0:0:0:0:
36,192,27821,128,0,28063:0:0:0:0:
475,192,28063,128,0,28305:0:0:0:0:
182,192,28063,128,0,28305:0:0:0:0:
109,192,28305,128,0,28547:0:0:0:0:
402,192,28305,128,0,28547:0:0:0:0:
329,192,28426,128,0,29030:0:0:0:0:
182,192,28426,128,0,28667:0:0:0:0:
475,192,28426,128,0,28667:0:0:0:0:
256,192,28547,128,0,29030:0:0:0:0:
36,192,28547,128,0,28909:0:0:0:0:
402,192,28788,128,0,29030:0:0:0:0:
475,192,28788,128,0,29151:0:0:0:0:
182,192,28788,128,0,28909:0:0:0:0:
109,192,28788,128,0,29151:0:0:0:0:
36,192,29030,128,0,29272:0:0:0:0:
182,192,29030,128,0,29272:0:0:0:0:
109,192,29272,128,0,29393:0:0:0:0:
402,192,29272,1,0,0:0:0:0:0
475,192,29272,128,0,29635:0:0:0:0:
36,192,29393,128,0,29635:0:0:0:0:
182,192,29393,128,0,29635:0:0:0:0:
402,192,29393,128,0,30119:0:0:0:0:
329,192,29393,1,0,0:0:0:0:0
256,192,29514,128,0,29998:0:0:0:0:
329,192,29514,128,0,29998:0:0:0:0:
109,192,29514,128,0,30119:0:0:0:0:
36,192,29756,128,0,30240:0:0:0:0:
182,192,29756,128,0,29998:0:0:0:0:
475,192,29756,128,0,30240:0:0:0:0:
182,192,30240,1,0,0:0:0:0:0
109,192,30240,128,0,30603:0:0:0:0:
402,192,30240,128,0,30361:0:0:0:0:
182,192,30361,128,0,30966:0:0:0:0:
475,192,30361,128,0,30603:0:0:0:0:
36,192,30361,128,0,30603:0:0:0:0:
256,192,30361,1,0,0:0:0:0:0
329,192,30482,128,0,30966:0:0:0:0:
256,192,30482,128,0,30845:0:0:0:0:
402,192,30482,128,0,31087:0:0:0:0:
475,192,30724,128,0,30845:0:0:0:0:
36,192,30724,128,0,30966:0:0:0:0:
109,192,30724,128,0,30966:0:0:0:0:
475,192,30966,128,0,31208:0:0:0:0:
256,192,30966,128,0,31087:0:0:0:0:
329,192,31087,128,0,31208:0:0:0:0:
182,192,31208,1,0,0:0:0:0:0
256,192,31208,128,0,31692:0:0:0:0:
402,192,31208,128,0,31329:0:0:0:0:
329,192,31329,128,0,31450:0:0:0:0:
182,192,31329,128,0,31571:0:0:0:0:
109,192,31329,1,0,0:0:0:0:0
475,192,31329,128,0,33264:0:0:0:0:
36,192,31450,128,0,31813:0:0:0:0:
109,192,31450,128,0,33384:0:0:0:0:
402,192,31450,128,0,33384:0:0:0:0:
329,192,31571,128,0,33264:0:0:0:0:
182,192,31692,128,0,33264:0:0:0:0:
256,192,31813,128,0,33264:0:0:0:0:
36,192,31934,1,0,0:0:0:0:0
36,192,33385,1,0,0:0:0:0:0
475,192,33385,1,0,0:0:0:0:0
256,192,33385,1,0,0:0:0:0:0
182,192,33385,128,0,33626:0:0:0:0:
329,192,33385,1,0,0:0:0:0:0
109,192,33505,128,0,33747:0:0:0:0:
402,192,33505,128,0,33626:0:0:0:0:
36,192,33626,128,0,33747:0:0:0:0:
475,192,33626,128,0,33747:0:0:0:0:
256,192,33626,128,0,33747:0:0:0:0:
329,192,33626,128,0,33747:0:0:0:0:
182,192,33747,128,0,33868:0:0:0:0:
402,192,33747,128,0,33868:0:0:0:0:
109,192,33868,128,0,33989:0:0:0:0:
475,192,33868,128,0,33989:0:0:0:0:
329,192,33868,128,0,33989:0:0:0:0:
256,192,33868,128,0,34110:0:0:0:0:
36,192,33868,128,0,33989:0:0:0:0:
182,192,33989,128,0,34231:0:0:0:0:
402,192,33989,128,0,34110:0:0:0:0:
329,192,34110,128,0,34231:0:0:0:0:
475,192,34110,128,0,34231:0:0:0:0:
109,192,34110,128,0,34231:0:0:0:0:
36,192,34110,128,0,34231:0:0:0:0:
402,192,34231,128,0,34352:0:0:0:0:
256,192,34231,128,0,34352:0:0:0:0:
329,192,34352,128,0,34473:0:0:0:0:
475,192,34352,128,0,34473:0:0:0:0:
182,192,34352,128,0,34473:0:0:0:0:
109,192,34352,128,0,34594:0:0:0:0:
36,192,34352,128,0,34473:0:0:0:0:
402,192,34473,128,0,34715:0:0:0:0:
256,192,34473,128,0,34594:0:0:0:0:
475,192,34594,128,0,34715:0:0:0:0:
329,192,34594,128,0,34715:0:0:0:0:
36,192,34594,128,0,34715:0:0:0:0:
182,192,34594,128,0,34715:0:0:0:0:
109,192,34715,128,0,34836:0:0:0:0:
256,192,34715,128,0,34836:0:0:0:0:
475,192,34836,128,0,35078:0:0:0:0:
329,192,34836,128,0,34957:0:0:0:0:
402,192,34836,128,0,34957:0:0:0:0:
182,192,34836,128,0,34957:0:0:0:0:
36,192,34836,128,0,34957:0:0:0:0:
256,192,34957,128,0,35199:0:0:0:0:
109,192,34957,128,0,35078:0:0:0:0:
329,192,35078,128,0,35199:0:0:0:0:
182,192,35078,128,0,35199:0:0:0:0:
402,192,35078,128,0,35199:0:0:0:0:
36,192,35078,128,0,35199:0:0:0:0:
109,192,35199,128,0,35320:0:0:0:0:
475,192,35199,128,0,35320:0:0:0:0:
36,192,35320,128,0,35441:0:0:0:0:
402,192,35320,128,0,35441:0:0:0:0:
182,192,35320,128,0,35562:0:0:0:0:
329,192,35320,128,0,35441:0:0:0:0:
256,192,35320,128,0,35441:0:0:0:0:
109,192,35441,128,0,35683:0:0:0:0:
475,192,35441,128,0,35562:0:0:0:0:
36,192,35562,128,0,35683:0:0:0:0:
402,192,35562,128,0,35683:0:0:0:0:
329,192,35562,128,0,35683:0:0:0:0:
256,192,35562,128,0,35683:0:0:0:0:
182,192,35683,128,0,35804:0:0:0:0:
475,192,35683,128,0,35804:0:0:0:0:
402,192,35804,128,0,35925:0:0:0:0:
109,192,35804,128,0,35925:0:0:0:0:
36,192,35804,128,0,35925:0:0:0:0:
256,192,35804,128,0,35925:0:0:0:0:
329,192,35804,128,0,36046:0:0:0:0:
182,192,35925,128,0,36046:0:0:0:0:
475,192,35925,128,0,36167:0:0:0:0:
402,192,36046,128,0,36167:0:0:0:0:
36,192,36046,128,0,36167:0:0:0:0:
109,192,36046,128,0,36167:0:0:0:0:
256,192,36046,128,0,36167:0:0:0:0:
329,192,36167,128,0,36288:0:0:0:0:
182,192,36167,128,0,36288:0:0:0:0:
36,192,36288,128,0,36530:0:0:0:0:
475,192,36288,128,0,36409:0:0:0:0:
256,192,36288,128,0,36409:0:0:0:0:
109,192,36288,128,0,36409:0:0:0:0:
402,192,36288,128,0,36409:0:0:0:0:
182,192,36409,128,0,36651:0:0:0:0:
329,192,36409,128,0,36530:0:0:0:0:
109,192,36530,128,0,36651:0:0:0:0:
475,192,36530,128,0,36651:0:0:0:0:
256,192,36530,128,0,36651:0:0:0:0:
402,192,36530,128,0,36651:0:0:0:0:
329,192,36651,128,0,36772:0:0:0:0:
36,192,36651,128,0,36772:0:0:0:0:
475,192,36772,128,0,36893:0:0:0:0:
256,192,36772,128,0,36893:0:0:0:0:
109,192,36772,128,0,36893:0:0:0:0:
182,192,36772,128,0,36893:0:0:0:0:
402,192,36772,128,0,37013:0:0:0:0:
329,192,36893,128,0,37134:0:0:0:0:
36,192,36893,1,0,0:0:0:0:0
475,192,37014,1,0,0:0:0:0:0
109,192,37014,1,0,0:0:0:0:0
256,192,37014,1,0,0:0:0:0:0
182,192,37014,1,0,0:0:0:0:0
36,192,37134,128,0,37255:0:0:0:0:
402,192,37134,128,0,37255:0:0:0:0:
329,192,37255,128,0,37376:0:0:0:0:
109,192,37255,128,0,37376:0:0:0:0:
256,192,37255,128,0,37376:0:0:0:0:
475,192,37255,128,0,37376:0:0:0:0:
182,192,37255,128,0,37497:0:0:0:0:
36,192,37376,128,0,37618:0:0:0:0:
402,192,37376,128,0,37497:0:0:0:0:
329,192,37497,128,0,37618:0:0:0:0:
109,192,37497,128,0,37618:0:0:0:0:
256,192,37497,128,0,37618:0:0:0:0:
475,192,37497,128,0,37618:0:0:0:0:
182,192,37618,128,0,37739:0:0:0:0:
402,192,37618,128,0,37739:0:0:0:0:
475,192,37739,128,0,37860:0:0:0:0:
256,192,37739,128,0,37860:0:0:0:0:
36,192,37739,128,0,37981:0:0:0:0:
109,192,37739,128,0,37860:0:0:0:0:
329,192,37739,128,0,37860:0:0:0:0:
182,192,37860,128,0,37981:0:0:0:0:
402,192,37860,128,0,38102:0:0:0:0:
475,192,37981,128,0,38102:0:0:0:0:
329,192,37981,128,0,38102:0:0:0:0:
109,192,37981,128,0,38102:0:0:0:0:
256,192,37981,128,0,38102:0:0:0:0:
36,192,38102,128,0,38223:0:0:0:0:
182,192,38102,128,0,38223:0:0:0:0:
256,192,38223,128,0,38344:0:0:0:0:
475,192,38223,128,0,38344:0:0:0:0:
109,192,38223,128,0,38344:0:0:0:0:
329,192,38223,128,0,38465:0:0:0:0:
402,192,38223,128,0,38344:0:0:0:0:
182,192,38344,128,0,38586:0:0:0:0:
36,192,38344,128,0,38465:0:0:0:0:
256,192,38465,128,0,38586:0:0:0:0:
475,192,38465,128,0,38586:0:0:0:0:
109,192,38465,128,0,38586:0:0:0:0:
402,192,38465,128,0,38586:0:0:0:0:
36,192,38586,128,0,38707:0:0:0:0:
329,192,38586,128,0,38707:0:0:0:0:
475,192,38707,128,0,38828:0:0:0:0:
256,192,38707,128,0,38828:0:0:0:0:
402,192,38707,128,0,38828:0:0:0:0:
182,192,38707,128,0,38828:0:0:0:0:
109,192,38707,128,0,38949:0:0:0:0:
36,192,38828,128,0,39070:0:0:0:0:
329,192,38828,128,0,38949:0:0:0:0:
182,192,38949,128,0,39070:0:0:0:0:
475,192,38949,128,0,39070:0:0:0:0:
256,192,38949,128,0,39070:0:0:0:0:
402,192,38949,128,0,39070:0:0:0:0:
329,192,39070,128,0,39191:0:0:0:0:
109,192,39070,128,0,39191:0:0:0:0:
182,192,39191,128,0,39312:0:0:0:0:
475,192,39191,128,0,39312:0:0:0:0:
256,192,39191,128,0,39312:0:0:0:0:
402,192,39191,128,0,39433:0:0:0:0:
36,192,39191,128,0,39312:0:0:0:0:
109,192,39312,128,0,39433:0:0:0:0:
329,192,39312,128,0,39554:0:0:0:0:
256,192,39433,128,0,39675:0:0:0:0:
475,192,39433,128,0,39554:0:0:0:0:
36,192,39433,128,0,39554:0:0:0:0:
182,192,39433,128,0,39554:0:0:0:0:
402,192,39554,128,0,39675:0:0:0:0:
109,192,39554,128,0,39675:0:0:0:0:
329,192,39675,128,0,40159:0:0:0:0:
36,192,39675,128,0,39796:0:0:0:0:
475,192,39675,128,0,39796:0:0:0:0:
182,192,39675,128,0,39796:0:0:0:0:
402,192,39796,128,0,39917:0:0:0:0:
256,192,39796,128,0,39917:0:0:0:0:
109,192,39796,128,0,39917:0:0:0:0:
475,192,39917,128,0,40038:0:0:0:0:
182,192,39917,128,0,40159:0:0:0:0:
36,192,39917,128,0,40038:0:0:0:0:
256,192,40038,128,0,40643:0:0:0:0:
109,192,40038,128,0,40522:0:0:0:0:
402,192,40038,128,0,40522:0:0:0:0:
475,192,40159,128,0,40643:0:0:0:0:
36,192,40159,128,0,40522:0:0:0:0:
109,192,40643,1,0,0:0:0:0:0
36,192,40643,128,0,40884:0:0:0:0:
182,192,40643,1,0,0:0:0:0:0
329,192,40643,1,0,0:0:0:0:0
402,192,40643,1,0,0:0:0:0:0
475,192,40764,128,0,41005:0:0:0:0:
256,192,40764,1,0,0:0:0:0:0
109,192,40884,128,0,41005:0:0:0:0:
329,192,40884,128,0,41005:0:0:0:0:
182,192,40884,128,0,41005:0:0:0:0:
402,192,40884,128,0,41005:0:0:0:0:
256,192,41005,128,0,41126:0:0:0:0:
36,192,41005,128,0,41126:0:0:0:0:
475,192,41126,128,0,41247:0:0:0:0:
182,192,41126,128,0,41247:0:0:0:0:
329,192,41126,128,0,41247:0:0:0:0:
109,192,41126,128,0,41247:0:0:0:0:
402,192,41126,128,0,41368:0:0:0:0:
36,192,41247,128,0,41368:0:0:0:0:
256,192,41247,128,0,41489:0:0:0:0:
182,192,41368,128,0,41489:0:0:0:0:
329,192,41368,128,0,41489:0:0:0:0:
109,192,41368,128,0,41489:0:0:0:0:
475,192,41368,128,0,41489:0:0:0:0:
36,192,41489,128,0,41610:0:0:0:0:
402,192,41489,128,0,41610:0:0:0:0:
329,192,41610,128,0,41731:0:0:0:0:
182,192,41610,128,0,41852:0:0:0:0:
109,192,41610,128,0,41731:0:0:0:0:
475,192,41610,128,0,41731:0:0:0:0:
256,192,41610,128,0,41731:0:0:0:0:
36,192,41731,128,0,41973:0:0:0:0:
402,192,41731,128,0,41852:0:0:0:0:
329,192,41852,128,0,41973:0:0:0:0:
256,192,41852,128,0,41973:0:0:0:0:
109,192,41852,128,0,42094:0:0:0:0:
475,192,41852,128,0,42094:0:0:0:0:
182,192,41973,128,0,42578:0:0:0:0:
402,192,41973,128,0,42578:0:0:0:0:
329,192,42094,128,0,42457:0:0:0:0:
36,192,42094,128,0,42457:0:0:0:0:
256,192,42094,128,0,42457:0:0:0:0:
329,192,42578,128,0,42699:0:0:0:0:
36,192,42578,128,0,42820:0:0:0:0:
475,192,42578,128,0,42699:0:0:0:0:
109,192,42578,128,0,42699:0:0:0:0:
256,192,42578,128,0,42699:0:0:0:0:
402,192,42699,128,0,42820:0:0:0:0:
182,192,42699,128,0,42941:0:0:0:0:
475,192,42820,128,0,42941:0:0:0:0:
109,192,42820,128,0,42941:0:0:0:0:
256,192,42820,128,0,42941:0:0:0:0:
329,192,42820,128,0,42941:0:0:0:0:
36,192,42941,128,0,43062:0:0:0:0:
402,192,42941,128,0,43062:0:0:0:0:
475,192,43062,128,0,43183:0:0:0:0:
109,192,43062,128,0,43183:0:0:0:0:
329,192,43062,128,0,43183:0:0:0:0:
256,192,43062,128,0,43304:0:0:0:0:
182,192,43062,128,0,43183:0:0:0:0:
402,192,43183,128,0,43425:0:0:0:0:
36,192,43183,128,0,43304:0:0:0:0:
475,192,43304,128,0,43425:0:0:0:0:
329,192,43304,128,0,43425:0:0:0:0:
182,192,43304,128,0,43425:0:0:0:0:
109,192,43304,128,0,43425:0:0:0:0:
256,192,43425,128,0,43546:0:0:0:0:
36,192,43425,128,0,43546:0:0:0:0:
182,192,43546,128,0,43667:0:0:0:0:
402,192,43546,128,0,43788:0:0:0:0:
109,192,43546,128,0,43667:0:0:0:0:
329,192,43546,128,0,43667:0:0:0:0:
475,192,43546,128,0,43667:0:0:0:0:
36,192,43667,128,0,43910:0:0:0:0:
256,192,43667,128,0,43788:0:0:0:0:
182,192,43788,128,0,43910:0:0:0:0:
475,192,43788,128,0,43910:0:0:0:0:
329,192,43788,128,0,43910:0:0:0:0:
109,192,43788,128,0,43910:0:0:0:0:
402,192,43909,128,0,44513:0:0:0:0:
256,192,43909,128,0,44393:0:0:0:0:
36,192,44031,1,0,0:0:0:0:0
329,192,44031,1,0,0:0:0:0:0
182,192,44031,1,0,0:0:0:0:0
475,192,44031,1,0,0:0:0:0:0
109,192,44031,1,0,0:0:0:0:0
329,192,44514,1,0,0:0:0:0:0
256,192,44514,128,0,44755:0:0:0:0:
182,192,44514,1,0,0:0:0:0:0
475,192,44514,1,0,0:0:0:0:0
36,192,44514,1,0,0:0:0:0:0
109,192,44634,128,0,44876:0:0:0:0:
402,192,44634,128,0,44755:0:0:0:0:
329,192,44755,128,0,44876:0:0:0:0:
182,192,44755,128,0,44876:0:0:0:0:
36,192,44755,128,0,44876:0:0:0:0:
475,192,44755,128,0,44876:0:0:0:0:
256,192,44876,128,0,44997:0:0:0:0:
402,192,44876,128,0,44997:0:0:0:0:
109,192,44997,128,0,45118:0:0:0:0:
329,192,44997,128,0,45118:0:0:0:0:
475,192,44997,128,0,45118:0:0:0:0:
36,192,44997,128,0,45239:0:0:0:0:
182,192,44997,128,0,45118:0:0:0:0:
402,192,45118,128,0,45360:0:0:0:0:
256,192,45118,128,0,45239:0:0:0:0:
109,192,45239,128,0,45360:0:0:0:0:
475,192,45239,128,0,45360:0:0:0:0:
182,192,45239,128,0,45360:0:0:0:0:
329,192,45239,128,0,45360:0:0:0:0:
36,192,45360,128,0,45481:0:0:0:0:
256,192,45360,128,0,45481:0:0:0:0:
109,192,45481,128,0,45602:0:0:0:0:
402,192,45481,128,0,45723:0:0:0:0:
182,192,45481,128,0,45602:0:0:0:0:
475,192,45481,128,0,45602:0:0:0:0:
329,192,45481,128,0,45602:0:0:0:0:
256,192,45602,128,0,45844:0:0:0:0:
36,192,45602,128,0,45723:0:0:0:0:
109,192,45723,128,0,45844:0:0:0:0:
329,192,45723,128,0,45844:0:0:0:0:
182,192,45723,128,0,45844:0:0:0:0:
475,192,45723,128,0,45844:0:0:0:0:
402,192,45844,128,0,45965:0:0:0:0:
36,192,45844,128,0,45965:0:0:0:0:
109,192,45965,128,0,46086:0:0:0:0:
329,192,45965,128,0,46086:0:0:0:0:
182,192,45965,128,0,46207:0:0:0:0:
475,192,45965,128,0,46086:0:0:0:0:
256,192,45965,128,0,46086:0:0:0:0:
402,192,46086,128,0,46207:0:0:0:0:
36,192,46086,128,0,46328:0:0:0:0:
109,192,46207,128,0,46328:0:0:0:0:
256,192,46207,128,0,46328:0:0:0:0:
329,192,46207,128,0,46409:0:0:0:0:
475,192,46207,128,0,46328:0:0:0:0:
182,192,46328,1,0,0:0:0:0:0
402,192,46328,128,0,46489:0:0:0:0:
109,192,46449,1,0,0:0:0:0:0
256,192,46449,128,0,46570:0:0:0:0:
36,192,46449,128,0,46651:0:0:0:0:
475,192,46449,128,0,46570:0:0:0:0:
182,192,46530,1,0,0:0:0:0:0
329,192,46530,128,0,46651:0:0:0:0:
402,192,46610,128,0,46731:0:0:0:0:
109,192,46610,128,0,46812:0:0:0:0:
182,192,46691,1,0,0:0:0:0:0
256,192,46691,128,0,46812:0:0:0:0:
475,192,46691,128,0,46893:0:0:0:0:
36,192,46772,128,0,46973:0:0:0:0:
329,192,46772,1,0,0:0:0:0:0
182,192,46852,1,0,0:0:0:0:0
402,192,46852,128,0,46973:0:0:0:0:
109,192,46933,128,0,47054:0:0:0:0:
329,192,46933,128,0,47054:0:0:0:0:
256,192,46933,128,0,47054:0:0:0:0:
182,192,47014,1,0,0:0:0:0:0
475,192,47014,1,0,0:0:0:0:0
36,192,47094,128,0,47296:0:0:0:0:
402,192,47094,128,0,47215:0:0:0:0:
109,192,47175,128,0,47296:0:0:0:0:
329,192,47175,128,0,47296:0:0:0:0:
256,192,47175,1,0,0:0:0:0:0
182,192,47255,128,0,47376:0:0:0:0:
475,192,47255,128,0,47376:0:0:0:0:
256,192,47336,128,0,47457:0:0:0:0:
402,192,47336,128,0,47538:0:0:0:0:
36,192,47417,1,0,0:0:0:0:0
329,192,47417,128,0,47618:0:0:0:0:
109,192,47417,128,0,47538:0:0:0:0:
475,192,47497,128,0,47618:0:0:0:0:
182,192,47497,1,0,0:0:0:0:0
256,192,47578,128,0,47699:0:0:0:0:
36,192,47578,128,0,47699:0:0:0:0:
182,192,47659,128,0,47860:0:0:0:0:
402,192,47659,128,0,47780:0:0:0:0:
109,192,47659,128,0,47780:0:0:0:0:
475,192,47739,128,0,47860:0:0:0:0:
329,192,47739,1,0,0:0:0:0:0
36,192,47820,128,0,47941:0:0:0:0:
256,192,47820,128,0,48102:0:0:0:0:
329,192,47901,1,0,0:0:0:0:0
402,192,47901,128,0,48022:0:0:0:0:
109,192,47901,128,0,48022:0:0:0:0:
475,192,47981,128,0,48102:0:0:0:0:
182,192,47981,1,0,0:0:0:0:0
36,192,48062,128,0,48183:0:0:0:0:
329,192,48062,128,0,48183:0:0:0:0:
402,192,48143,1,0,0:0:0:0:0
182,192,48143,128,0,48384:0:0:0:0:
109,192,48143,1,0,0:0:0:0:0
256,192,48223,128,0,48384:0:0:0:0:
475,192,48223,1,0,0:0:0:0:0
329,192,48304,128,0,48626:0:0:0:0:
36,192,48304,1,0,0:0:0:0:0
402,192,48384,128,0,48505:0:0:0:0:
109,192,48384,128,0,48505:0:0:0:0:
475,192,48384,128,0,48505:0:0:0:0:
36,192,48505,128,0,48626:0:0:0:0:
182,192,48505,128,0,48747:0:0:0:0:
256,192,48505,128,0,48626:0:0:0:0:
402,192,48626,128,0,48747:0:0:0:0:
475,192,48626,128,0,48747:0:0:0:0:
109,192,48626,128,0,48747:0:0:0:0:
329,192,48747,128,0,48868:0:0:0:0:
36,192,48747,128,0,48868:0:0:0:0:
256,192,48747,128,0,48868:0:0:0:0:
109,192,48868,128,0,48989:0:0:0:0:
402,192,48868,128,0,49110:0:0:0:0:
475,192,48868,128,0,48989:0:0:0:0:
182,192,48868,128,0,48989:0:0:0:0:
256,192,48989,128,0,49110:0:0:0:0:
36,192,48989,128,0,49231:0:0:0:0:
329,192,48989,128,0,49110:0:0:0:0:
475,192,49110,128,0,49231:0:0:0:0:
182,192,49110,128,0,49231:0:0:0:0:
109,192,49110,128,0,49231:0:0:0:0:
256,192,49231,128,0,49352:0:0:0:0:
329,192,49231,128,0,49352:0:0:0:0:
402,192,49231,128,0,49352:0:0:0:0:
109,192,49352,128,0,49473:0:0:0:0:
36,192,49352,128,0,49473:0:0:0:0:
182,192,49352,128,0,49594:0:0:0:0:
475,192,49352,128,0,49473:0:0:0:0:
402,192,49473,128,0,49594:0:0:0:0:
329,192,49473,128,0,49594:0:0:0:0:
256,192,49473,128,0,49715:0:0:0:0:
109,192,49594,128,0,49715:0:0:0:0:
475,192,49594,128,0,49715:0:0:0:0:
36,192,49594,128,0,49715:0:0:0:0:
402,192,49715,128,0,49836:0:0:0:0:
329,192,49715,128,0,49836:0:0:0:0:
182,192,49715,128,0,49836:0:0:0:0:
256,192,49836,128,0,49957:0:0:0:0:
109,192,49836,128,0,50078:0:0:0:0:
475,192,49836,128,0,49957:0:0:0:0:
36,192,49836,128,0,49957:0:0:0:0:
329,192,49957,128,0,50199:0:0:0:0:
402,192,49957,128,0,50078:0:0:0:0:
182,192,49957,128,0,50078:0:0:0:0:
256,192,50078,128,0,50199:0:0:0:0:
475,192,50078,128,0,50199:0:0:0:0:
36,192,50078,128,0,50199:0:0:0:0:
109,192,50199,1,0,0:0:0:0:0
182,192,50199,128,0,50320:0:0:0:0:
402,192,50199,128,0,50441:0:0:0:0:
329,192,50320,1,0,0:0:0:0:0
475,192,50320,128,0,50441:0:0:0:0:
256,192,50320,128,0,50441:0:0:0:0:
36,192,50320,128,0,50562:0:0:0:0:
109,192,50401,128,0,50683:0:0:0:0:
182,192,50441,1,0,0:0:0:0:0
329,192,50481,128,0,50602:0:0:0:0:
475,192,50562,128,0,50683:0:0:0:0:
256,192,50562,128,0,50804:0:0:0:0:
402,192,50562,128,0,50763:0:0:0:0:
182,192,50643,1,0,0:0:0:0:0
36,192,50683,128,0,50925:0:0:0:0:
329,192,50723,128,0,50844:0:0:0:0:
109,192,50804,128,0,51167:0:0:0:0:
475,192,50804,128,0,51167:0:0:0:0:
182,192,50804,128,0,50925:0:0:0:0:
402,192,50884,128,0,51046:0:0:0:0:
256,192,50925,1,0,0:0:0:0:0
329,192,50965,128,0,51086:0:0:0:0:
36,192,51046,128,0,51167:0:0:0:0:
182,192,51046,128,0,51530:0:0:0:0:
256,192,51126,128,0,51247:0:0:0:0:
402,192,51167,128,0,51409:0:0:0:0:
329,192,51207,1,0,0:0:0:0:0
475,192,51288,128,0,51651:0:0:0:0:
36,192,51288,128,0,51409:0:0:0:0:
109,192,51288,1,0,0:0:0:0:0
256,192,51368,128,0,51489:0:0:0:0:
329,192,51409,128,0,51570:0:0:0:0:
109,192,51449,128,0,51651:0:0:0:0:
36,192,51530,128,0,51812:0:0:0:0:
402,192,51530,128,0,51651:0:0:0:0:
256,192,51610,128,0,51892:0:0:0:0:
182,192,51651,1,0,0:0:0:0:0
329,192,51691,1,0,0:0:0:0:0
109,192,51772,128,0,52134:0:0:0:0:
475,192,51772,128,0,51973:0:0:0:0:
402,192,51772,1,0,0:0:0:0:0
182,192,51852,128,0,52013:0:0:0:0:
329,192,51893,128,0,52054:0:0:0:0:
36,192,51933,128,0,52134:0:0:0:0:
402,192,52013,128,0,52134:0:0:0:0:
256,192,52013,128,0,52134:0:0:0:0:
475,192,52094,128,0,52255:0:0:0:0:
182,192,52134,128,0,52255:0:0:0:0:
329,192,52175,128,0,52497:0:0:0:0:
402,192,52255,128,0,53102:0:0:0:0:
256,192,52255,128,0,52376:0:0:0:0:
109,192,52255,128,0,52739:0:0:0:0:
36,192,52255,128,0,52497:0:0:0:0:
182,192,52376,128,0,52618:0:0:0:0:
256,192,52497,128,0,52618:0:0:0:0:
36,192,52618,128,0,52860:0:0:0:0:
329,192,52618,128,0,52739:0:0:0:0:
256,192,52739,128,0,52860:0:0:0:0:
182,192,52739,128,0,53223:0:0:0:0:
109,192,52860,128,0,52981:0:0:0:0:
256,192,52981,128,0,53102:0:0:0:0:
36,192,52981,128,0,53102:0:0:0:0:
109,192,53102,128,0,53223:0:0:0:0:
402,192,53223,128,0,53344:0:0:0:0:
256,192,53223,128,0,53707:0:0:0:0:
182,192,53344,128,0,53465:0:0:0:0:
109,192,53344,128,0,53465:0:0:0:0:
402,192,53465,128,0,53586:0:0:0:0:
109,192,53586,128,0,53707:0:0:0:0:
402,192,53707,128,0,53828:0:0:0:0:
109,192,53828,128,0,54191:0:0:0:0:
402,192,53949,128,0,54070:0:0:0:0:
256,192,54070,1,0,0:0:0:0:0
329,192,54070,1,0,0:0:0:0:0
475,192,54070,1,0,0:0:0:0:0
36,192,54070,128,0,54191:0:0:0:0:
182,192,54070,128,0,54191:0:0:0:0:
475,192,54191,128,0,54312:0:0:0:0:
256,192,54191,1,0,0:0:0:0:0
329,192,54191,128,0,54312:0:0:0:0:
402,192,54191,128,0,54312:0:0:0:0:
109,192,54312,128,0,54433:0:0:0:0:
256,192,54312,1,0,0:0:0:0:0
36,192,54312,128,0,54433:0:0:0:0:
182,192,54312,128,0,54433:0:0:0:0:
402,192,54433,128,0,54554:0:0:0:0:
329,192,54433,128,0,54554:0:0:0:0:
256,192,54433,1,0,0:0:0:0:0
475,192,54433,128,0,54554:0:0:0:0:
109,192,54554,128,0,54675:0:0:0:0:
36,192,54554,128,0,54675:0:0:0:0:
256,192,54554,1,0,0:0:0:0:0
182,192,54554,128,0,54675:0:0:0:0:
475,192,54675,128,0,54796:0:0:0:0:
329,192,54675,128,0,54796:0:0:0:0:
256,192,54675,1,0,0:0:0:0:0
402,192,54675,128,0,54796:0:0:0:0:
109,192,54796,128,0,54917:0:0:0:0:
36,192,54796,128,0,54917:0:0:0:0:
256,192,54796,1,0,0:0:0:0:0
182,192,54796,128,0,54917:0:0:0:0:
329,192,54917,128,0,55038:0:0:0:0:
475,192,54917,128,0,55038:0:0:0:0:
256,192,54917,1,0,0:0:0:0:0
402,192,54917,128,0,55038:0:0:0:0:
109,192,55038,128,0,55159:0:0:0:0:
182,192,55038,128,0,55159:0:0:0:0:
36,192,55038,128,0,55159:0:0:0:0:
256,192,55038,1,0,0:0:0:0:0
256,192,55159,1,0,0:0:0:0:0
475,192,55159,128,0,55280:0:0:0:0:
329,192,55159,128,0,55280:0:0:0:0:
402,192,55159,128,0,55280:0:0:0:0:
36,192,55280,128,0,55401:0:0:0:0:
256,192,55280,1,0,0:0:0:0:0
182,192,55280,128,0,55401:0:0:0:0:
109,192,55280,128,0,55401:0:0:0:0:
256,192,55401,1,0,0:0:0:0:0
475,192,55401,128,0,55522:0:0:0:0:
329,192,55401,128,0,55522:0:0:0:0:
402,192,55401,128,0,55522:0:0:0:0:
36,192,55522,1,0,0:0:0:0:0
109,192,55522,1,0,0:0:0:0:0
256,192,55522,1,0,0:0:0:0:0
182,192,55522,1,0,0:0:0:0:0
36,192,55643,128,0,56126:0:0:0:0:
402,192,55643,128,0,56086:0:0:0:0:
182,192,55643,128,0,56005:0:0:0:0:
109,192,55643,128,0,56247:0:0:0:0:
329,192,55643,128,0,56167:0:0:0:0:
256,192,55643,128,0,56005:0:0:0:0:
475,192,55643,128,0,56005:0:0:0:0:
256,192,56126,128,0,56489:0:0:0:0:
182,192,56126,128,0,56368:0:0:0:0:
475,192,56126,128,0,56247:0:0:0:0:
402,192,56207,128,0,56328:0:0:0:0:
36,192,56247,128,0,56489:0:0:0:0:
329,192,56288,128,0,56409:0:0:0:0:
475,192,56368,128,0,56892:0:0:0:0:
109,192,56368,128,0,56489:0:0:0:0:
402,192,56449,128,0,56651:0:0:0:0:
182,192,56489,128,0,56610:0:0:0:0:
329,192,56530,1,0,0:0:0:0:0
256,192,56610,128,0,57134:0:0:0:0:
109,192,56610,128,0,56852:0:0:0:0:
36,192,56610,128,0,56731:0:0:0:0:
329,192,56691,1,0,0:0:0:0:0
182,192,56731,128,0,56973:0:0:0:0:
402,192,56772,1,0,0:0:0:0:0
36,192,56852,128,0,56973:0:0:0:0:
329,192,56852,128,0,57054:0:0:0:0:
402,192,56933,1,0,0:0:0:0:0
109,192,56973,128,0,57094:0:0:0:0:
475,192,57013,128,0,57215:0:0:0:0:
182,192,57094,128,0,57215:0:0:0:0:
36,192,57094,128,0,57336:0:0:0:0:
402,192,57094,128,0,57296:0:0:0:0:
329,192,57175,128,0,57376:0:0:0:0:
109,192,57215,128,0,57457:0:0:0:0:
256,192,57255,128,0,57457:0:0:0:0:
475,192,57336,128,0,57860:0:0:0:0:
182,192,57336,128,0,57457:0:0:0:0:
402,192,57417,128,0,57618:0:0:0:0:
36,192,57457,128,0,57578:0:0:0:0:
329,192,57497,1,0,0:0:0:0:0
109,192,57578,128,0,57699:0:0:0:0:
182,192,57578,128,0,57941:0:0:0:0:
256,192,57578,128,0,57820:0:0:0:0:
329,192,57659,1,0,0:0:0:0:0
36,192,57699,128,0,58102:0:0:0:0:
402,192,57739,1,0,0:0:0:0:0
109,192,57820,128,0,58022:0:0:0:0:
329,192,57820,128,0,57941:0:0:0:0:
402,192,57901,1,0,0:0:0:0:0
256,192,57941,128,0,58062:0:0:0:0:
475,192,57981,128,0,58183:0:0:0:0:
182,192,58062,128,0,58263:0:0:0:0:
329,192,58062,128,0,58425:0:0:0:0:
402,192,58062,128,0,58304:0:0:0:0:
109,192,58143,1,0,0:0:0:0:0
256,192,58183,128,0,58344:0:0:0:0:
36,192,58223,128,0,58425:0:0:0:0:
475,192,58304,128,0,58425:0:0:0:0:
109,192,58304,128,0,58505:0:0:0:0:
182,192,58384,128,0,58586:0:0:0:0:
402,192,58425,128,0,58546:0:0:0:0:
256,192,58465,128,0,58828:0:0:0:0:
475,192,58546,128,0,59030:0:0:0:0:
329,192,58546,128,0,58667:0:0:0:0:
36,192,58546,128,0,59070:0:0:0:0:
109,192,58626,1,0,0:0:0:0:0
402,192,58667,128,0,58788:0:0:0:0:
182,192,58707,1,0,0:0:0:0:0
109,192,58788,128,0,58989:0:0:0:0:
329,192,58788,128,0,59030:0:0:0:0:
182,192,58868,1,0,0:0:0:0:0
402,192,58909,128,0,59030:0:0:0:0:
256,192,58949,128,0,59151:0:0:0:0:
182,192,59030,128,0,59231:0:0:0:0:
109,192,59110,128,0,59312:0:0:0:0:
402,192,59151,128,0,59272:0:0:0:0:
36,192,59191,128,0,59392:0:0:0:0:
256,192,59272,1,0,0:0:0:0:0
182,192,59352,1,0,0:0:0:0:0
402,192,59393,1,0,0:0:0:0:0
109,192,59433,128,0,59997:0:0:0:0:
329,192,59513,128,0,59634:0:0:0:0:
36,192,59513,128,0,59876:0:0:0:0:
475,192,59513,128,0,59876:0:0:0:0:
182,192,59513,128,0,59876:0:0:0:0:
256,192,59513,128,0,59755:0:0:0:0:
402,192,59634,128,0,59876:0:0:0:0:
329,192,59755,128,0,59876:0:0:0:0:
256,192,59876,128,0,60118:0:0:0:0:
329,192,59997,1,0,0:0:0:0:0
182,192,59997,1,0,0:0:0:0:0
475,192,59997,128,0,60118:0:0:0:0:
36,192,59997,128,0,60118:0:0:0:0:
402,192,59997,1,0,0:0:0:0:0
109,192,60118,1,0,0:0:0:0:0
329,192,60118,1,0,0:0:0:0:0
182,192,60118,128,0,60360:0:0:0:0:
402,192,60118,128,0,60481:0:0:0:0:
109,192,60239,128,0,60481:0:0:0:0:
329,192,60239,128,0,60360:0:0:0:0:
256,192,60239,128,0,60360:0:0:0:0:
475,192,60239,128,0,60360:0:0:0:0:
36,192,60239,128,0,60360:0:0:0:0:
329,192,60481,128,0,60844:0:0:0:0:
256,192,60481,1,0,0:0:0:0:0
475,192,60481,1,0,0:0:0:0:0
182,192,60481,128,0,60602:0:0:0:0:
36,192,60481,128,0,60602:0:0:0:0:
475,192,60602,1,0,0:0:0:0:0
402,192,60602,1,0,0:0:0:0:0
109,192,60602,128,0,60844:0:0:0:0:
256,192,60602,1,0,0:0:0:0:0
256,192,60723,128,0,60965:0:0:0:0:
475,192,60723,128,0,60844:0:0:0:0:
402,192,60723,128,0,60844:0:0:0:0:
182,192,60723,128,0,60844:0:0:0:0:
36,192,60723,128,0,60965:0:0:0:0:
402,192,60965,1,0,0:0:0:0:0
329,192,60965,128,0,61086:0:0:0:0:
475,192,60965,1,0,0:0:0:0:0
109,192,60965,128,0,61086:0:0:0:0:
182,192,60965,128,0,61328:0:0:0:0:
36,192,61086,1,0,0:0:0:0:0
256,192,61086,1,0,0:0:0:0:0
475,192,61086,128,0,61328:0:0:0:0:
402,192,61086,1,0,0:0:0:0:0
36,192,61207,128,0,61328:0:0:0:0:
329,192,61207,128,0,61328:0:0:0:0:
256,192,61207,128,0,61328:0:0:0:0:
402,192,61207,128,0,61449:0:0:0:0:
109,192,61207,128,0,61449:0:0:0:0:
36,192,61449,128,0,61570:0:0:0:0:
329,192,61449,1,0,0:0:0:0:0
182,192,61449,1,0,0:0:0:0:0
475,192,61449,128,0,61570:0:0:0:0:
256,192,61449,128,0,61933:0:0:0:0:
109,192,61570,1,0,0:0:0:0:0
329,192,61570,1,0,0:0:0:0:0
182,192,61570,1,0,0:0:0:0:0
402,192,61570,1,0,0:0:0:0:0
329,192,61691,128,0,62054:0:0:0:0:
36,192,61691,128,0,61812:0:0:0:0:
182,192,61691,128,0,61933:0:0:0:0:
109,192,61691,128,0,61812:0:0:0:0:
475,192,61691,128,0,61812:0:0:0:0:
402,192,61691,128,0,61812:0:0:0:0:
109,192,61933,1,0,0:0:0:0:0
36,192,61933,128,0,62296:0:0:0:0:
475,192,61933,128,0,62054:0:0:0:0:
402,192,61933,128,0,62054:0:0:0:0:
109,192,62054,128,0,62296:0:0:0:0:
182,192,62054,128,0,62175:0:0:0:0:
256,192,62054,128,0,62175:0:0:0:0:
329,192,62175,1,0,0:0:0:0:0
475,192,62175,128,0,62296:0:0:0:0:
402,192,62175,128,0,62296:0:0:0:0:
256,192,62296,128,0,62417:0:0:0:0:
329,192,62296,128,0,62538:0:0:0:0:
182,192,62296,128,0,62417:0:0:0:0:
109,192,62417,1,0,0:0:0:0:0
36,192,62417,128,0,62901:0:0:0:0:
402,192,62417,128,0,62538:0:0:0:0:
475,192,62417,128,0,62538:0:0:0:0:
109,192,62538,128,0,62780:0:0:0:0:
182,192,62538,128,0,62659:0:0:0:0:
256,192,62538,128,0,62659:0:0:0:0:
329,192,62659,1,0,0:0:0:0:0
475,192,62659,128,0,62780:0:0:0:0:
402,192,62659,128,0,62860:0:0:0:0:
182,192,62780,128,0,63102:0:0:0:0:
256,192,62780,128,0,63022:0:0:0:0:
329,192,62780,128,0,62941:0:0:0:0:
109,192,62901,128,0,63183:0:0:0:0:
475,192,62901,128,0,63263:0:0:0:0:
402,192,62981,128,0,63344:0:0:0:0:
329,192,63062,128,0,63263:0:0:0:0:
256,192,63143,1,0,0:0:0:0:0
182,192,63223,1,0,0:0:0:0:0
109,192,63304,1,0,0:0:0:0:0
182,192,63384,128,0,63747:0:0:0:0:
475,192,63384,128,0,63747:0:0:0:0:
36,192,63384,1,0,0:0:0:0:0
256,192,63384,128,0,63626:0:0:0:0:
329,192,63384,1,0,0:0:0:0:0
109,192,63465,128,0,63868:0:0:0:0:
402,192,63465,128,0,63747:0:0:0:0:
329,192,63546,128,0,63747:0:0:0:0:
36,192,63546,128,0,63747:0:0:0:0:
256,192,63747,128,0,63868:0:0:0:0:
36,192,63868,128,0,63989:0:0:0:0:
402,192,63868,128,0,64110:0:0:0:0:
329,192,63868,128,0,63989:0:0:0:0:
182,192,63868,128,0,63989:0:0:0:0:
475,192,63868,128,0,63989:0:0:0:0:
109,192,63989,128,0,64110:0:0:0:0:
256,192,63989,128,0,64231:0:0:0:0:
36,192,64110,128,0,64231:0:0:0:0:
329,192,64110,128,0,64231:0:0:0:0:
475,192,64110,128,0,64231:0:0:0:0:
182,192,64110,128,0,64231:0:0:0:0:
109,192,64231,128,0,64352:0:0:0:0:
402,192,64231,128,0,64352:0:0:0:0:
36,192,64352,128,0,64473:0:0:0:0:
256,192,64352,128,0,64473:0:0:0:0:
182,192,64352,128,0,64594:0:0:0:0:
475,192,64352,128,0,64473:0:0:0:0:
329,192,64352,128,0,64473:0:0:0:0:
109,192,64473,128,0,64715:0:0:0:0:
402,192,64473,128,0,64594:0:0:0:0:
36,192,64594,128,0,64715:0:0:0:0:
329,192,64594,128,0,64715:0:0:0:0:
256,192,64594,128,0,64715:0:0:0:0:
475,192,64594,128,0,64715:0:0:0:0:
182,192,64715,128,0,64836:0:0:0:0:
402,192,64715,128,0,64836:0:0:0:0:
36,192,64836,128,0,64957:0:0:0:0:
256,192,64836,128,0,64957:0:0:0:0:
109,192,64836,128,0,64957:0:0:0:0:
475,192,64836,128,0,65078:0:0:0:0:
329,192,64836,128,0,64957:0:0:0:0:
182,192,64957,128,0,65078:0:0:0:0:
402,192,64957,128,0,65199:0:0:0:0:
36,192,65078,128,0,65199:0:0:0:0:
329,192,65078,128,0,65199:0:0:0:0:
109,192,65078,128,0,65199:0:0:0:0:
256,192,65078,128,0,65199:0:0:0:0:
182,192,65199,128,0,65320:0:0:0:0:
475,192,65199,128,0,65320:0:0:0:0:
36,192,65320,128,0,65441:0:0:0:0:
402,192,65320,128,0,65441:0:0:0:0:
109,192,65320,128,0,65441:0:0:0:0:
329,192,65320,128,0,65441:0:0:0:0:
256,192,65320,128,0,65562:0:0:0:0:
475,192,65441,128,0,65562:0:0:0:0:
182,192,65441,128,0,65683:0:0:0:0:
36,192,65562,128,0,65683:0:0:0:0:
329,192,65562,128,0,65683:0:0:0:0:
402,192,65562,128,0,65683:0:0:0:0:
109,192,65562,128,0,65683:0:0:0:0:
475,192,65683,128,0,65804:0:0:0:0:
256,192,65683,128,0,65804:0:0:0:0:
109,192,65804,128,0,65925:0:0:0:0:
402,192,65804,128,0,65925:0:0:0:0:
182,192,65804,128,0,65925:0:0:0:0:
36,192,65804,128,0,66046:0:0:0:0:
329,192,65804,128,0,65925:0:0:0:0:
475,192,65925,128,0,66167:0:0:0:0:
256,192,65925,128,0,66046:0:0:0:0:
182,192,66046,128,0,66167:0:0:0:0:
109,192,66046,128,0,66167:0:0:0:0:
402,192,66046,128,0,66167:0:0:0:0:
329,192,66046,128,0,66167:0:0:0:0:
36,192,66167,128,0,66288:0:0:0:0:
256,192,66167,128,0,66288:0:0:0:0:
182,192,66288,128,0,66409:0:0:0:0:
475,192,66288,128,0,66409:0:0:0:0:
402,192,66288,128,0,66530:0:0:0:0:
329,192,66288,128,0,66409:0:0:0:0:
109,192,66288,128,0,66409:0:0:0:0:
36,192,66409,128,0,66530:0:0:0:0:
256,192,66409,128,0,66651:0:0:0:0:
182,192,66530,128,0,66651:0:0:0:0:
109,192,66530,128,0,66651:0:0:0:0:
329,192,66530,128,0,66651:0:0:0:0:
475,192,66530,128,0,66651:0:0:0:0:
402,192,66651,128,0,66772:0:0:0:0:
36,192,66651,128,0,66772:0:0:0:0:
182,192,66772,128,0,67013:0:0:0:0:
329,192,66772,1,0,0:0:0:0:0
256,192,66772,1,0,0:0:0:0:0
475,192,66772,1,0,0:0:0:0:0
109,192,66772,1,0,0:0:0:0:0
36,192,66893,128,0,67134:0:0:0:0:
402,192,66893,1,0,0:0:0:0:0
329,192,67013,128,0,67134:0:0:0:0:
109,192,67013,128,0,67134:0:0:0:0:
256,192,67013,128,0,67134:0:0:0:0:
475,192,67013,128,0,67134:0:0:0:0:
182,192,67134,128,0,67255:0:0:0:0:
402,192,67134,128,0,67255:0:0:0:0:
36,192,67255,128,0,67376:0:0:0:0:
109,192,67255,128,0,67376:0:0:0:0:
256,192,67255,128,0,67376:0:0:0:0:
329,192,67255,128,0,67497:0:0:0:0:
475,192,67255,128,0,67376:0:0:0:0:
182,192,67376,128,0,67497:0:0:0:0:
402,192,67376,128,0,67618:0:0:0:0:
36,192,67497,128,0,67618:0:0:0:0:
256,192,67497,128,0,67618:0:0:0:0:
109,192,67497,128,0,67618:0:0:0:0:
475,192,67497,128,0,67618:0:0:0:0:
182,192,67618,128,0,67739:0:0:0:0:
329,192,67618,128,0,67739:0:0:0:0:
36,192,67739,128,0,67860:0:0:0:0:
475,192,67739,128,0,67860:0:0:0:0:
256,192,67739,128,0,67860:0:0:0:0:
109,192,67739,128,0,67981:0:0:0:0:
402,192,67739,128,0,67860:0:0:0:0:
329,192,67860,128,0,67981:0:0:0:0:
182,192,67860,128,0,68102:0:0:0:0:
36,192,67981,128,0,68102:0:0:0:0:
256,192,67981,128,0,68102:0:0:0:0:
475,192,67981,128,0,68102:0:0:0:0:
402,192,67981,128,0,68102:0:0:0:0:
329,192,68102,128,0,68223:0:0:0:0:
109,192,68102,128,0,68223:0:0:0:0:
36,192,68223,128,0,68344:0:0:0:0:
256,192,68223,128,0,68344:0:0:0:0:
475,192,68223,128,0,68344:0:0:0:0:
182,192,68223,128,0,68344:0:0:0:0:
402,192,68223,128,0,68465:0:0:0:0:
329,192,68344,128,0,68586:0:0:0:0:
109,192,68344,128,0,68465:0:0:0:0:
36,192,68465,128,0,68586:0:0:0:0:
256,192,68465,128,0,68586:0:0:0:0:
182,192,68465,128,0,68586:0:0:0:0:
475,192,68465,128,0,68586:0:0:0:0:
402,192,68586,128,0,68707:0:0:0:0:
109,192,68586,128,0,68707:0:0:0:0:
182,192,68707,128,0,68828:0:0:0:0:
475,192,68707,128,0,68828:0:0:0:0:
36,192,68707,128,0,68828:0:0:0:0:
329,192,68707,128,0,68828:0:0:0:0:
256,192,68707,128,0,68949:0:0:0:0:
402,192,68828,128,0,68949:0:0:0:0:
109,192,68828,128,0,69070:0:0:0:0:
36,192,68949,128,0,69070:0:0:0:0:
475,192,68949,128,0,69070:0:0:0:0:
182,192,68949,128,0,69070:0:0:0:0:
329,192,68949,128,0,69070:0:0:0:0:
402,192,69070,128,0,69191:0:0:0:0:
256,192,69070,128,0,69191:0:0:0:0:
329,192,69191,128,0,69312:0:0:0:0:
475,192,69191,128,0,69312:0:0:0:0:
109,192,69191,128,0,69433:0:0:0:0:
182,192,69191,128,0,69312:0:0:0:0:
36,192,69191,128,0,69312:0:0:0:0:
256,192,69312,128,0,69433:0:0:0:0:
402,192,69312,128,0,69554:0:0:0:0:
329,192,69433,128,0,69554:0:0:0:0:
36,192,69433,128,0,69554:0:0:0:0:
475,192,69433,128,0,69554:0:0:0:0:
182,192,69433,128,0,69554:0:0:0:0:
256,192,69554,128,0,69886:0:0:0:0:
109,192,69554,128,0,69947:0:0:0:0:
182,192,69675,128,0,69917:0:0:0:0:
329,192,69675,128,0,69856:0:0:0:0:
402,192,69675,128,0,69826:0:0:0:0:
475,192,69675,128,0,69796:0:0:0:0:
36,192,69675,128,0,69977:0:0:0:0:
475,192,69917,1,0,0:0:0:0:0
402,192,69947,1,0,0:0:0:0:0
329,192,69977,1,0,0:0:0:0:0
256,192,70007,1,0,0:0:0:0:0
182,192,70038,1,0,0:0:0:0:0
109,192,70068,1,0,0:0:0:0:0
36,192,70098,128,0,70280:0:0:0:0:
475,192,70128,128,0,70461:0:0:0:0:
402,192,70159,128,0,70431:0:0:0:0:
182,192,70159,128,0,70340:0:0:0:0:
109,192,70159,128,0,70310:0:0:0:0:
256,192,70159,128,0,70370:0:0:0:0:
329,192,70159,128,0,70401:0:0:0:0:
36,192,70401,1,0,0:0:0:0:0
109,192,70431,1,0,0:0:0:0:0
182,192,70461,1,0,0:0:0:0:0
256,192,70491,1,0,0:0:0:0:0
329,192,70522,1,0,0:0:0:0:0
402,192,70552,1,0,0:0:0:0:0
475,192,70582,128,0,71005:0:0:0:0:
36,192,70612,128,0,71005:0:0:0:0:
182,192,70643,1,0,0:0:0:0:0
109,192,70643,1,0,0:0:0:0:0
329,192,70643,1,0,0:0:0:0:0
402,192,70643,1,0,0:0:0:0:0
256,192,70643,1,0,0:0:0:0:0
329,192,70884,128,0,71005:0:0:0:0:
402,192,70884,128,0,71126:0:0:0:0:
182,192,70884,128,0,71247:0:0:0:0:
109,192,70884,128,0,71368:0:0:0:0:
256,192,70884,128,0,71126:0:0:0:0:
329,192,71126,128,0,71247:0:0:0:0:
475,192,71126,128,0,71610:0:0:0:0:
36,192,71126,128,0,71489:0:0:0:0:
402,192,71247,128,0,71489:0:0:0:0:
256,192,71247,128,0,71368:0:0:0:0:
329,192,71368,128,0,71852:0:0:0:0:
182,192,71368,128,0,71489:0:0:0:0:
256,192,71489,128,0,71610:0:0:0:0:
109,192,71489,128,0,71852:0:0:0:0:
36,192,71610,128,0,71731:0:0:0:0:
182,192,71610,128,0,71731:0:0:0:0:
402,192,71610,128,0,71731:0:0:0:0:
475,192,71731,128,0,72094:0:0:0:0:
256,192,71731,128,0,71973:0:0:0:0:
36,192,71852,128,0,71973:0:0:0:0:
182,192,71852,128,0,72094:0:0:0:0:
402,192,71852,128,0,71973:0:0:0:0:
329,192,71973,128,0,72336:0:0:0:0:
109,192,71973,128,0,72215:0:0:0:0:
36,192,72094,128,0,72457:0:0:0:0:
256,192,72094,128,0,72215:0:0:0:0:
402,192,72094,128,0,72215:0:0:0:0:
182,192,72215,128,0,72578:0:0:0:0:
475,192,72215,128,0,72336:0:0:0:0:
256,192,72336,128,0,72457:0:0:0:0:
109,192,72336,128,0,72820:0:0:0:0:
402,192,72336,128,0,72457:0:0:0:0:
329,192,72457,128,0,72820:0:0:0:0:
475,192,72457,128,0,72578:0:0:0:0:
36,192,72578,128,0,72699:0:0:0:0:
256,192,72578,128,0,72699:0:0:0:0:
402,192,72578,128,0,72699:0:0:0:0:
182,192,72699,128,0,73062:0:0:0:0:
475,192,72699,128,0,72941:0:0:0:0:
36,192,72820,128,0,72941:0:0:0:0:
402,192,72820,128,0,73304:0:0:0:0:
256,192,72820,128,0,72941:0:0:0:0:
109,192,72941,128,0,73788:0:0:0:0:
329,192,72941,128,0,73062:0:0:0:0:
36,192,73062,128,0,73183:0:0:0:0:
475,192,73062,128,0,73183:0:0:0:0:
256,192,73062,128,0,73183:0:0:0:0:
329,192,73183,128,0,73425:0:0:0:0:
182,192,73183,128,0,73304:0:0:0:0:
36,192,73304,128,0,73425:0:0:0:0:
475,192,73304,128,0,73425:0:0:0:0:
256,192,73304,128,0,73546:0:0:0:0:
402,192,73425,128,0,73546:0:0:0:0:
182,192,73425,128,0,73667:0:0:0:0:
36,192,73546,128,0,73667:0:0:0:0:
475,192,73546,128,0,73788:0:0:0:0:
329,192,73546,128,0,73667:0:0:0:0:
402,192,73667,128,0,73909:0:0:0:0:
256,192,73667,128,0,73909:0:0:0:0:
36,192,73788,128,0,73909:0:0:0:0:
329,192,73788,128,0,74272:0:0:0:0:
182,192,73788,128,0,74030:0:0:0:0:
475,192,73909,128,0,74030:0:0:0:0:
109,192,73909,128,0,74151:0:0:0:0:
36,192,74030,128,0,74272:0:0:0:0:
402,192,74030,128,0,74151:0:0:0:0:
256,192,74030,128,0,74151:0:0:0:0:
475,192,74151,128,0,74392:0:0:0:0:
182,192,74151,128,0,74715:0:0:0:0:
256,192,74272,1,0,0:0:0:0:0
109,192,74272,1,0,0:0:0:0:0
402,192,74272,128,0,74473:0:0:0:0:
329,192,74393,128,0,74554:0:0:0:0:
36,192,74393,1,0,0:0:0:0:0
256,192,74513,128,0,74634:0:0:0:0:
475,192,74513,128,0,74634:0:0:0:0:
109,192,74513,128,0,74796:0:0:0:0:
402,192,74594,128,0,74755:0:0:0:0:
36,192,74634,128,0,74876:0:0:0:0:
329,192,74675,128,0,74957:0:0:0:0:
475,192,74755,128,0,74876:0:0:0:0:
256,192,74755,128,0,74876:0:0:0:0:
182,192,74836,128,0,75038:0:0:0:0:
402,192,74876,128,0,75038:0:0:0:0:
109,192,74917,1,0,0:0:0:0:0
36,192,74997,128,0,75239:0:0:0:0:
256,192,74997,128,0,75118:0:0:0:0:
475,192,74997,128,0,75118:0:0:0:0:
329,192,75078,1,0,0:0:0:0:0
109,192,75078,128,0,75723:0:0:0:0:
182,192,75159,128,0,75602:0:0:0:0:
402,192,75159,128,0,75965:0:0:0:0:
329,192,75239,128,0,75360:0:0:0:0:
475,192,75239,128,0,75481:0:0:0:0:
256,192,75239,128,0,75481:0:0:0:0:
36,192,75360,128,0,75844:0:0:0:0:
329,192,75481,128,0,76449:0:0:0:0:
256,192,75602,128,0,76207:0:0:0:0:
182,192,75723,128,0,76086:0:0:0:0:
109,192,75844,128,0,75965:0:0:0:0:
36,192,75965,128,0,76691:0:0:0:0:
475,192,75965,128,0,76328:0:0:0:0:
109,192,76086,128,0,76570:0:0:0:0:
182,192,76207,128,0,76449:0:0:0:0:
256,192,76328,128,0,76933:0:0:0:0:
475,192,76449,128,0,77054:0:0:0:0:
402,192,76449,128,0,76812:0:0:0:0:
182,192,76570,128,0,79232:0:0:0:0:
109,192,76691,128,0,76933:0:0:0:0:
36,192,76812,128,0,79232:0:0:0:0:
402,192,76933,128,0,77297:0:0:0:0:
329,192,76933,128,0,77175:0:0:0:0:
109,192,77054,128,0,77297:0:0:0:0:
475,192,77175,128,0,79232:0:0:0:0:
329,192,77296,128,0,79232:0:0:0:0:
109,192,77418,1,0,0:0:0:0:0
256,192,77418,128,0,78748:0:0:0:0:
402,192,77418,1,0,0:0:0:0:0
256,192,78869,128,0,79352:0:0:0:0:
109,192,78869,128,0,79232:0:0:0:0:
402,192,78869,128,0,79232:0:0:0:0:
36,192,79353,128,0,79594:0:0:0:0:
329,192,79353,128,0,79594:0:0:0:0:
475,192,79353,1,0,0:0:0:0:0
109,192,79353,1,0,0:0:0:0:0
402,192,79353,1,0,0:0:0:0:0
182,192,79353,1,0,0:0:0:0:0
256,192,79473,128,0,79715:0:0:0:0:
109,192,79594,128,0,79715:0:0:0:0:
475,192,79594,128,0,79715:0:0:0:0:
182,192,79594,128,0,79836:0:0:0:0:
402,192,79594,128,0,79836:0:0:0:0:
36,192,79715,128,0,79836:0:0:0:0:
475,192,79836,128,0,80199:0:0:0:0:
109,192,79836,128,0,80078:0:0:0:0:
256,192,79836,128,0,79957:0:0:0:0:
329,192,79836,128,0,80078:0:0:0:0:
36,192,79957,128,0,80199:0:0:0:0:
402,192,79957,128,0,80199:0:0:0:0:
182,192,79957,128,0,80199:0:0:0:0:
256,192,80078,128,0,80199:0:0:0:0:
109,192,80199,128,0,80320:0:0:0:0:
36,192,80320,128,0,80441:0:0:0:0:
475,192,80320,128,0,80441:0:0:0:0:
182,192,80320,128,0,80441:0:0:0:0:
402,192,80320,128,0,80562:0:0:0:0:
256,192,80320,128,0,80441:0:0:0:0:
329,192,80320,128,0,80562:0:0:0:0:
109,192,80441,128,0,80804:0:0:0:0:
36,192,80562,128,0,80683:0:0:0:0:
475,192,80562,128,0,80683:0:0:0:0:
256,192,80562,128,0,80804:0:0:0:0:
182,192,80562,128,0,80683:0:0:0:0:
402,192,80683,128,0,80804:0:0:0:0:
36,192,80804,128,0,81046:0:0:0:0:
182,192,80804,128,0,80925:0:0:0:0:
475,192,80804,128,0,81167:0:0:0:0:
329,192,80804,128,0,81046:0:0:0:0:
402,192,80925,128,0,81167:0:0:0:0:
256,192,80925,128,0,81167:0:0:0:0:
109,192,80925,128,0,81167:0:0:0:0:
182,192,81046,128,0,81167:0:0:0:0:
36,192,81167,128,0,81288:0:0:0:0:
402,192,81288,128,0,81409:0:0:0:0:
109,192,81288,128,0,81409:0:0:0:0:
182,192,81288,128,0,81530:0:0:0:0:
475,192,81288,128,0,81409:0:0:0:0:
256,192,81288,128,0,81409:0:0:0:0:
329,192,81288,128,0,81530:0:0:0:0:
36,192,81409,128,0,81651:0:0:0:0:
475,192,81530,128,0,81651:0:0:0:0:
402,192,81530,128,0,81772:0:0:0:0:
109,192,81530,128,0,81772:0:0:0:0:
256,192,81530,128,0,81651:0:0:0:0:
182,192,81651,128,0,81772:0:0:0:0:
256,192,81772,128,0,81893:0:0:0:0:
36,192,81772,128,0,82135:0:0:0:0:
475,192,81772,128,0,82135:0:0:0:0:
329,192,81772,128,0,82014:0:0:0:0:
402,192,81893,128,0,82135:0:0:0:0:
109,192,81893,128,0,82135:0:0:0:0:
182,192,81893,128,0,82014:0:0:0:0:
256,192,82014,128,0,82135:0:0:0:0:
182,192,82135,128,0,82256:0:0:0:0:
36,192,82256,128,0,82377:0:0:0:0:
256,192,82256,128,0,82498:0:0:0:0:
475,192,82256,128,0,82377:0:0:0:0:
402,192,82256,128,0,82377:0:0:0:0:
329,192,82256,128,0,82498:0:0:0:0:
109,192,82256,128,0,82377:0:0:0:0:
182,192,82377,128,0,82740:0:0:0:0:
109,192,82498,128,0,82861:0:0:0:0:
36,192,82498,128,0,82740:0:0:0:0:
475,192,82498,128,0,82740:0:0:0:0:
402,192,82498,128,0,82861:0:0:0:0:
256,192,82619,128,0,82861:0:0:0:0:
329,192,82740,128,0,82982:0:0:0:0:
182,192,82861,128,0,83102:0:0:0:0:
36,192,82861,128,0,83102:0:0:0:0:
475,192,82861,128,0,82982:0:0:0:0:
109,192,82982,1,0,0:0:0:0:0
402,192,82982,1,0,0:0:0:0:0
256,192,82982,1,0,0:0:0:0:0
475,192,83103,1,0,0:0:0:0:0
182,192,83223,128,0,83465:0:0:0:0:
109,192,83223,128,0,83344:0:0:0:0:
256,192,83223,128,0,83465:0:0:0:0:
36,192,83223,128,0,83344:0:0:0:0:
329,192,83223,128,0,83344:0:0:0:0:
402,192,83223,128,0,83344:0:0:0:0:
475,192,83344,128,0,83586:0:0:0:0:
36,192,83465,128,0,83586:0:0:0:0:
109,192,83465,128,0,83707:0:0:0:0:
329,192,83465,128,0,83586:0:0:0:0:
402,192,83465,128,0,83707:0:0:0:0:
256,192,83586,128,0,83707:0:0:0:0:
475,192,83707,128,0,83949:0:0:0:0:
182,192,83707,128,0,83949:0:0:0:0:
36,192,83707,128,0,84070:0:0:0:0:
329,192,83707,128,0,83828:0:0:0:0:
256,192,83828,128,0,84070:0:0:0:0:
109,192,83828,128,0,84070:0:0:0:0:
402,192,83828,128,0,84070:0:0:0:0:
329,192,83949,128,0,84070:0:0:0:0:
475,192,84070,128,0,84191:0:0:0:0:
109,192,84191,128,0,84433:0:0:0:0:
402,192,84191,128,0,84312:0:0:0:0:
256,192,84191,128,0,84312:0:0:0:0:
329,192,84191,128,0,84312:0:0:0:0:
36,192,84191,128,0,84312:0:0:0:0:
182,192,84191,128,0,84433:0:0:0:0:
475,192,84312,128,0,84675:0:0:0:0:
329,192,84433,128,0,84675:0:0:0:0:
36,192,84433,128,0,84554:0:0:0:0:
402,192,84433,128,0,84554:0:0:0:0:
256,192,84433,128,0,84554:0:0:0:0:
109,192,84554,128,0,84675:0:0:0:0:
402,192,84675,128,0,84917:0:0:0:0:
36,192,84675,128,0,85038:0:0:0:0:
182,192,84675,128,0,84917:0:0:0:0:
256,192,84675,128,0,84796:0:0:0:0:
329,192,84796,128,0,85038:0:0:0:0:
109,192,84796,128,0,85038:0:0:0:0:
475,192,84796,128,0,85038:0:0:0:0:
256,192,84917,128,0,85038:0:0:0:0:
402,192,85038,128,0,85159:0:0:0:0:
36,192,85159,128,0,85280:0:0:0:0:
182,192,85159,128,0,85401:0:0:0:0:
329,192,85159,128,0,85280:0:0:0:0:
475,192,85159,128,0,85280:0:0:0:0:
109,192,85159,128,0,85280:0:0:0:0:
256,192,85159,128,0,85401:0:0:0:0:
402,192,85280,128,0,85643:0:0:0:0:
36,192,85401,128,0,85522:0:0:0:0:
329,192,85401,128,0,85522:0:0:0:0:
475,192,85401,128,0,85522:0:0:0:0:
109,192,85401,128,0,85643:0:0:0:0:
256,192,85522,128,0,85643:0:0:0:0:
329,192,85643,128,0,85764:0:0:0:0:
36,192,85643,128,0,86006:0:0:0:0:
182,192,85643,128,0,85885:0:0:0:0:
475,192,85643,128,0,85885:0:0:0:0:
256,192,85764,128,0,86006:0:0:0:0:
109,192,85764,128,0,86006:0:0:0:0:
402,192,85764,128,0,86006:0:0:0:0:
329,192,85885,128,0,86006:0:0:0:0:
475,192,86006,128,0,86127:0:0:0:0:
256,192,86127,128,0,86248:0:0:0:0:
109,192,86127,128,0,86248:0:0:0:0:
182,192,86127,128,0,86369:0:0:0:0:
402,192,86127,128,0,86248:0:0:0:0:
329,192,86127,128,0,86248:0:0:0:0:
36,192,86127,128,0,86369:0:0:0:0:
475,192,86248,128,0,86490:0:0:0:0:
256,192,86369,128,0,86611:0:0:0:0:
402,192,86369,128,0,86611:0:0:0:0:
109,192,86369,128,0,86490:0:0:0:0:
329,192,86369,128,0,86490:0:0:0:0:
36,192,86490,128,0,86852:0:0:0:0:
109,192,86611,1,0,0:0:0:0:0
182,192,86611,128,0,86852:0:0:0:0:
475,192,86611,128,0,86973:0:0:0:0:
329,192,86611,1,0,0:0:0:0:0
256,192,86732,1,0,0:0:0:0:0
402,192,86732,128,0,86973:0:0:0:0:
109,192,86852,128,0,86973:0:0:0:0:
329,192,86852,128,0,86973:0:0:0:0:
256,192,86973,128,0,87094:0:0:0:0:
36,192,86973,128,0,87215:0:0:0:0:
329,192,87094,128,0,87215:0:0:0:0:
475,192,87094,128,0,87215:0:0:0:0:
402,192,87094,128,0,87336:0:0:0:0:
109,192,87094,128,0,87336:0:0:0:0:
182,192,87094,128,0,87215:0:0:0:0:
256,192,87215,128,0,87457:0:0:0:0:
182,192,87336,128,0,87578:0:0:0:0:
475,192,87336,128,0,87578:0:0:0:0:
329,192,87336,128,0,87457:0:0:0:0:
36,192,87336,128,0,87457:0:0:0:0:
109,192,87457,128,0,87578:0:0:0:0:
329,192,87578,128,0,87699:0:0:0:0:
256,192,87578,128,0,87820:0:0:0:0:
402,192,87578,128,0,87820:0:0:0:0:
36,192,87578,128,0,87941:0:0:0:0:
475,192,87699,128,0,87941:0:0:0:0:
109,192,87699,128,0,87941:0:0:0:0:
182,192,87699,128,0,87941:0:0:0:0:
329,192,87820,128,0,87941:0:0:0:0:
256,192,87941,128,0,88062:0:0:0:0:
475,192,88062,128,0,88304:0:0:0:0:
109,192,88062,128,0,88183:0:0:0:0:
329,192,88062,128,0,88183:0:0:0:0:
36,192,88062,128,0,88183:0:0:0:0:
402,192,88062,128,0,88304:0:0:0:0:
182,192,88062,128,0,88183:0:0:0:0:
256,192,88183,128,0,88546:0:0:0:0:
36,192,88304,128,0,88425:0:0:0:0:
329,192,88304,128,0,88425:0:0:0:0:
182,192,88304,128,0,88425:0:0:0:0:
109,192,88304,128,0,88546:0:0:0:0:
475,192,88425,128,0,88546:0:0:0:0:
402,192,88546,128,0,88788:0:0:0:0:
182,192,88546,128,0,88788:0:0:0:0:
329,192,88546,128,0,88667:0:0:0:0:
36,192,88546,128,0,88909:0:0:0:0:
256,192,88667,128,0,88909:0:0:0:0:
109,192,88667,128,0,88909:0:0:0:0:
475,192,88667,128,0,88909:0:0:0:0:
329,192,88788,128,0,88909:0:0:0:0:
182,192,88909,128,0,89030:0:0:0:0:
402,192,89030,128,0,89272:0:0:0:0:
36,192,89030,128,0,89151:0:0:0:0:
109,192,89030,128,0,89151:0:0:0:0:
329,192,89030,128,0,89272:0:0:0:0:
475,192,89030,128,0,89151:0:0:0:0:
256,192,89030,128,0,89151:0:0:0:0:
182,192,89151,128,0,89514:0:0:0:0:
36,192,89272,128,0,89514:0:0:0:0:
109,192,89272,128,0,89393:0:0:0:0:
475,192,89272,128,0,89393:0:0:0:0:
256,192,89272,128,0,89393:0:0:0:0:
329,192,89393,128,0,89514:0:0:0:0:
402,192,89514,128,0,89756:0:0:0:0:
256,192,89514,128,0,89756:0:0:0:0:
109,192,89514,128,0,89877:0:0:0:0:
475,192,89514,128,0,89635:0:0:0:0:
36,192,89635,128,0,89877:0:0:0:0:
182,192,89635,128,0,89877:0:0:0:0:
329,192,89635,128,0,89877:0:0:0:0:
475,192,89756,128,0,89877:0:0:0:0:
256,192,89877,128,0,89998:0:0:0:0:
402,192,89998,128,0,90240:0:0:0:0:
36,192,89998,128,0,90119:0:0:0:0:
182,192,89998,128,0,90119:0:0:0:0:
329,192,89998,128,0,90119:0:0:0:0:
109,192,89998,128,0,90240:0:0:0:0:
475,192,89998,128,0,90119:0:0:0:0:
256,192,90119,128,0,90482:0:0:0:0:
329,192,90240,128,0,90602:0:0:0:0:
36,192,90240,128,0,90482:0:0:0:0:
182,192,90240,128,0,90482:0:0:0:0:
475,192,90240,128,0,90602:0:0:0:0:
109,192,90361,128,0,90602:0:0:0:0:
402,192,90482,128,0,90723:0:0:0:0:
256,192,90602,128,0,90844:0:0:0:0:
182,192,90602,128,0,90723:0:0:0:0:
36,192,90602,128,0,90844:0:0:0:0:
475,192,90723,128,0,90844:0:0:0:0:
109,192,90723,128,0,90844:0:0:0:0:
329,192,90723,128,0,90844:0:0:0:0:
182,192,90844,128,0,90965:0:0:0:0:
402,192,90965,128,0,91207:0:0:0:0:
475,192,90965,128,0,91086:0:0:0:0:
256,192,90965,128,0,91086:0:0:0:0:
109,192,90965,128,0,91207:0:0:0:0:
329,192,90965,128,0,91086:0:0:0:0:
36,192,90965,128,0,91086:0:0:0:0:
182,192,91086,128,0,91449:0:0:0:0:
256,192,91207,128,0,91328:0:0:0:0:
329,192,91207,128,0,91449:0:0:0:0:
475,192,91207,128,0,91328:0:0:0:0:
36,192,91207,128,0,91328:0:0:0:0:
402,192,91328,128,0,91449:0:0:0:0:
256,192,91449,128,0,91570:0:0:0:0:
475,192,91449,128,0,91812:0:0:0:0:
36,192,91449,128,0,91812:0:0:0:0:
109,192,91449,128,0,91691:0:0:0:0:
182,192,91570,128,0,91812:0:0:0:0:
329,192,91570,128,0,91691:0:0:0:0:
402,192,91570,128,0,91812:0:0:0:0:
256,192,91691,128,0,91812:0:0:0:0:
329,192,91812,128,0,91933:0:0:0:0:
402,192,91933,128,0,92054:0:0:0:0:
256,192,91933,128,0,92175:0:0:0:0:
182,192,91933,128,0,92054:0:0:0:0:
36,192,91933,128,0,92054:0:0:0:0:
475,192,91933,128,0,92054:0:0:0:0:
109,192,91933,128,0,92175:0:0:0:0:
329,192,92054,128,0,92417:0:0:0:0:
402,192,92175,128,0,92296:0:0:0:0:
36,192,92175,128,0,92296:0:0:0:0:
475,192,92175,128,0,92417:0:0:0:0:
182,192,92175,128,0,92296:0:0:0:0:
256,192,92296,128,0,92417:0:0:0:0:
402,192,92417,128,0,92659:0:0:0:0:
109,192,92417,128,0,92659:0:0:0:0:
36,192,92417,128,0,92901:0:0:0:0:
182,192,92417,128,0,92538:0:0:0:0:
475,192,92538,128,0,93748:0:0:0:0:
329,192,92538,128,0,92901:0:0:0:0:
256,192,92538,128,0,92901:0:0:0:0:
182,192,92659,128,0,92901:0:0:0:0:
402,192,92780,128,0,93828:0:0:0:0:
109,192,92901,128,0,94151:0:0:0:0:
182,192,93869,128,0,94070:0:0:0:0:
475,192,93869,128,0,94473:0:0:0:0:
36,192,93869,128,0,94231:0:0:0:0:
329,192,93869,1,0,0:0:0:0:0
256,192,93869,128,0,93990:0:0:0:0:
402,192,93949,128,0,94393:0:0:0:0:
329,192,94030,128,0,94312:0:0:0:0:
256,192,94111,1,0,0:0:0:0:0
182,192,94191,128,0,94393:0:0:0:0:
109,192,94272,1,0,0:0:0:0:0
256,192,94352,128,0,94473:0:0:0:0:
36,192,94352,128,0,94715:0:0:0:0:
329,192,94433,128,0,94836:0:0:0:0:
109,192,94433,128,0,94594:0:0:0:0:
182,192,94514,128,0,94836:0:0:0:0:
402,192,94514,128,0,94715:0:0:0:0:
256,192,94594,128,0,94715:0:0:0:0:
475,192,94594,128,0,94836:0:0:0:0:
109,192,94715,128,0,94957:0:0:0:0:
256,192,94836,128,0,95078:0:0:0:0:
36,192,94836,128,0,95078:0:0:0:0:
402,192,94836,128,0,94957:0:0:0:0:
475,192,94957,128,0,95078:0:0:0:0:
329,192,94957,128,0,95199:0:0:0:0:
182,192,95078,128,0,95199:0:0:0:0:
109,192,95078,128,0,95199:0:0:0:0:
402,192,95078,128,0,95441:0:0:0:0:
36,192,95199,128,0,95320:0:0:0:0:
475,192,95199,128,0,95804:0:0:0:0:
256,192,95199,128,0,95320:0:0:0:0:
182,192,95320,128,0,95441:0:0:0:0:
109,192,95320,128,0,95441:0:0:0:0:
329,192,95441,128,0,95562:0:0:0:0:
36,192,95441,128,0,95683:0:0:0:0:
256,192,95441,128,0,95562:0:0:0:0:
182,192,95562,128,0,95683:0:0:0:0:
109,192,95562,128,0,95683:0:0:0:0:
329,192,95683,128,0,95804:0:0:0:0:
256,192,95683,128,0,95804:0:0:0:0:
36,192,95804,128,0,95925:0:0:0:0:
109,192,95804,128,0,96046:0:0:0:0:
402,192,95804,128,0,95925:0:0:0:0:
182,192,95804,128,0,95925:0:0:0:0:
329,192,95925,128,0,96167:0:0:0:0:
256,192,95925,128,0,96046:0:0:0:0:
36,192,96046,128,0,96167:0:0:0:0:
402,192,96046,128,0,96288:0:0:0:0:
182,192,96046,128,0,96167:0:0:0:0:
256,192,96167,128,0,96288:0:0:0:0:
109,192,96167,128,0,96288:0:0:0:0:
182,192,96288,128,0,96409:0:0:0:0:
475,192,96288,128,0,96530:0:0:0:0:
36,192,96288,128,0,96409:0:0:0:0:
329,192,96288,128,0,96530:0:0:0:0:
109,192,96409,128,0,96530:0:0:0:0:
256,192,96409,128,0,96772:0:0:0:0:
402,192,96530,128,0,96651:0:0:0:0:
36,192,96530,128,0,96651:0:0:0:0:
182,192,96530,128,0,96893:0:0:0:0:
329,192,96651,1,0,0:0:0:0:0
109,192,96651,128,0,96772:0:0:0:0:
475,192,96651,128,0,96772:0:0:0:0:
402,192,96772,128,0,96893:0:0:0:0:
36,192,96772,128,0,97014:0:0:0:0:
329,192,96772,128,0,96893:0:0:0:0:
475,192,96893,128,0,97014:0:0:0:0:
256,192,96893,128,0,97256:0:0:0:0:
109,192,96893,128,0,97135:0:0:0:0:
402,192,97014,128,0,97135:0:0:0:0:
182,192,97014,1,0,0:0:0:0:0
329,192,97014,128,0,97135:0:0:0:0:
36,192,97135,1,0,0:0:0:0:0
182,192,97135,128,0,97377:0:0:0:0:
475,192,97135,128,0,97256:0:0:0:0:
402,192,97256,128,0,97377:0:0:0:0:
109,192,97256,1,0,0:0:0:0:0
329,192,97256,128,0,97498:0:0:0:0:
36,192,97256,128,0,97498:0:0:0:0:
109,192,97377,128,0,97619:0:0:0:0:
256,192,97377,1,0,0:0:0:0:0
475,192,97377,128,0,97619:0:0:0:0:
402,192,97498,128,0,97740:0:0:0:0:
256,192,97498,128,0,97619:0:0:0:0:
182,192,97498,1,0,0:0:0:0:0
36,192,97619,128,0,97740:0:0:0:0:
329,192,97619,128,0,97740:0:0:0:0:
182,192,97619,128,0,97981:0:0:0:0:
109,192,97740,128,0,97861:0:0:0:0:
256,192,97740,128,0,97861:0:0:0:0:
475,192,97740,128,0,97981:0:0:0:0:
36,192,97861,128,0,98102:0:0:0:0:
329,192,97861,128,0,98223:0:0:0:0:
256,192,97982,1,0,0:0:0:0:0
109,192,97982,128,0,98223:0:0:0:0:
475,192,98102,128,0,98223:0:0:0:0:
182,192,98102,128,0,98344:0:0:0:0:
402,192,98223,128,0,98344:0:0:0:0:
36,192,98223,128,0,98465:0:0:0:0:
256,192,98223,128,0,98707:0:0:0:0:
109,192,98344,128,0,98586:0:0:0:0:
475,192,98344,128,0,98465:0:0:0:0:
402,192,98465,128,0,98586:0:0:0:0:
182,192,98465,128,0,98707:0:0:0:0:
36,192,98586,128,0,98828:0:0:0:0:
475,192,98586,128,0,98707:0:0:0:0:
402,192,98707,128,0,99070:0:0:0:0:
109,192,98707,128,0,98949:0:0:0:0:
329,192,98707,128,0,98828:0:0:0:0:
182,192,98828,128,0,99070:0:0:0:0:
475,192,98828,128,0,98949:0:0:0:0:
36,192,98949,128,0,99191:0:0:0:0:
329,192,98949,128,0,99070:0:0:0:0:
109,192,99070,128,0,99312:0:0:0:0:
256,192,99070,1,0,0:0:0:0:0
475,192,99070,128,0,99191:0:0:0:0:
182,192,99191,128,0,99433:0:0:0:0:
256,192,99191,128,0,99433:0:0:0:0:
329,192,99191,128,0,99312:0:0:0:0:
475,192,99312,128,0,99554:0:0:0:0:
36,192,99312,128,0,99433:0:0:0:0:
402,192,99433,128,0,99675:0:0:0:0:
329,192,99433,128,0,99554:0:0:0:0:
109,192,99433,128,0,99554:0:0:0:0:
36,192,99554,128,0,99796:0:0:0:0:
182,192,99554,128,0,99675:0:0:0:0:
475,192,99675,128,0,99796:0:0:0:0:
109,192,99675,128,0,99917:0:0:0:0:
329,192,99675,128,0,99796:0:0:0:0:
402,192,99796,128,0,99917:0:0:0:0:
182,192,99796,128,0,100038:0:0:0:0:
256,192,99796,128,0,99917:0:0:0:0:
36,192,99917,128,0,100038:0:0:0:0:
475,192,99917,128,0,100038:0:0:0:0:
329,192,99917,128,0,100159:0:0:0:0:
402,192,100038,128,0,100280:0:0:0:0:
109,192,100038,128,0,100159:0:0:0:0:
256,192,100038,128,0,100280:0:0:0:0:
475,192,100159,128,0,100401:0:0:0:0:
36,192,100159,128,0,100280:0:0:0:0:
329,192,100280,128,0,100522:0:0:0:0:
182,192,100280,128,0,100401:0:0:0:0:
109,192,100280,128,0,100522:0:0:0:0:
402,192,100401,128,0,100643:0:0:0:0:
36,192,100401,128,0,100522:0:0:0:0:
475,192,100522,128,0,100643:0:0:0:0:
182,192,100522,128,0,100643:0:0:0:0:
256,192,100522,1,0,0:0:0:0:0
329,192,100643,128,0,100764:0:0:0:0:
36,192,100643,128,0,100764:0:0:0:0:
256,192,100643,128,0,101127:0:0:0:0:
109,192,100643,128,0,100885:0:0:0:0:
475,192,100764,128,0,100885:0:0:0:0:
182,192,100764,128,0,101006:0:0:0:0:
329,192,100885,128,0,101006:0:0:0:0:
36,192,100885,128,0,101006:0:0:0:0:
475,192,101006,128,0,101369:0:0:0:0:
109,192,101006,128,0,101127:0:0:0:0:
182,192,101127,128,0,101369:0:0:0:0:
329,192,101127,128,0,101248:0:0:0:0:
36,192,101127,128,0,101248:0:0:0:0:
256,192,101248,128,0,101369:0:0:0:0:
109,192,101248,128,0,101490:0:0:0:0:
402,192,101369,128,0,101490:0:0:0:0:
36,192,101369,128,0,101611:0:0:0:0:
329,192,101369,128,0,101490:0:0:0:0:
182,192,101490,128,0,101731:0:0:0:0:
256,192,101490,128,0,101611:0:0:0:0:
402,192,101611,1,0,0:0:0:0:0
329,192,101611,128,0,102094:0:0:0:0:
109,192,101611,128,0,101852:0:0:0:0:
36,192,101732,128,0,101973:0:0:0:0:
256,192,101732,1,0,0:0:0:0:0
402,192,101852,128,0,101973:0:0:0:0:
182,192,101852,128,0,101973:0:0:0:0:
256,192,101973,128,0,102094:0:0:0:0:
109,192,101973,128,0,102094:0:0:0:0:
402,192,102094,128,0,102336:0:0:0:0:
36,192,102094,128,0,102336:0:0:0:0:
475,192,102094,128,0,102215:0:0:0:0:
182,192,102094,128,0,102215:0:0:0:0:
256,192,102215,128,0,102578:0:0:0:0:
109,192,102215,128,0,102578:0:0:0:0:
475,192,102336,128,0,102457:0:0:0:0:
182,192,102336,128,0,102457:0:0:0:0:
402,192,102457,128,0,102578:0:0:0:0:
36,192,102457,128,0,102578:0:0:0:0:
475,192,102578,128,0,102820:0:0:0:0:
329,192,102578,128,0,102699:0:0:0:0:
182,192,102578,128,0,102699:0:0:0:0:
402,192,102699,128,0,102941:0:0:0:0:
36,192,102699,128,0,102820:0:0:0:0:
329,192,102820,128,0,102941:0:0:0:0:
182,192,102820,128,0,102941:0:0:0:0:
475,192,102941,128,0,103062:0:0:0:0:
36,192,102941,128,0,103062:0:0:0:0:
402,192,103062,128,0,103183:0:0:0:0:
329,192,103062,128,0,103304:0:0:0:0:
256,192,103062,128,0,103304:0:0:0:0:
182,192,103062,128,0,103304:0:0:0:0:
109,192,103062,128,0,103183:0:0:0:0:
475,192,103183,128,0,103304:0:0:0:0:
36,192,103183,128,0,103425:0:0:0:0:
402,192,103304,128,0,103425:0:0:0:0:
109,192,103304,128,0,103425:0:0:0:0:
475,192,103425,128,0,103546:0:0:0:0:
256,192,103425,128,0,103546:0:0:0:0:
402,192,103546,128,0,103667:0:0:0:0:
36,192,103546,128,0,103667:0:0:0:0:
109,192,103546,128,0,103667:0:0:0:0:
256,192,103667,128,0,103788:0:0:0:0:
475,192,103667,128,0,103788:0:0:0:0:
36,192,103788,128,0,103909:0:0:0:0:
402,192,103788,128,0,104151:0:0:0:0:
182,192,103788,128,0,104030:0:0:0:0:
329,192,103788,128,0,104030:0:0:0:0:
109,192,103788,128,0,103909:0:0:0:0:
256,192,103909,128,0,104151:0:0:0:0:
475,192,103909,128,0,104030:0:0:0:0:
36,192,104030,128,0,104151:0:0:0:0:
109,192,104030,128,0,104151:0:0:0:0:
475,192,104151,128,0,104272:0:0:0:0:
182,192,104151,128,0,104272:0:0:0:0:
329,192,104151,128,0,104393:0:0:0:0:
109,192,104272,128,0,104393:0:0:0:0:
36,192,104272,128,0,104393:0:0:0:0:
475,192,104393,128,0,104514:0:0:0:0:
182,192,104393,128,0,104756:0:0:0:0:
256,192,104514,128,0,104635:0:0:0:0:
109,192,104514,128,0,104756:0:0:0:0:
402,192,104514,128,0,104635:0:0:0:0:
329,192,104514,128,0,104756:0:0:0:0:
36,192,104514,128,0,104756:0:0:0:0:
475,192,104635,128,0,104877:0:0:0:0:
402,192,104756,128,0,104877:0:0:0:0:
256,192,104756,128,0,104877:0:0:0:0:
109,192,104877,128,0,104998:0:0:0:0:
329,192,104877,128,0,104998:0:0:0:0:
475,192,104998,128,0,105119:0:0:0:0:
256,192,104998,128,0,105240:0:0:0:0:
402,192,104998,128,0,105119:0:0:0:0:
109,192,105119,128,0,105482:0:0:0:0:
329,192,105119,128,0,105240:0:0:0:0:
475,192,105240,128,0,105361:0:0:0:0:
182,192,105240,128,0,105361:0:0:0:0:
402,192,105240,128,0,105441:0:0:0:0:
36,192,105240,128,0,105361:0:0:0:0:
329,192,105361,128,0,105522:0:0:0:0:
256,192,105361,128,0,105602:0:0:0:0:
475,192,105482,128,0,105925:0:0:0:0:
182,192,105482,128,0,105683:0:0:0:0:
36,192,105482,128,0,105764:0:0:0:0:
402,192,105562,128,0,105844:0:0:0:0:
329,192,105643,128,0,106086:0:0:0:0:
256,192,105723,128,0,106006:0:0:0:0:
182,192,105804,128,0,105925:0:0:0:0:
36,192,105885,128,0,106006:0:0:0:0:
402,192,105965,128,0,106328:0:0:0:0:
109,192,105965,128,0,106086:0:0:0:0:
182,192,106046,128,0,106207:0:0:0:0:
475,192,106046,128,0,106328:0:0:0:0:
256,192,106127,128,0,106328:0:0:0:0:
36,192,106127,128,0,106328:0:0:0:0:
329,192,106207,128,0,106328:0:0:0:0:
109,192,106207,128,0,106328:0:0:0:0:
182,192,106328,128,0,106449:0:0:0:0:
402,192,106449,128,0,106570:0:0:0:0:
329,192,106449,128,0,106812:0:0:0:0:
256,192,106449,128,0,107054:0:0:0:0:
36,192,106449,128,0,106933:0:0:0:0:
475,192,106449,128,0,107054:0:0:0:0:
109,192,106449,128,0,106691:0:0:0:0:
182,192,106570,128,0,107054:0:0:0:0:
402,192,106691,128,0,107054:0:0:0:0:
109,192,106812,128,0,107054:0:0:0:0:
329,192,106933,128,0,107054:0:0:0:0:
36,192,107054,128,0,107175:0:0:0:0:
402,192,107175,128,0,107296:0:0:0:0:
329,192,107175,128,0,107538:0:0:0:0:
182,192,107175,128,0,107780:0:0:0:0:
256,192,107175,128,0,107417:0:0:0:0:
475,192,107175,128,0,107780:0:0:0:0:
109,192,107175,128,0,107780:0:0:0:0:
36,192,107296,128,0,107780:0:0:0:0:
402,192,107417,128,0,107659:0:0:0:0:
256,192,107538,128,0,107780:0:0:0:0:
329,192,107659,128,0,107901:0:0:0:0:
402,192,107780,128,0,108022:0:0:0:0:
36,192,107901,128,0,108022:0:0:0:0:
109,192,107901,128,0,108143:0:0:0:0:
182,192,107901,128,0,108264:0:0:0:0:
256,192,107901,128,0,108264:0:0:0:0:
475,192,107901,128,0,108385:0:0:0:0:
329,192,108022,128,0,108143:0:0:0:0:
36,192,108143,128,0,108506:0:0:0:0:
329,192,108264,128,0,108385:0:0:0:0:
182,192,108385,128,0,108627:0:0:0:0:
329,192,108506,128,0,108748:0:0:0:0:
475,192,108748,128,0,108869:0:0:0:0:
402,192,108869,128,0,108990:0:0:0:0:
329,192,108990,128,0,109111:0:0:0:0:
256,192,109111,128,0,109232:0:0:0:0:
182,192,109232,1,0,0:0:0:0:0
109,192,109352,128,0,109473:0:0:0:0:
36,192,109473,128,0,109594:0:0:0:0:
182,192,109715,1,0,0:0:0:0:0
402,192,109715,1,0,0:0:0:0:0
36,192,109715,1,0,0:0:0:0:0
475,192,109715,1,0,0:0:0:0:0
109,192,109715,1,0,0:0:0:0:0
329,192,109715,1,0,0:0:0:0:0
256,192,109715,1,0,0:0:0:0:0
109,192,109836,128,0,110320:0:0:0:0:
182,192,109836,128,0,110320:0:0:0:0:
36,192,109836,128,0,110320:0:0:0:0:
475,192,109836,128,0,110320:0:0:0:0:
402,192,109836,128,0,110320:0:0:0:0:
256,192,109836,128,0,110320:0:0:0:0:
329,192,109836,128,0,110320:0:0:0:0:
182,192,110441,128,0,110562:0:0:0:0:
329,192,110441,128,0,110562:0:0:0:0:
475,192,110441,128,0,110562:0:0:0:0:
402,192,110441,128,0,110562:0:0:0:0:
109,192,110441,128,0,110562:0:0:0:0:
36,192,110683,1,0,0:0:0:0:0
475,192,110683,1,0,0:0:0:0:0
109,192,110683,1,0,0:0:0:0:0
256,192,110683,1,0,0:0:0:0:0
329,192,110683,1,0,0:0:0:0:0
256,192,110804,128,0,111046:0:0:0:0:
402,192,110804,1,0,0:0:0:0:0
182,192,110804,1,0,0:0:0:0:0
36,192,110804,128,0,110925:0:0:0:0:
475,192,110804,128,0,111046:0:0:0:0:
109,192,110804,128,0,110925:0:0:0:0:
329,192,110804,128,0,110925:0:0:0:0:
402,192,110925,128,0,111288:0:0:0:0:
182,192,110925,128,0,111288:0:0:0:0:
36,192,111046,128,0,111288:0:0:0:0:
109,192,111046,128,0,111288:0:0:0:0:
329,192,111046,128,0,111288:0:0:0:0:
256,192,111167,128,0,111530:0:0:0:0:
475,192,111167,128,0,111530:0:0:0:0:
36,192,111409,128,0,111530:0:0:0:0:
109,192,111409,128,0,111530:0:0:0:0:
329,192,111409,128,0,111530:0:0:0:0:
109,192,111651,1,0,0:0:0:0:0
182,192,111651,1,0,0:0:0:0:0
402,192,111651,1,0,0:0:0:0:0
329,192,111651,1,0,0:0:0:0:0
475,192,111651,1,0,0:0:0:0:0
256,192,111772,1,0,0:0:0:0:0
36,192,111772,1,0,0:0:0:0:0
109,192,111772,128,0,111893:0:0:0:0:
182,192,111772,128,0,112014:0:0:0:0:
402,192,111772,128,0,112014:0:0:0:0:
329,192,111772,128,0,111893:0:0:0:0:
475,192,111772,128,0,111893:0:0:0:0:
256,192,111893,128,0,112256:0:0:0:0:
36,192,111893,128,0,112256:0:0:0:0:
109,192,112014,128,0,112256:0:0:0:0:
329,192,112014,128,0,112256:0:0:0:0:
475,192,112014,128,0,112256:0:0:0:0:
402,192,112135,128,0,112498:0:0:0:0:
182,192,112135,128,0,112498:0:0:0:0:
36,192,112377,128,0,112498:0:0:0:0:
256,192,112377,128,0,112498:0:0:0:0:
475,192,112377,128,0,112498:0:0:0:0:
109,192,112619,1,0,0:0:0:0:0
475,192,112619,1,0,0:0:0:0:0
329,192,112619,1,0,0:0:0:0:0
36,192,112619,1,0,0:0:0:0:0
256,192,112619,1,0,0:0:0:0:0
109,192,112740,128,0,112981:0:0:0:0:
329,192,112740,128,0,112861:0:0:0:0:
36,192,112740,128,0,112861:0:0:0:0:
182,192,112740,1,0,0:0:0:0:0
402,192,112740,1,0,0:0:0:0:0
475,192,112740,128,0,112981:0:0:0:0:
256,192,112740,128,0,112861:0:0:0:0:
182,192,112861,128,0,113223:0:0:0:0:
402,192,112861,128,0,113223:0:0:0:0:
329,192,112982,128,0,113223:0:0:0:0:
36,192,112982,128,0,113223:0:0:0:0:
256,192,112982,128,0,113223:0:0:0:0:
109,192,113102,128,0,113465:0:0:0:0:
475,192,113102,128,0,113465:0:0:0:0:
329,192,113344,128,0,113465:0:0:0:0:
402,192,113344,128,0,113465:0:0:0:0:
182,192,113344,128,0,113465:0:0:0:0:
182,192,113586,1,0,0:0:0:0:0
36,192,113586,1,0,0:0:0:0:0
329,192,113586,1,0,0:0:0:0:0
182,192,113707,128,0,113828:0:0:0:0:
109,192,113707,1,0,0:0:0:0:0
402,192,113707,1,0,0:0:0:0:0
329,192,113707,128,0,113828:0:0:0:0:
256,192,113707,1,0,0:0:0:0:0
36,192,113707,128,0,114191:0:0:0:0:
109,192,113828,128,0,113949:0:0:0:0:
475,192,113828,1,0,0:0:0:0:0
256,192,113828,128,0,113949:0:0:0:0:
402,192,113828,128,0,113949:0:0:0:0:
182,192,113949,128,0,114191:0:0:0:0:
329,192,113949,128,0,114191:0:0:0:0:
475,192,113949,128,0,114191:0:0:0:0:
109,192,114070,128,0,114433:0:0:0:0:
402,192,114070,128,0,114433:0:0:0:0:
256,192,114070,128,0,114433:0:0:0:0:
36,192,114312,128,0,114433:0:0:0:0:
329,192,114312,128,0,114433:0:0:0:0:
109,192,114554,1,0,0:0:0:0:0
475,192,114554,1,0,0:0:0:0:0
402,192,114554,1,0,0:0:0:0:0
182,192,114554,1,0,0:0:0:0:0
256,192,114554,1,0,0:0:0:0:0
256,192,114675,128,0,114917:0:0:0:0:
182,192,114675,128,0,114796:0:0:0:0:
36,192,114675,1,0,0:0:0:0:0
109,192,114675,128,0,114917:0:0:0:0:
475,192,114675,128,0,114796:0:0:0:0:
402,192,114675,128,0,114796:0:0:0:0:
329,192,114675,1,0,0:0:0:0:0
36,192,114796,128,0,115159:0:0:0:0:
329,192,114796,128,0,115159:0:0:0:0:
475,192,114917,128,0,115159:0:0:0:0:
182,192,114917,128,0,115159:0:0:0:0:
402,192,114917,128,0,115159:0:0:0:0:
109,192,115038,128,0,115401:0:0:0:0:
256,192,115038,128,0,115401:0:0:0:0:
36,192,115280,128,0,115401:0:0:0:0:
475,192,115280,128,0,115401:0:0:0:0:
329,192,115280,128,0,115401:0:0:0:0:
329,192,115522,1,0,0:0:0:0:0
109,192,115522,1,0,0:0:0:0:0
475,192,115522,1,0,0:0:0:0:0
182,192,115522,1,0,0:0:0:0:0
402,192,115522,1,0,0:0:0:0:0
109,192,115643,128,0,115764:0:0:0:0:
256,192,115643,1,0,0:0:0:0:0
402,192,115643,128,0,115885:0:0:0:0:
182,192,115643,128,0,115885:0:0:0:0:
329,192,115643,128,0,115764:0:0:0:0:
36,192,115643,1,0,0:0:0:0:0
475,192,115643,128,0,115764:0:0:0:0:
256,192,115764,128,0,116006:0:0:0:0:
36,192,115764,128,0,116006:0:0:0:0:
329,192,115885,128,0,116006:0:0:0:0:
475,192,115885,128,0,116006:0:0:0:0:
109,192,115885,128,0,116006:0:0:0:0:
182,192,116006,128,0,116308:0:0:0:0:
402,192,116006,128,0,116369:0:0:0:0:
475,192,116127,128,0,116248:0:0:0:0:
329,192,116127,128,0,116278:0:0:0:0:
256,192,116127,128,0,116399:0:0:0:0:
36,192,116127,128,0,116338:0:0:0:0:
109,192,116127,128,0,116429:0:0:0:0:
475,192,116369,128,0,116490:0:0:0:0:
329,192,116399,1,0,0:0:0:0:0
182,192,116429,1,0,0:0:0:0:0
36,192,116459,1,0,0:0:0:0:0
402,192,116490,1,0,0:0:0:0:0
256,192,116520,1,0,0:0:0:0:0
109,192,116550,128,0,116852:0:0:0:0:
182,192,116580,128,0,116762:0:0:0:0:
475,192,116611,128,0,116822:0:0:0:0:
256,192,116611,128,0,116883:0:0:0:0:
329,192,116611,128,0,116792:0:0:0:0:
402,192,116611,128,0,116913:0:0:0:0:
36,192,116611,1,0,0:0:0:0:0
36,192,116852,128,0,116973:0:0:0:0:
182,192,116883,1,0,0:0:0:0:0
329,192,116913,1,0,0:0:0:0:0
475,192,116943,1,0,0:0:0:0:0
109,192,116973,1,0,0:0:0:0:0
256,192,117004,1,0,0:0:0:0:0
402,192,117034,128,0,117215:0:0:0:0:
329,192,117064,128,0,117215:0:0:0:0:
256,192,117094,128,0,117578:0:0:0:0:
36,192,117094,128,0,117215:0:0:0:0:
475,192,117094,128,0,117215:0:0:0:0:
182,192,117094,128,0,117215:0:0:0:0:
109,192,117094,128,0,117215:0:0:0:0:
36,192,117336,128,0,117457:0:0:0:0:
475,192,117336,128,0,117457:0:0:0:0:
329,192,117336,128,0,117457:0:0:0:0:
402,192,117336,128,0,117578:0:0:0:0:
182,192,117336,128,0,117457:0:0:0:0:
109,192,117336,128,0,117457:0:0:0:0:
475,192,117578,128,0,118183:0:0:0:0:
36,192,117578,128,0,117941:0:0:0:0:
182,192,117578,128,0,117699:0:0:0:0:
329,192,117578,128,0,117699:0:0:0:0:
109,192,117578,128,0,117820:0:0:0:0:
402,192,117699,128,0,117941:0:0:0:0:
256,192,117699,128,0,117820:0:0:0:0:
182,192,117820,128,0,117941:0:0:0:0:
329,192,117820,128,0,117941:0:0:0:0:
256,192,117941,128,0,118546:0:0:0:0:
109,192,117941,128,0,118183:0:0:0:0:
329,192,118062,128,0,118183:0:0:0:0:
402,192,118062,128,0,118546:0:0:0:0:
36,192,118062,128,0,118425:0:0:0:0:
182,192,118062,128,0,118183:0:0:0:0:
182,192,118304,128,0,118425:0:0:0:0:
475,192,118304,128,0,118425:0:0:0:0:
329,192,118304,128,0,118425:0:0:0:0:
109,192,118304,128,0,118546:0:0:0:0:
182,192,118546,128,0,118909:0:0:0:0:
329,192,118546,128,0,119151:0:0:0:0:
36,192,118546,128,0,118909:0:0:0:0:
475,192,118546,128,0,118909:0:0:0:0:
402,192,118667,128,0,119151:0:0:0:0:
109,192,118667,128,0,119151:0:0:0:0:
256,192,118667,128,0,118909:0:0:0:0:
36,192,119030,128,0,119151:0:0:0:0:
256,192,119030,128,0,119514:0:0:0:0:
475,192,119030,128,0,119393:0:0:0:0:
182,192,119030,128,0,119393:0:0:0:0:
329,192,119272,128,0,119514:0:0:0:0:
402,192,119272,128,0,119393:0:0:0:0:
36,192,119272,128,0,119514:0:0:0:0:
109,192,119272,128,0,119393:0:0:0:0:
182,192,119514,128,0,119877:0:0:0:0:
109,192,119514,128,0,120119:0:0:0:0:
402,192,119514,128,0,120119:0:0:0:0:
475,192,119514,128,0,119877:0:0:0:0:
256,192,119635,128,0,120481:0:0:0:0:
36,192,119635,128,0,119877:0:0:0:0:
329,192,119635,128,0,119877:0:0:0:0:
182,192,119998,128,0,120119:0:0:0:0:
329,192,119998,128,0,120361:0:0:0:0:
36,192,119998,128,0,120481:0:0:0:0:
475,192,119998,128,0,120119:0:0:0:0:
182,192,120240,128,0,120361:0:0:0:0:
109,192,120240,128,0,120361:0:0:0:0:
402,192,120240,128,0,120481:0:0:0:0:
475,192,120240,128,0,120361:0:0:0:0:
182,192,120482,128,0,120844:0:0:0:0:
475,192,120482,128,0,120844:0:0:0:0:
109,192,120482,128,0,121086:0:0:0:0:
329,192,120482,128,0,121086:0:0:0:0:
256,192,120602,128,0,120844:0:0:0:0:
36,192,120602,128,0,120844:0:0:0:0:
402,192,120602,128,0,121086:0:0:0:0:
475,192,120965,128,0,121328:0:0:0:0:
256,192,120965,128,0,121328:0:0:0:0:
182,192,120965,128,0,121328:0:0:0:0:
36,192,120965,128,0,121086:0:0:0:0:
402,192,121207,128,0,121449:0:0:0:0:
36,192,121207,128,0,121328:0:0:0:0:
109,192,121207,128,0,121449:0:0:0:0:
329,192,121207,128,0,121449:0:0:0:0:
36,192,121449,128,0,121812:0:0:0:0:
475,192,121449,128,0,121570:0:0:0:0:
256,192,121449,128,0,121570:0:0:0:0:
182,192,121449,128,0,121570:0:0:0:0:
402,192,121570,128,0,121691:0:0:0:0:
329,192,121570,128,0,121691:0:0:0:0:
109,192,121570,128,0,121691:0:0:0:0:
256,192,121691,128,0,121812:0:0:0:0:
475,192,121691,128,0,121812:0:0:0:0:
182,192,121691,128,0,121812:0:0:0:0:
402,192,121812,128,0,122296:0:0:0:0:
329,192,121812,128,0,122054:0:0:0:0:
109,192,121812,128,0,122054:0:0:0:0:
182,192,121933,128,0,122054:0:0:0:0:
256,192,121933,128,0,122296:0:0:0:0:
36,192,121933,128,0,122296:0:0:0:0:
475,192,121933,128,0,122054:0:0:0:0:
329,192,122175,128,0,122417:0:0:0:0:
475,192,122175,128,0,122417:0:0:0:0:
182,192,122175,128,0,122417:0:0:0:0:
109,192,122175,128,0,122296:0:0:0:0:
36,192,122417,128,0,122780:0:0:0:0:
402,192,122417,128,0,123022:0:0:0:0:
256,192,122417,128,0,123022:0:0:0:0:
109,192,122417,128,0,122780:0:0:0:0:
182,192,122538,128,0,123264:0:0:0:0:
475,192,122538,128,0,122780:0:0:0:0:
329,192,122538,128,0,122780:0:0:0:0:
36,192,122901,128,0,123264:0:0:0:0:
329,192,122901,128,0,123385:0:0:0:0:
475,192,122901,128,0,123022:0:0:0:0:
109,192,122901,128,0,123022:0:0:0:0:
256,192,123143,128,0,123264:0:0:0:0:
475,192,123143,128,0,123385:0:0:0:0:
109,192,123143,128,0,123385:0:0:0:0:
402,192,123143,128,0,123264:0:0:0:0:
256,192,123385,128,0,124272:0:0:0:0:
182,192,123385,128,0,123949:0:0:0:0:
36,192,123385,128,0,123788:0:0:0:0:
402,192,123385,128,0,124111:0:0:0:0:
475,192,123506,128,0,124191:0:0:0:0:
329,192,123506,128,0,124030:0:0:0:0:
109,192,123506,128,0,123869:0:0:0:0:
36,192,123869,128,0,125723:0:0:0:0:
109,192,123949,128,0,124514:0:0:0:0:
182,192,124030,128,0,124594:0:0:0:0:
329,192,124111,128,0,124352:0:0:0:0:
402,192,124191,128,0,124433:0:0:0:0:
475,192,124272,128,0,125240:0:0:0:0:
256,192,124352,128,0,124675:0:0:0:0:
329,192,124433,128,0,124756:0:0:0:0:
402,192,124514,128,0,124998:0:0:0:0:
109,192,124594,128,0,125643:0:0:0:0:
182,192,124675,128,0,124917:0:0:0:0:
256,192,124756,128,0,124836:0:0:0:0:
329,192,124836,128,0,125078:0:0:0:0:
256,192,124917,128,0,125159:0:0:0:0:
182,192,124998,128,0,125562:0:0:0:0:
402,192,125078,128,0,125320:0:0:0:0:
329,192,125159,128,0,125401:0:0:0:0:
256,192,125240,128,0,125482:0:0:0:0:
475,192,125320,1,0,0:0:0:0:0
402,192,125401,128,0,125723:0:0:0:0:
329,192,125482,1,0,0:0:0:0:0
256,192,125562,1,0,0:0:0:0:0
182,192,125643,1,0,0:0:0:0:0
109,192,125723,1,0,0:0:0:0:0
36,192,125804,1,0,0:0:0:0:0
402,192,125804,1,0,0:0:0:0:0
