osu file format v14

[General]
AudioFilename: Ten, Sen, Men, Rittai.mp3
AudioLeadIn: 0
PreviewTime: -1
Countdown: 0
SampleSet: Soft
StackLeniency: 0.7
Mode: 3
LetterboxInBreaks: 0
SpecialStyle: 0
WidescreenStoryboard: 1

[Editor]
DistanceSpacing: 1.2
BeatDivisor: 12
GridSize: 16
TimelineZoom: 1.6

[Metadata]
Title:Ten, Sen, Men, Rittai
TitleUnicode:點、線、面、立體
Artist:sound piercer
ArtistUnicode:sound piercer
Creator:c36098651
Version:NOODLE_7K LV.01
Source:BMS
Tags:
BeatmapID:759053
BeatmapSetID:343569

[Difficulty]
HPDrainRate:8
CircleSize:7
OverallDifficulty:0
ApproachRate:5
SliderMultiplier:1.4
SliderTickRate:1

[Events]
//Background and Video events
0,0,"_title.jpg",0,0
//Break Periods
//Storyboard Layer 0 (Background)
//Storyboard Layer 1 (Fail)
//Storyboard Layer 2 (Pass)
//Storyboard Layer 3 (Foreground)
//Storyboard Sound Samples

[TimingPoints]
1935,483.870967741935,4,2,0,0,1,0
16934,10000000,4,2,0,0,1,0
17176,483.870967741935,4,2,0,0,1,0
17902,10000000,4,2,0,0,1,0
18144,483.870967741935,4,2,0,0,1,0
18870,10000000,4,2,0,0,1,0
19112,483.870967741935,4,2,0,0,1,0
19838,10000000,4,2,0,0,1,0
20080,483.870967741935,4,2,0,0,1,0
20805,10000000,4,2,0,0,1,0
21047,483.870967741935,4,2,0,0,1,0
24676,10000000,4,2,0,0,1,0
24918,483.870967741935,4,2,0,0,1,0
31934,10000000,4,2,0,0,1,0
32781,483.870967741935,4,2,0,0,1,0
33385,483.870967741935,4,2,0,0,1,0
44031,10000000,4,2,0,0,1,0
44273,483.870967741935,4,2,0,0,1,0
44514,483.870967741935,4,2,0,0,1,0
77418,10000000,4,2,0,0,1,0
78386,483.870967741935,4,2,0,0,1,0
79353,483.870967741935,4,2,0,0,1,0

[HitObjects]
36,192,1935,128,0,2056:0:0:0:0:
329,192,1935,128,0,2661:0:0:0:0:
475,192,1935,128,0,2056:0:0:0:0:
182,192,2056,128,0,2177:0:0:0:0:
36,192,2177,128,0,2419:0:0:0:0:
475,192,2177,128,0,2782:0:0:0:0:
256,192,2177,128,0,2298:0:0:0:0:
182,192,2298,128,0,2782:0:0:0:0:
402,192,2419,128,0,2661:0:0:0:0:
256,192,2419,128,0,2540:0:0:0:0:
109,192,2419,128,0,2661:0:0:0:0:
36,192,2540,128,0,3024:0:0:0:0:
256,192,2661,128,0,2903:0:0:0:0:
329,192,2782,128,0,3629:0:0:0:0:
402,192,2782,128,0,3145:0:0:0:0:
109,192,2782,128,0,3266:0:0:0:0:
475,192,2903,128,0,3024:0:0:0:0:
182,192,2903,128,0,3024:0:0:0:0:
256,192,3024,128,0,3266:0:0:0:0:
36,192,3145,128,0,3508:0:0:0:0:
475,192,3145,128,0,3266:0:0:0:0:
182,192,3145,128,0,3508:0:0:0:0:
402,192,3266,128,0,3387:0:0:0:0:
256,192,3387,128,0,3508:0:0:0:0:
475,192,3387,128,0,3749:0:0:0:0:
109,192,3387,128,0,3991:0:0:0:0:
402,192,3508,128,0,4233:0:0:0:0:
256,192,3629,1,0,0:0:0:0:0
36,192,3629,1,0,0:0:0:0:0
182,192,3629,128,0,3870:0:0:0:0:
329,192,3750,128,0,3991:0:0:0:0:
256,192,3870,128,0,4233:0:0:0:0:
475,192,3870,128,0,3991:0:0:0:0:
36,192,3870,128,0,4233:0:0:0:0:
182,192,3991,128,0,4112:0:0:0:0:
475,192,4112,128,0,4475:0:0:0:0:
329,192,4112,128,0,4596:0:0:0:0:
109,192,4112,128,0,4354:0:0:0:0:
182,192,4233,128,0,4475:0:0:0:0:
256,192,4354,128,0,4475:0:0:0:0:
402,192,4354,128,0,5080:0:0:0:0:
36,192,4354,128,0,4717:0:0:0:0:
109,192,4475,128,0,4596:0:0:0:0:
182,192,4596,128,0,4717:0:0:0:0:
256,192,4596,128,0,4959:0:0:0:0:
475,192,4596,128,0,4717:0:0:0:0:
109,192,4717,128,0,4838:0:0:0:0:
329,192,4717,128,0,4959:0:0:0:0:
36,192,4838,128,0,4959:0:0:0:0:
475,192,4838,128,0,5201:0:0:0:0:
182,192,4838,128,0,5806:0:0:0:0:
109,192,4959,128,0,5201:0:0:0:0:
36,192,5080,128,0,5685:0:0:0:0:
256,192,5080,128,0,5201:0:0:0:0:
329,192,5080,128,0,5685:0:0:0:0:
402,192,5201,128,0,5927:0:0:0:0:
475,192,5322,128,0,5685:0:0:0:0:
109,192,5322,128,0,5927:0:0:0:0:
256,192,5322,128,0,6169:0:0:0:0:
36,192,5806,128,0,6169:0:0:0:0:
329,192,5806,128,0,5927:0:0:0:0:
475,192,5806,128,0,6411:0:0:0:0:
182,192,5927,128,0,6048:0:0:0:0:
329,192,6048,128,0,6532:0:0:0:0:
109,192,6048,128,0,6290:0:0:0:0:
402,192,6048,128,0,6169:0:0:0:0:
182,192,6169,128,0,6411:0:0:0:0:
36,192,6290,128,0,6653:0:0:0:0:
402,192,6290,128,0,7016:0:0:0:0:
256,192,6290,128,0,6411:0:0:0:0:
109,192,6411,128,0,6532:0:0:0:0:
475,192,6532,128,0,6653:0:0:0:0:
256,192,6532,128,0,6774:0:0:0:0:
182,192,6532,128,0,6653:0:0:0:0:
329,192,6653,128,0,6895:0:0:0:0:
109,192,6653,128,0,7137:0:0:0:0:
36,192,6774,128,0,6895:0:0:0:0:
182,192,6774,128,0,6895:0:0:0:0:
475,192,6774,128,0,7137:0:0:0:0:
256,192,6895,128,0,7137:0:0:0:0:
36,192,7016,128,0,7379:0:0:0:0:
329,192,7016,128,0,7499:0:0:0:0:
182,192,7016,128,0,7379:0:0:0:0:
402,192,7137,128,0,7258:0:0:0:0:
256,192,7258,128,0,7379:0:0:0:0:
109,192,7258,128,0,7741:0:0:0:0:
475,192,7258,128,0,7620:0:0:0:0:
402,192,7379,128,0,8104:0:0:0:0:
36,192,7500,1,0,0:0:0:0:0
256,192,7500,1,0,0:0:0:0:0
182,192,7500,128,0,7862:0:0:0:0:
329,192,7620,128,0,7862:0:0:0:0:
36,192,7741,128,0,8104:0:0:0:0:
256,192,7741,128,0,8104:0:0:0:0:
475,192,7741,128,0,7862:0:0:0:0:
109,192,7862,128,0,7983:0:0:0:0:
329,192,7983,128,0,8467:0:0:0:0:
475,192,7983,128,0,8346:0:0:0:0:
182,192,7983,128,0,8588:0:0:0:0:
109,192,8104,128,0,8225:0:0:0:0:
256,192,8225,128,0,8346:0:0:0:0:
402,192,8225,128,0,8346:0:0:0:0:
36,192,8225,128,0,8588:0:0:0:0:
109,192,8346,128,0,8467:0:0:0:0:
256,192,8467,128,0,8951:0:0:0:0:
402,192,8467,128,0,9798:0:0:0:0:
475,192,8467,128,0,8588:0:0:0:0:
329,192,8588,128,0,8709:0:0:0:0:
109,192,8588,128,0,8830:0:0:0:0:
182,192,8709,128,0,8830:0:0:0:0:
475,192,8709,128,0,8830:0:0:0:0:
36,192,8709,128,0,9072:0:0:0:0:
329,192,8830,128,0,9677:0:0:0:0:
182,192,8951,128,0,9072:0:0:0:0:
475,192,8951,128,0,9072:0:0:0:0:
109,192,8951,128,0,10040:0:0:0:0:
256,192,9072,128,0,10161:0:0:0:0:
182,192,9193,128,0,9556:0:0:0:0:
475,192,9193,128,0,9556:0:0:0:0:
36,192,9193,128,0,9556:0:0:0:0:
182,192,9677,128,0,9798:0:0:0:0:
475,192,9677,128,0,10040:0:0:0:0:
36,192,9677,128,0,9798:0:0:0:0:
329,192,9798,128,0,9919:0:0:0:0:
36,192,9919,128,0,10282:0:0:0:0:
182,192,9919,128,0,10282:0:0:0:0:
402,192,9919,128,0,10040:0:0:0:0:
329,192,10040,128,0,10282:0:0:0:0:
109,192,10161,128,0,10766:0:0:0:0:
402,192,10161,128,0,10403:0:0:0:0:
475,192,10161,128,0,10524:0:0:0:0:
256,192,10282,128,0,10403:0:0:0:0:
329,192,10403,128,0,10645:0:0:0:0:
36,192,10403,128,0,10524:0:0:0:0:
182,192,10403,128,0,10524:0:0:0:0:
402,192,10524,128,0,10766:0:0:0:0:
256,192,10524,128,0,10766:0:0:0:0:
182,192,10645,128,0,11008:0:0:0:0:
475,192,10645,128,0,10887:0:0:0:0:
36,192,10645,128,0,11008:0:0:0:0:
329,192,10766,128,0,11008:0:0:0:0:
402,192,10887,128,0,11370:0:0:0:0:
256,192,10887,128,0,11249:0:0:0:0:
109,192,10887,128,0,11129:0:0:0:0:
475,192,11008,128,0,11249:0:0:0:0:
329,192,11129,128,0,11612:0:0:0:0:
36,192,11129,128,0,11491:0:0:0:0:
182,192,11129,1,0,0:0:0:0:0
109,192,11250,128,0,11733:0:0:0:0:
475,192,11370,128,0,11491:0:0:0:0:
182,192,11370,128,0,11491:0:0:0:0:
256,192,11370,128,0,12096:0:0:0:0:
402,192,11491,128,0,11975:0:0:0:0:
36,192,11612,128,0,11975:0:0:0:0:
475,192,11612,128,0,11733:0:0:0:0:
182,192,11612,128,0,11733:0:0:0:0:
329,192,11733,128,0,11854:0:0:0:0:
182,192,11854,128,0,11975:0:0:0:0:
109,192,11854,128,0,12217:0:0:0:0:
475,192,11854,128,0,12217:0:0:0:0:
329,192,11975,128,0,12217:0:0:0:0:
182,192,12096,128,0,12459:0:0:0:0:
36,192,12096,128,0,12459:0:0:0:0:
402,192,12096,128,0,12338:0:0:0:0:
256,192,12217,128,0,12338:0:0:0:0:
329,192,12338,128,0,12580:0:0:0:0:
109,192,12338,128,0,12701:0:0:0:0:
475,192,12338,128,0,12459:0:0:0:0:
256,192,12459,128,0,12943:0:0:0:0:
402,192,12459,128,0,12701:0:0:0:0:
36,192,12580,128,0,12943:0:0:0:0:
182,192,12580,128,0,12701:0:0:0:0:
475,192,12580,128,0,12822:0:0:0:0:
329,192,12701,128,0,13548:0:0:0:0:
109,192,12822,128,0,12943:0:0:0:0:
402,192,12822,128,0,13669:0:0:0:0:
182,192,12822,128,0,13427:0:0:0:0:
475,192,12943,128,0,13427:0:0:0:0:
109,192,13064,128,0,13669:0:0:0:0:
256,192,13064,128,0,14032:0:0:0:0:
36,192,13064,128,0,13427:0:0:0:0:
36,192,13548,128,0,14395:0:0:0:0:
182,192,13548,128,0,13669:0:0:0:0:
475,192,13548,128,0,13911:0:0:0:0:
329,192,13669,128,0,13790:0:0:0:0:
182,192,13790,128,0,14395:0:0:0:0:
109,192,13790,128,0,13911:0:0:0:0:
402,192,13790,128,0,13911:0:0:0:0:
329,192,13911,128,0,14153:0:0:0:0:
109,192,14032,128,0,14153:0:0:0:0:
402,192,14032,128,0,14274:0:0:0:0:
475,192,14032,128,0,14153:0:0:0:0:
256,192,14153,128,0,14274:0:0:0:0:
109,192,14274,128,0,14879:0:0:0:0:
329,192,14274,128,0,14516:0:0:0:0:
475,192,14274,128,0,14395:0:0:0:0:
256,192,14395,128,0,14637:0:0:0:0:
402,192,14395,128,0,14637:0:0:0:0:
475,192,14516,128,0,14758:0:0:0:0:
182,192,14516,128,0,14637:0:0:0:0:
36,192,14516,128,0,14879:0:0:0:0:
329,192,14637,128,0,14879:0:0:0:0:
256,192,14758,128,0,15120:0:0:0:0:
402,192,14758,128,0,15241:0:0:0:0:
182,192,14758,128,0,14999:0:0:0:0:
475,192,14879,128,0,15120:0:0:0:0:
109,192,15000,1,0,0:0:0:0:0
36,192,15000,128,0,15362:0:0:0:0:
329,192,15000,128,0,15483:0:0:0:0:
182,192,15120,128,0,15362:0:0:0:0:
475,192,15241,128,0,15362:0:0:0:0:
256,192,15241,128,0,15967:0:0:0:0:
109,192,15241,128,0,15846:0:0:0:0:
402,192,15362,128,0,15604:0:0:0:0:
182,192,15483,128,0,15604:0:0:0:0:
36,192,15483,128,0,15846:0:0:0:0:
475,192,15483,128,0,15604:0:0:0:0:
329,192,15604,128,0,15725:0:0:0:0:
182,192,15725,128,0,16330:0:0:0:0:
475,192,15725,128,0,16088:0:0:0:0:
402,192,15725,128,0,15846:0:0:0:0:
329,192,15846,128,0,16088:0:0:0:0:
36,192,15967,128,0,16330:0:0:0:0:
402,192,15967,128,0,16209:0:0:0:0:
109,192,15967,128,0,16088:0:0:0:0:
256,192,16088,128,0,16209:0:0:0:0:
475,192,16209,128,0,16330:0:0:0:0:
329,192,16209,128,0,16451:0:0:0:0:
109,192,16209,128,0,16572:0:0:0:0:
402,192,16330,128,0,16572:0:0:0:0:
256,192,16330,128,0,16693:0:0:0:0:
36,192,16451,128,0,16814:0:0:0:0:
475,192,16451,128,0,16814:0:0:0:0:
182,192,16451,128,0,16572:0:0:0:0:
329,192,16572,128,0,16814:0:0:0:0:
109,192,16693,128,0,21532:0:0:0:0:
182,192,16693,128,0,16814:0:0:0:0:
402,192,16693,128,0,20685:0:0:0:0:
256,192,16814,128,0,21653:0:0:0:0:
36,192,16935,1,0,0:0:0:0:0
475,192,16935,1,0,0:0:0:0:0
329,192,16935,1,0,0:0:0:0:0
182,192,16935,1,0,0:0:0:0:0
36,192,17419,128,0,17661:0:0:0:0:
475,192,17419,128,0,17782:0:0:0:0:
329,192,17419,128,0,18266:0:0:0:0:
36,192,17782,128,0,18266:0:0:0:0:
182,192,17903,1,0,0:0:0:0:0
475,192,17903,1,0,0:0:0:0:0
36,192,18387,128,0,18628:0:0:0:0:
475,192,18387,128,0,18749:0:0:0:0:
329,192,18387,128,0,19233:0:0:0:0:
36,192,18749,128,0,19233:0:0:0:0:
182,192,18870,1,0,0:0:0:0:0
475,192,18870,1,0,0:0:0:0:0
329,192,19354,128,0,20201:0:0:0:0:
36,192,19354,128,0,19596:0:0:0:0:
475,192,19354,128,0,19717:0:0:0:0:
36,192,19717,128,0,20201:0:0:0:0:
475,192,19838,1,0,0:0:0:0:0
182,192,19838,1,0,0:0:0:0:0
475,192,20322,128,0,21169:0:0:0:0:
36,192,20322,128,0,20564:0:0:0:0:
329,192,20322,128,0,25403:0:0:0:0:
36,192,20685,128,0,21169:0:0:0:0:
182,192,20806,1,0,0:0:0:0:0
402,192,20806,1,0,0:0:0:0:0
36,192,21290,128,0,22137:0:0:0:0:
475,192,21290,128,0,21411:0:0:0:0:
182,192,21290,128,0,22137:0:0:0:0:
402,192,21290,128,0,22137:0:0:0:0:
475,192,21532,128,0,21653:0:0:0:0:
109,192,21653,128,0,22499:0:0:0:0:
475,192,21774,128,0,21895:0:0:0:0:
256,192,21774,128,0,22620:0:0:0:0:
475,192,22016,128,0,22137:0:0:0:0:
475,192,22258,1,0,0:0:0:0:0
182,192,22258,128,0,23104:0:0:0:0:
402,192,22258,128,0,23104:0:0:0:0:
36,192,22258,128,0,23104:0:0:0:0:
475,192,22499,128,0,22620:0:0:0:0:
109,192,22620,128,0,23467:0:0:0:0:
475,192,22741,128,0,22862:0:0:0:0:
256,192,22741,128,0,23588:0:0:0:0:
475,192,22983,128,0,23104:0:0:0:0:
475,192,23225,128,0,23346:0:0:0:0:
402,192,23225,128,0,24072:0:0:0:0:
36,192,23225,128,0,24072:0:0:0:0:
182,192,23225,128,0,24072:0:0:0:0:
475,192,23467,128,0,23588:0:0:0:0:
109,192,23588,128,0,24435:0:0:0:0:
475,192,23709,128,0,23830:0:0:0:0:
256,192,23709,128,0,25040:0:0:0:0:
475,192,23951,128,0,24072:0:0:0:0:
182,192,24193,128,0,24556:0:0:0:0:
475,192,24193,128,0,24556:0:0:0:0:
402,192,24193,128,0,25040:0:0:0:0:
36,192,24193,128,0,25040:0:0:0:0:
109,192,24556,128,0,25282:0:0:0:0:
475,192,24677,1,0,0:0:0:0:0
182,192,24677,1,0,0:0:0:0:0
256,192,25161,128,0,26008:0:0:0:0:
36,192,25161,128,0,26008:0:0:0:0:
402,192,25161,128,0,26008:0:0:0:0:
109,192,25403,128,0,25766:0:0:0:0:
329,192,25524,128,0,26370:0:0:0:0:
182,192,25645,128,0,26491:0:0:0:0:
475,192,25645,128,0,26491:0:0:0:0:
109,192,25887,128,0,26249:0:0:0:0:
256,192,26129,128,0,26975:0:0:0:0:
402,192,26129,128,0,26975:0:0:0:0:
36,192,26129,128,0,26975:0:0:0:0:
109,192,26370,128,0,26733:0:0:0:0:
329,192,26491,128,0,27338:0:0:0:0:
475,192,26612,128,0,27459:0:0:0:0:
182,192,26612,128,0,27459:0:0:0:0:
109,192,26854,128,0,27217:0:0:0:0:
256,192,27096,128,0,27943:0:0:0:0:
402,192,27096,128,0,27943:0:0:0:0:
36,192,27096,128,0,27943:0:0:0:0:
109,192,27338,128,0,27701:0:0:0:0:
329,192,27459,128,0,28306:0:0:0:0:
182,192,27580,128,0,28427:0:0:0:0:
475,192,27580,128,0,28427:0:0:0:0:
109,192,27822,128,0,28185:0:0:0:0:
256,192,28064,128,0,28427:0:0:0:0:
402,192,28064,128,0,28911:0:0:0:0:
36,192,28064,128,0,28911:0:0:0:0:
109,192,28306,128,0,28669:0:0:0:0:
329,192,28427,128,0,29274:0:0:0:0:
182,192,28548,128,0,29395:0:0:0:0:
256,192,28548,128,0,28911:0:0:0:0:
475,192,28548,128,0,29395:0:0:0:0:
109,192,28790,128,0,29153:0:0:0:0:
256,192,29032,128,0,29878:0:0:0:0:
36,192,29032,128,0,29878:0:0:0:0:
402,192,29032,128,0,29878:0:0:0:0:
109,192,29274,128,0,29637:0:0:0:0:
329,192,29395,128,0,30241:0:0:0:0:
182,192,29516,128,0,30362:0:0:0:0:
475,192,29516,128,0,30362:0:0:0:0:
109,192,29758,128,0,30120:0:0:0:0:
36,192,29999,128,0,31693:0:0:0:0:
402,192,29999,128,0,31330:0:0:0:0:
256,192,29999,128,0,31451:0:0:0:0:
109,192,30241,128,0,30604:0:0:0:0:
329,192,30362,128,0,30967:0:0:0:0:
182,192,30483,128,0,31088:0:0:0:0:
475,192,30483,128,0,30846:0:0:0:0:
109,192,30725,128,0,31209:0:0:0:0:
475,192,30967,128,0,33266:0:0:0:0:
329,192,31088,128,0,33266:0:0:0:0:
182,192,31209,128,0,31572:0:0:0:0:
109,192,31330,128,0,33508:0:0:0:0:
402,192,31451,128,0,33749:0:0:0:0:
256,192,31572,128,0,33266:0:0:0:0:
182,192,31693,128,0,33387:0:0:0:0:
36,192,31814,128,0,33266:0:0:0:0:
329,192,33387,128,0,33508:0:0:0:0:
256,192,33387,128,0,33870:0:0:0:0:
36,192,33387,128,0,33749:0:0:0:0:
475,192,33387,128,0,33749:0:0:0:0:
182,192,33508,1,0,0:0:0:0:0
329,192,33629,128,0,33991:0:0:0:0:
109,192,33629,128,0,33991:0:0:0:0:
182,192,33749,128,0,34233:0:0:0:0:
402,192,33870,128,0,34475:0:0:0:0:
36,192,33870,128,0,34233:0:0:0:0:
475,192,33870,128,0,34233:0:0:0:0:
256,192,33991,128,0,34112:0:0:0:0:
329,192,34112,128,0,34838:0:0:0:0:
109,192,34112,128,0,34475:0:0:0:0:
256,192,34233,128,0,34354:0:0:0:0:
36,192,34354,128,0,34717:0:0:0:0:
182,192,34354,128,0,34717:0:0:0:0:
475,192,34354,128,0,34717:0:0:0:0:
256,192,34475,128,0,34596:0:0:0:0:
402,192,34596,128,0,34717:0:0:0:0:
109,192,34596,128,0,34959:0:0:0:0:
256,192,34717,128,0,35201:0:0:0:0:
182,192,34838,128,0,34959:0:0:0:0:
402,192,34838,128,0,35685:0:0:0:0:
475,192,34838,128,0,35201:0:0:0:0:
36,192,34838,128,0,35201:0:0:0:0:
329,192,34959,128,0,35080:0:0:0:0:
109,192,35080,128,0,35927:0:0:0:0:
182,192,35080,128,0,35322:0:0:0:0:
329,192,35201,128,0,35443:0:0:0:0:
475,192,35322,128,0,35443:0:0:0:0:
36,192,35322,128,0,35685:0:0:0:0:
256,192,35322,128,0,35806:0:0:0:0:
182,192,35443,128,0,35564:0:0:0:0:
475,192,35564,128,0,35927:0:0:0:0:
329,192,35564,128,0,35685:0:0:0:0:
182,192,35685,128,0,36169:0:0:0:0:
36,192,35806,128,0,36169:0:0:0:0:
402,192,35806,128,0,36411:0:0:0:0:
329,192,35806,128,0,36169:0:0:0:0:
256,192,35927,128,0,36048:0:0:0:0:
109,192,36048,128,0,36411:0:0:0:0:
475,192,36048,128,0,36169:0:0:0:0:
256,192,36169,128,0,36290:0:0:0:0:
475,192,36290,128,0,36653:0:0:0:0:
182,192,36290,128,0,36653:0:0:0:0:
36,192,36290,128,0,36653:0:0:0:0:
329,192,36290,128,0,36774:0:0:0:0:
256,192,36411,128,0,36532:0:0:0:0:
402,192,36532,128,0,36653:0:0:0:0:
109,192,36532,128,0,36895:0:0:0:0:
256,192,36653,128,0,37137:0:0:0:0:
182,192,36774,128,0,36895:0:0:0:0:
475,192,36774,128,0,37137:0:0:0:0:
36,192,36774,128,0,37137:0:0:0:0:
402,192,36774,128,0,37620:0:0:0:0:
329,192,36895,128,0,37016:0:0:0:0:
109,192,37016,128,0,37620:0:0:0:0:
182,192,37016,128,0,37258:0:0:0:0:
329,192,37137,128,0,37378:0:0:0:0:
36,192,37258,128,0,37620:0:0:0:0:
475,192,37258,1,0,0:0:0:0:0
256,192,37258,128,0,37741:0:0:0:0:
182,192,37379,1,0,0:0:0:0:0
475,192,37499,128,0,37862:0:0:0:0:
329,192,37499,128,0,38104:0:0:0:0:
182,192,37620,128,0,38104:0:0:0:0:
402,192,37741,128,0,38346:0:0:0:0:
109,192,37741,128,0,37862:0:0:0:0:
36,192,37741,128,0,38104:0:0:0:0:
256,192,37862,128,0,37983:0:0:0:0:
475,192,37983,128,0,38104:0:0:0:0:
109,192,37983,128,0,38346:0:0:0:0:
256,192,38104,128,0,38225:0:0:0:0:
182,192,38225,128,0,38588:0:0:0:0:
329,192,38225,128,0,38709:0:0:0:0:
36,192,38225,128,0,38588:0:0:0:0:
475,192,38225,128,0,38588:0:0:0:0:
256,192,38346,128,0,38467:0:0:0:0:
109,192,38467,128,0,39314:0:0:0:0:
402,192,38467,128,0,38588:0:0:0:0:
256,192,38588,128,0,39072:0:0:0:0:
182,192,38709,128,0,38830:0:0:0:0:
402,192,38709,128,0,39556:0:0:0:0:
36,192,38709,128,0,39072:0:0:0:0:
475,192,38709,128,0,38830:0:0:0:0:
329,192,38830,128,0,38951:0:0:0:0:
182,192,38951,128,0,39193:0:0:0:0:
475,192,38951,128,0,39072:0:0:0:0:
329,192,39072,128,0,39314:0:0:0:0:
256,192,39193,128,0,39677:0:0:0:0:
36,192,39193,128,0,39556:0:0:0:0:
475,192,39193,128,0,39556:0:0:0:0:
182,192,39314,128,0,39435:0:0:0:0:
329,192,39435,128,0,39798:0:0:0:0:
109,192,39435,128,0,39798:0:0:0:0:
182,192,39556,128,0,40040:0:0:0:0:
36,192,39677,128,0,40040:0:0:0:0:
475,192,39677,128,0,40040:0:0:0:0:
402,192,39677,128,0,40524:0:0:0:0:
256,192,39798,128,0,39919:0:0:0:0:
109,192,39919,128,0,40766:0:0:0:0:
329,192,39919,128,0,40040:0:0:0:0:
256,192,40040,128,0,40524:0:0:0:0:
36,192,40161,128,0,40524:0:0:0:0:
182,192,40161,128,0,40645:0:0:0:0:
329,192,40161,128,0,40645:0:0:0:0:
475,192,40161,128,0,40524:0:0:0:0:
36,192,40645,128,0,40887:0:0:0:0:
475,192,40645,128,0,41008:0:0:0:0:
256,192,40645,128,0,40766:0:0:0:0:
402,192,40645,128,0,40766:0:0:0:0:
182,192,40766,128,0,41249:0:0:0:0:
329,192,40766,128,0,40887:0:0:0:0:
109,192,40887,128,0,41008:0:0:0:0:
402,192,40887,128,0,41128:0:0:0:0:
256,192,40887,128,0,41008:0:0:0:0:
36,192,41008,1,0,0:0:0:0:0
329,192,41008,128,0,41249:0:0:0:0:
109,192,41129,128,0,41612:0:0:0:0:
475,192,41129,1,0,0:0:0:0:0
256,192,41129,128,0,41370:0:0:0:0:
402,192,41249,128,0,41612:0:0:0:0:
36,192,41249,128,0,41370:0:0:0:0:
329,192,41370,128,0,41491:0:0:0:0:
475,192,41370,128,0,41491:0:0:0:0:
182,192,41370,128,0,41491:0:0:0:0:
36,192,41491,128,0,41733:0:0:0:0:
256,192,41491,128,0,41733:0:0:0:0:
329,192,41612,128,0,41854:0:0:0:0:
182,192,41612,128,0,42580:0:0:0:0:
475,192,41612,128,0,41733:0:0:0:0:
109,192,41733,128,0,41854:0:0:0:0:
402,192,41733,128,0,42580:0:0:0:0:
36,192,41854,128,0,42459:0:0:0:0:
256,192,41854,128,0,42822:0:0:0:0:
475,192,41854,128,0,42459:0:0:0:0:
329,192,41975,128,0,42459:0:0:0:0:
109,192,41975,128,0,42459:0:0:0:0:
329,192,42580,128,0,42701:0:0:0:0:
109,192,42580,128,0,42701:0:0:0:0:
475,192,42580,128,0,42701:0:0:0:0:
36,192,42580,128,0,42822:0:0:0:0:
402,192,42701,128,0,43185:0:0:0:0:
182,192,42701,128,0,43064:0:0:0:0:
329,192,42822,128,0,42943:0:0:0:0:
109,192,42822,128,0,42943:0:0:0:0:
475,192,42822,128,0,42943:0:0:0:0:
256,192,42943,128,0,43064:0:0:0:0:
36,192,42943,128,0,43306:0:0:0:0:
109,192,43064,128,0,43185:0:0:0:0:
329,192,43064,128,0,43185:0:0:0:0:
475,192,43064,128,0,43427:0:0:0:0:
256,192,43185,128,0,43306:0:0:0:0:
182,192,43185,128,0,43548:0:0:0:0:
109,192,43306,128,0,43427:0:0:0:0:
329,192,43306,128,0,43427:0:0:0:0:
402,192,43306,128,0,43548:0:0:0:0:
256,192,43427,128,0,43911:0:0:0:0:
36,192,43427,128,0,43669:0:0:0:0:
109,192,43548,128,0,44516:0:0:0:0:
329,192,43548,128,0,43669:0:0:0:0:
475,192,43548,128,0,43669:0:0:0:0:
402,192,43669,128,0,43790:0:0:0:0:
182,192,43669,128,0,43790:0:0:0:0:
329,192,43790,128,0,43911:0:0:0:0:
475,192,43790,128,0,44395:0:0:0:0:
36,192,43790,128,0,43911:0:0:0:0:
182,192,43911,128,0,44395:0:0:0:0:
402,192,43911,128,0,44516:0:0:0:0:
36,192,44032,1,0,0:0:0:0:0
256,192,44032,1,0,0:0:0:0:0
329,192,44032,1,0,0:0:0:0:0
36,192,44516,128,0,44878:0:0:0:0:
182,192,44516,128,0,44637:0:0:0:0:
329,192,44516,128,0,44637:0:0:0:0:
475,192,44516,128,0,44637:0:0:0:0:
109,192,44637,128,0,44758:0:0:0:0:
402,192,44637,128,0,44758:0:0:0:0:
182,192,44758,128,0,45120:0:0:0:0:
329,192,44758,128,0,45120:0:0:0:0:
475,192,44758,1,0,0:0:0:0:0
402,192,44879,1,0,0:0:0:0:0
109,192,44879,1,0,0:0:0:0:0
36,192,44999,128,0,45120:0:0:0:0:
256,192,44999,128,0,45241:0:0:0:0:
475,192,44999,128,0,45362:0:0:0:0:
402,192,45120,128,0,45241:0:0:0:0:
109,192,45120,128,0,45362:0:0:0:0:
36,192,45241,128,0,45604:0:0:0:0:
329,192,45241,128,0,45362:0:0:0:0:
182,192,45241,128,0,45483:0:0:0:0:
402,192,45362,128,0,45604:0:0:0:0:
256,192,45362,128,0,45604:0:0:0:0:
329,192,45483,128,0,45725:0:0:0:0:
109,192,45483,128,0,46088:0:0:0:0:
475,192,45483,128,0,45846:0:0:0:0:
182,192,45604,128,0,45967:0:0:0:0:
256,192,45725,128,0,45846:0:0:0:0:
402,192,45725,128,0,46209:0:0:0:0:
36,192,45725,128,0,45846:0:0:0:0:
329,192,45846,128,0,46088:0:0:0:0:
256,192,45967,128,0,46330:0:0:0:0:
475,192,45967,128,0,46088:0:0:0:0:
36,192,45967,128,0,46330:0:0:0:0:
182,192,46088,128,0,46572:0:0:0:0:
329,192,46209,128,0,46330:0:0:0:0:
475,192,46209,128,0,46572:0:0:0:0:
109,192,46209,128,0,46451:0:0:0:0:
402,192,46330,128,0,46814:0:0:0:0:
256,192,46451,128,0,46814:0:0:0:0:
36,192,46451,128,0,46572:0:0:0:0:
329,192,46451,128,0,46693:0:0:0:0:
109,192,46572,128,0,46814:0:0:0:0:
36,192,46693,128,0,47056:0:0:0:0:
475,192,46693,128,0,47056:0:0:0:0:
182,192,46693,128,0,46935:0:0:0:0:
329,192,46814,128,0,47459:0:0:0:0:
402,192,46935,128,0,47177:0:0:0:0:
256,192,46935,128,0,47056:0:0:0:0:
109,192,46935,128,0,47540:0:0:0:0:
182,192,47056,128,0,47378:0:0:0:0:
36,192,47177,128,0,47298:0:0:0:0:
475,192,47177,128,0,48185:0:0:0:0:
256,192,47177,128,0,47620:0:0:0:0:
402,192,47298,128,0,47701:0:0:0:0:
36,192,47419,128,0,47782:0:0:0:0:
182,192,47499,128,0,47862:0:0:0:0:
329,192,47580,128,0,48104:0:0:0:0:
109,192,47661,128,0,48024:0:0:0:0:
256,192,47741,128,0,47943:0:0:0:0:
402,192,47822,128,0,48266:0:0:0:0:
36,192,47903,128,0,48266:0:0:0:0:
182,192,47983,128,0,48266:0:0:0:0:
256,192,48064,128,0,48387:0:0:0:0:
109,192,48145,128,0,48749:0:0:0:0:
329,192,48225,128,0,48508:0:0:0:0:
475,192,48306,1,0,0:0:0:0:0
36,192,48387,128,0,48749:0:0:0:0:
402,192,48387,128,0,49112:0:0:0:0:
182,192,48387,128,0,48508:0:0:0:0:
475,192,48508,128,0,48749:0:0:0:0:
256,192,48508,1,0,0:0:0:0:0
182,192,48629,128,0,48870:0:0:0:0:
329,192,48629,1,0,0:0:0:0:0
256,192,48749,128,0,49233:0:0:0:0:
475,192,48870,128,0,49233:0:0:0:0:
329,192,48870,128,0,48991:0:0:0:0:
36,192,48870,128,0,49233:0:0:0:0:
109,192,48870,128,0,48991:0:0:0:0:
182,192,48991,128,0,49112:0:0:0:0:
329,192,49112,128,0,49354:0:0:0:0:
109,192,49112,128,0,49354:0:0:0:0:
402,192,49233,128,0,49475:0:0:0:0:
182,192,49233,128,0,49596:0:0:0:0:
256,192,49354,128,0,49475:0:0:0:0:
475,192,49354,128,0,49717:0:0:0:0:
36,192,49354,128,0,49717:0:0:0:0:
329,192,49475,128,0,49717:0:0:0:0:
109,192,49475,128,0,49717:0:0:0:0:
256,192,49596,128,0,50080:0:0:0:0:
402,192,49596,128,0,49959:0:0:0:0:
182,192,49717,128,0,49838:0:0:0:0:
36,192,49838,128,0,50201:0:0:0:0:
329,192,49838,128,0,49959:0:0:0:0:
109,192,49838,128,0,49959:0:0:0:0:
475,192,49838,128,0,50080:0:0:0:0:
182,192,49959,128,0,50322:0:0:0:0:
329,192,50080,128,0,50322:0:0:0:0:
402,192,50080,128,0,50201:0:0:0:0:
109,192,50080,128,0,50201:0:0:0:0:
475,192,50201,128,0,50443:0:0:0:0:
256,192,50201,128,0,50806:0:0:0:0:
36,192,50322,128,0,50443:0:0:0:0:
402,192,50322,128,0,50927:0:0:0:0:
109,192,50322,128,0,50685:0:0:0:0:
329,192,50443,128,0,50685:0:0:0:0:
182,192,50443,128,0,50564:0:0:0:0:
36,192,50564,128,0,50685:0:0:0:0:
475,192,50564,128,0,50685:0:0:0:0:
182,192,50685,128,0,50927:0:0:0:0:
36,192,50806,128,0,51169:0:0:0:0:
475,192,50806,128,0,51048:0:0:0:0:
329,192,50806,128,0,51169:0:0:0:0:
109,192,50806,128,0,50927:0:0:0:0:
256,192,50927,128,0,51048:0:0:0:0:
402,192,51048,128,0,51169:0:0:0:0:
109,192,51048,128,0,51653:0:0:0:0:
182,192,51048,128,0,51290:0:0:0:0:
475,192,51169,128,0,51411:0:0:0:0:
256,192,51169,128,0,51653:0:0:0:0:
36,192,51290,128,0,51653:0:0:0:0:
402,192,51290,128,0,51532:0:0:0:0:
329,192,51290,128,0,51411:0:0:0:0:
182,192,51411,128,0,51532:0:0:0:0:
475,192,51532,128,0,51653:0:0:0:0:
329,192,51532,128,0,51895:0:0:0:0:
182,192,51653,128,0,51895:0:0:0:0:
402,192,51653,128,0,51774:0:0:0:0:
36,192,51774,128,0,52137:0:0:0:0:
475,192,51774,128,0,52499:0:0:0:0:
109,192,51774,128,0,52137:0:0:0:0:
256,192,51774,128,0,52258:0:0:0:0:
402,192,51895,128,0,52378:0:0:0:0:
182,192,52016,128,0,54193:0:0:0:0:
329,192,52016,128,0,52137:0:0:0:0:
36,192,52258,128,0,52620:0:0:0:0:
109,192,52258,128,0,52620:0:0:0:0:
329,192,52258,128,0,52499:0:0:0:0:
256,192,52379,128,0,52741:0:0:0:0:
402,192,52499,128,0,52862:0:0:0:0:
475,192,52620,128,0,52983:0:0:0:0:
329,192,52620,128,0,52862:0:0:0:0:
109,192,52741,128,0,53104:0:0:0:0:
36,192,52741,128,0,53104:0:0:0:0:
256,192,52862,128,0,53225:0:0:0:0:
402,192,52983,128,0,53346:0:0:0:0:
329,192,52983,128,0,53225:0:0:0:0:
475,192,53104,128,0,53467:0:0:0:0:
36,192,53225,128,0,53588:0:0:0:0:
109,192,53225,128,0,53588:0:0:0:0:
329,192,53346,128,0,53588:0:0:0:0:
256,192,53346,128,0,53709:0:0:0:0:
402,192,53467,128,0,53830:0:0:0:0:
475,192,53588,128,0,54072:0:0:0:0:
329,192,53709,128,0,53951:0:0:0:0:
109,192,53709,128,0,53951:0:0:0:0:
36,192,53709,128,0,54072:0:0:0:0:
256,192,53830,128,0,54072:0:0:0:0:
402,192,53951,128,0,54314:0:0:0:0:
329,192,54072,128,0,54193:0:0:0:0:
109,192,54072,128,0,54314:0:0:0:0:
256,192,54193,128,0,54556:0:0:0:0:
36,192,54193,128,0,54556:0:0:0:0:
475,192,54193,128,0,54556:0:0:0:0:
329,192,54314,128,0,54435:0:0:0:0:
182,192,54314,128,0,54435:0:0:0:0:
402,192,54435,128,0,54798:0:0:0:0:
109,192,54435,128,0,54798:0:0:0:0:
329,192,54556,128,0,54677:0:0:0:0:
182,192,54556,128,0,54677:0:0:0:0:
256,192,54677,128,0,55040:0:0:0:0:
475,192,54677,128,0,55040:0:0:0:0:
36,192,54677,128,0,55040:0:0:0:0:
329,192,54798,128,0,54919:0:0:0:0:
182,192,54798,128,0,54919:0:0:0:0:
402,192,54919,128,0,55282:0:0:0:0:
109,192,54919,128,0,55282:0:0:0:0:
182,192,55040,128,0,55161:0:0:0:0:
329,192,55040,128,0,55161:0:0:0:0:
475,192,55161,128,0,55524:0:0:0:0:
256,192,55161,128,0,55524:0:0:0:0:
36,192,55161,128,0,55524:0:0:0:0:
329,192,55282,128,0,55403:0:0:0:0:
182,192,55282,128,0,55403:0:0:0:0:
109,192,55403,128,0,56128:0:0:0:0:
402,192,55403,128,0,56128:0:0:0:0:
329,192,55524,128,0,56370:0:0:0:0:
182,192,55524,128,0,56249:0:0:0:0:
36,192,55645,128,0,56008:0:0:0:0:
475,192,55645,128,0,56008:0:0:0:0:
256,192,55645,128,0,56008:0:0:0:0:
36,192,56129,1,0,0:0:0:0:0
475,192,56129,128,0,56491:0:0:0:0:
256,192,56129,1,0,0:0:0:0:0
402,192,56249,128,0,56612:0:0:0:0:
109,192,56249,128,0,56370:0:0:0:0:
36,192,56370,128,0,56491:0:0:0:0:
182,192,56370,128,0,56491:0:0:0:0:
256,192,56370,128,0,56733:0:0:0:0:
329,192,56491,128,0,56975:0:0:0:0:
109,192,56491,128,0,56733:0:0:0:0:
36,192,56612,128,0,57217:0:0:0:0:
475,192,56612,128,0,56733:0:0:0:0:
182,192,56612,128,0,56854:0:0:0:0:
402,192,56733,128,0,56975:0:0:0:0:
256,192,56854,128,0,57096:0:0:0:0:
109,192,56854,128,0,56975:0:0:0:0:
475,192,56854,128,0,57217:0:0:0:0:
182,192,56975,128,0,57096:0:0:0:0:
329,192,57096,128,0,57217:0:0:0:0:
402,192,57096,128,0,57338:0:0:0:0:
109,192,57096,128,0,57459:0:0:0:0:
256,192,57217,128,0,57459:0:0:0:0:
182,192,57217,128,0,57338:0:0:0:0:
36,192,57338,128,0,57943:0:0:0:0:
329,192,57338,128,0,57580:0:0:0:0:
475,192,57338,128,0,57459:0:0:0:0:
402,192,57459,128,0,57943:0:0:0:0:
182,192,57459,128,0,57580:0:0:0:0:
256,192,57580,128,0,57822:0:0:0:0:
109,192,57580,128,0,57701:0:0:0:0:
475,192,57580,128,0,57701:0:0:0:0:
329,192,57701,128,0,57943:0:0:0:0:
182,192,57701,128,0,58064:0:0:0:0:
475,192,57822,128,0,58064:0:0:0:0:
109,192,57822,128,0,58427:0:0:0:0:
256,192,57943,128,0,58427:0:0:0:0:
329,192,58064,128,0,58548:0:0:0:0:
402,192,58064,128,0,58185:0:0:0:0:
36,192,58064,128,0,58185:0:0:0:0:
182,192,58185,128,0,58306:0:0:0:0:
475,192,58185,128,0,58669:0:0:0:0:
36,192,58306,128,0,58669:0:0:0:0:
402,192,58306,128,0,58427:0:0:0:0:
182,192,58427,128,0,58548:0:0:0:0:
402,192,58548,128,0,58790:0:0:0:0:
256,192,58548,128,0,58911:0:0:0:0:
109,192,58548,128,0,59032:0:0:0:0:
329,192,58669,128,0,59032:0:0:0:0:
182,192,58669,128,0,58790:0:0:0:0:
475,192,58790,128,0,58911:0:0:0:0:
36,192,58790,128,0,58911:0:0:0:0:
402,192,58911,128,0,59395:0:0:0:0:
182,192,58911,128,0,59153:0:0:0:0:
475,192,59032,128,0,59153:0:0:0:0:
36,192,59032,128,0,59153:0:0:0:0:
256,192,59032,128,0,59274:0:0:0:0:
109,192,59153,128,0,59274:0:0:0:0:
329,192,59153,128,0,59274:0:0:0:0:
182,192,59274,128,0,59395:0:0:0:0:
475,192,59274,128,0,59395:0:0:0:0:
36,192,59274,128,0,59395:0:0:0:0:
109,192,59395,128,0,60362:0:0:0:0:
256,192,59395,128,0,59878:0:0:0:0:
329,192,59395,128,0,59999:0:0:0:0:
36,192,59516,128,0,59878:0:0:0:0:
402,192,59516,128,0,60362:0:0:0:0:
475,192,59516,128,0,59878:0:0:0:0:
182,192,59516,128,0,59999:0:0:0:0:
36,192,59999,128,0,60120:0:0:0:0:
256,192,59999,128,0,60120:0:0:0:0:
475,192,59999,128,0,60120:0:0:0:0:
329,192,60120,128,0,60483:0:0:0:0:
182,192,60120,128,0,60483:0:0:0:0:
36,192,60241,128,0,60846:0:0:0:0:
256,192,60241,128,0,60483:0:0:0:0:
475,192,60241,128,0,60846:0:0:0:0:
402,192,60483,128,0,60604:0:0:0:0:
109,192,60483,128,0,60604:0:0:0:0:
182,192,60604,128,0,60967:0:0:0:0:
256,192,60604,128,0,60846:0:0:0:0:
329,192,60604,128,0,60967:0:0:0:0:
402,192,60725,128,0,61330:0:0:0:0:
109,192,60725,128,0,61330:0:0:0:0:
36,192,60967,128,0,61088:0:0:0:0:
475,192,60967,128,0,61088:0:0:0:0:
256,192,60967,128,0,61088:0:0:0:0:
182,192,61088,128,0,61451:0:0:0:0:
329,192,61088,128,0,61451:0:0:0:0:
36,192,61209,128,0,61814:0:0:0:0:
475,192,61209,128,0,61814:0:0:0:0:
256,192,61209,128,0,61451:0:0:0:0:
109,192,61451,128,0,61572:0:0:0:0:
402,192,61451,128,0,61572:0:0:0:0:
182,192,61572,128,0,61814:0:0:0:0:
329,192,61572,128,0,61814:0:0:0:0:
256,192,61572,128,0,61935:0:0:0:0:
109,192,61693,128,0,62056:0:0:0:0:
402,192,61693,128,0,61935:0:0:0:0:
475,192,61935,128,0,62056:0:0:0:0:
182,192,61935,128,0,62177:0:0:0:0:
329,192,61935,128,0,62056:0:0:0:0:
36,192,61935,128,0,62298:0:0:0:0:
256,192,62056,128,0,62298:0:0:0:0:
402,192,62056,128,0,62177:0:0:0:0:
475,192,62177,128,0,62298:0:0:0:0:
109,192,62177,128,0,62419:0:0:0:0:
329,192,62177,128,0,62298:0:0:0:0:
182,192,62298,128,0,62661:0:0:0:0:
402,192,62298,128,0,62419:0:0:0:0:
475,192,62419,128,0,62540:0:0:0:0:
36,192,62419,128,0,62540:0:0:0:0:
256,192,62419,128,0,62540:0:0:0:0:
329,192,62419,128,0,62661:0:0:0:0:
109,192,62540,128,0,63749:0:0:0:0:
402,192,62540,128,0,63749:0:0:0:0:
256,192,62661,128,0,62782:0:0:0:0:
475,192,62661,128,0,62782:0:0:0:0:
36,192,62661,128,0,62782:0:0:0:0:
182,192,62782,128,0,63870:0:0:0:0:
329,192,62782,128,0,63870:0:0:0:0:
475,192,62903,128,0,63749:0:0:0:0:
36,192,62903,128,0,63266:0:0:0:0:
256,192,62903,128,0,63749:0:0:0:0:
36,192,63387,128,0,63749:0:0:0:0:
475,192,63870,128,0,63991:0:0:0:0:
36,192,63870,128,0,64233:0:0:0:0:
256,192,63870,128,0,63991:0:0:0:0:
109,192,63870,128,0,63991:0:0:0:0:
402,192,63870,128,0,64354:0:0:0:0:
182,192,63991,128,0,64112:0:0:0:0:
329,192,63991,128,0,64475:0:0:0:0:
256,192,64112,128,0,64233:0:0:0:0:
109,192,64112,128,0,64475:0:0:0:0:
475,192,64112,128,0,64233:0:0:0:0:
182,192,64233,128,0,64354:0:0:0:0:
475,192,64354,128,0,64475:0:0:0:0:
36,192,64354,128,0,64717:0:0:0:0:
256,192,64354,128,0,64838:0:0:0:0:
182,192,64475,128,0,64596:0:0:0:0:
402,192,64475,128,0,65201:0:0:0:0:
109,192,64596,128,0,64717:0:0:0:0:
329,192,64596,128,0,64717:0:0:0:0:
475,192,64596,128,0,64717:0:0:0:0:
182,192,64717,128,0,64838:0:0:0:0:
475,192,64838,128,0,64959:0:0:0:0:
329,192,64838,128,0,64959:0:0:0:0:
36,192,64838,128,0,65201:0:0:0:0:
109,192,64838,128,0,64959:0:0:0:0:
256,192,64959,128,0,65080:0:0:0:0:
182,192,64959,128,0,65201:0:0:0:0:
329,192,65080,128,0,65322:0:0:0:0:
109,192,65080,128,0,65322:0:0:0:0:
475,192,65080,128,0,65443:0:0:0:0:
256,192,65201,128,0,65443:0:0:0:0:
402,192,65322,128,0,65685:0:0:0:0:
36,192,65322,128,0,65685:0:0:0:0:
182,192,65322,128,0,65443:0:0:0:0:
109,192,65443,128,0,65685:0:0:0:0:
329,192,65443,128,0,65564:0:0:0:0:
256,192,65564,128,0,65685:0:0:0:0:
182,192,65564,128,0,65806:0:0:0:0:
475,192,65564,128,0,65685:0:0:0:0:
329,192,65685,128,0,65806:0:0:0:0:
402,192,65806,128,0,66048:0:0:0:0:
256,192,65806,128,0,65927:0:0:0:0:
36,192,65806,128,0,66169:0:0:0:0:
109,192,65806,128,0,65927:0:0:0:0:
475,192,65806,128,0,65927:0:0:0:0:
182,192,65927,128,0,66169:0:0:0:0:
329,192,65927,128,0,66290:0:0:0:0:
475,192,66048,128,0,66169:0:0:0:0:
256,192,66048,128,0,66411:0:0:0:0:
109,192,66048,128,0,66411:0:0:0:0:
402,192,66169,128,0,66290:0:0:0:0:
36,192,66290,128,0,66653:0:0:0:0:
182,192,66290,128,0,66532:0:0:0:0:
475,192,66290,128,0,66411:0:0:0:0:
402,192,66411,128,0,66774:0:0:0:0:
329,192,66411,128,0,66653:0:0:0:0:
109,192,66532,128,0,66895:0:0:0:0:
475,192,66532,128,0,66653:0:0:0:0:
256,192,66532,128,0,66653:0:0:0:0:
182,192,66653,128,0,66774:0:0:0:0:
475,192,66774,128,0,66895:0:0:0:0:
329,192,66774,128,0,67137:0:0:0:0:
36,192,66774,128,0,67137:0:0:0:0:
256,192,66774,128,0,66895:0:0:0:0:
402,192,66895,128,0,67016:0:0:0:0:
182,192,66895,128,0,67137:0:0:0:0:
475,192,67016,128,0,67378:0:0:0:0:
109,192,67016,128,0,67378:0:0:0:0:
256,192,67016,128,0,67258:0:0:0:0:
402,192,67137,128,0,67258:0:0:0:0:
182,192,67258,128,0,67499:0:0:0:0:
329,192,67258,1,0,0:0:0:0:0
36,192,67258,128,0,67620:0:0:0:0:
402,192,67379,128,0,67620:0:0:0:0:
256,192,67379,128,0,67741:0:0:0:0:
329,192,67499,128,0,67620:0:0:0:0:
475,192,67499,128,0,67620:0:0:0:0:
109,192,67499,128,0,67620:0:0:0:0:
182,192,67620,128,0,67741:0:0:0:0:
329,192,67741,128,0,67862:0:0:0:0:
402,192,67741,128,0,68467:0:0:0:0:
475,192,67741,128,0,67862:0:0:0:0:
36,192,67741,128,0,68104:0:0:0:0:
109,192,67741,128,0,67862:0:0:0:0:
256,192,67862,128,0,67983:0:0:0:0:
182,192,67862,128,0,68104:0:0:0:0:
475,192,67983,128,0,68225:0:0:0:0:
329,192,67983,128,0,68104:0:0:0:0:
109,192,67983,128,0,68346:0:0:0:0:
256,192,68104,128,0,68225:0:0:0:0:
36,192,68225,128,0,68588:0:0:0:0:
329,192,68225,128,0,68346:0:0:0:0:
182,192,68225,128,0,68346:0:0:0:0:
475,192,68346,128,0,68588:0:0:0:0:
256,192,68346,128,0,68588:0:0:0:0:
109,192,68467,128,0,68709:0:0:0:0:
329,192,68467,128,0,68709:0:0:0:0:
182,192,68467,128,0,68588:0:0:0:0:
402,192,68588,128,0,69193:0:0:0:0:
36,192,68709,128,0,69072:0:0:0:0:
182,192,68709,128,0,68830:0:0:0:0:
256,192,68709,128,0,68830:0:0:0:0:
475,192,68709,128,0,68830:0:0:0:0:
329,192,68830,128,0,68951:0:0:0:0:
109,192,68830,128,0,69314:0:0:0:0:
182,192,68951,128,0,69072:0:0:0:0:
475,192,68951,128,0,69072:0:0:0:0:
256,192,68951,128,0,69193:0:0:0:0:
329,192,69072,128,0,69314:0:0:0:0:
36,192,69193,128,0,69556:0:0:0:0:
475,192,69193,128,0,69314:0:0:0:0:
182,192,69193,128,0,69435:0:0:0:0:
256,192,69314,128,0,70040:0:0:0:0:
402,192,69314,128,0,69556:0:0:0:0:
475,192,69435,128,0,69556:0:0:0:0:
329,192,69435,128,0,69556:0:0:0:0:
109,192,69435,128,0,69556:0:0:0:0:
182,192,69556,128,0,70524:0:0:0:0:
36,192,69677,128,0,70040:0:0:0:0:
109,192,69677,128,0,70040:0:0:0:0:
329,192,69677,128,0,70040:0:0:0:0:
475,192,69677,128,0,70040:0:0:0:0:
402,192,69677,128,0,70766:0:0:0:0:
36,192,70161,128,0,70524:0:0:0:0:
329,192,70161,128,0,70524:0:0:0:0:
109,192,70161,128,0,70766:0:0:0:0:
256,192,70161,128,0,70524:0:0:0:0:
475,192,70161,128,0,70524:0:0:0:0:
256,192,70645,128,0,71008:0:0:0:0:
475,192,70645,128,0,70766:0:0:0:0:
329,192,70645,128,0,70766:0:0:0:0:
36,192,70645,128,0,70766:0:0:0:0:
182,192,70645,128,0,71491:0:0:0:0:
475,192,70887,128,0,71128:0:0:0:0:
109,192,70887,128,0,71008:0:0:0:0:
329,192,70887,128,0,71128:0:0:0:0:
36,192,70887,128,0,71128:0:0:0:0:
402,192,70887,128,0,71249:0:0:0:0:
256,192,71129,1,0,0:0:0:0:0
109,192,71129,128,0,71370:0:0:0:0:
36,192,71249,128,0,71491:0:0:0:0:
475,192,71249,128,0,71491:0:0:0:0:
329,192,71249,128,0,71491:0:0:0:0:
256,192,71370,128,0,71975:0:0:0:0:
402,192,71370,128,0,71612:0:0:0:0:
109,192,71491,128,0,71612:0:0:0:0:
475,192,71612,128,0,71733:0:0:0:0:
182,192,71612,128,0,71854:0:0:0:0:
36,192,71612,128,0,71733:0:0:0:0:
329,192,71612,128,0,71733:0:0:0:0:
109,192,71733,128,0,72096:0:0:0:0:
402,192,71733,128,0,72217:0:0:0:0:
36,192,71854,128,0,71975:0:0:0:0:
329,192,71854,128,0,72096:0:0:0:0:
475,192,71854,128,0,71975:0:0:0:0:
182,192,71975,128,0,72217:0:0:0:0:
475,192,72096,128,0,72459:0:0:0:0:
256,192,72096,128,0,72338:0:0:0:0:
36,192,72096,128,0,72217:0:0:0:0:
329,192,72217,128,0,72701:0:0:0:0:
109,192,72217,128,0,72459:0:0:0:0:
182,192,72338,128,0,72459:0:0:0:0:
36,192,72338,128,0,72580:0:0:0:0:
402,192,72338,128,0,72459:0:0:0:0:
256,192,72459,128,0,72580:0:0:0:0:
182,192,72580,128,0,72701:0:0:0:0:
109,192,72580,128,0,72822:0:0:0:0:
475,192,72580,128,0,72701:0:0:0:0:
402,192,72580,128,0,73185:0:0:0:0:
256,192,72701,128,0,72943:0:0:0:0:
36,192,72701,128,0,72943:0:0:0:0:
329,192,72822,128,0,73064:0:0:0:0:
182,192,72822,128,0,73064:0:0:0:0:
475,192,72822,128,0,72943:0:0:0:0:
109,192,72943,128,0,73185:0:0:0:0:
256,192,73064,128,0,73185:0:0:0:0:
36,192,73064,128,0,73548:0:0:0:0:
475,192,73064,128,0,73427:0:0:0:0:
329,192,73185,128,0,73306:0:0:0:0:
182,192,73185,128,0,73427:0:0:0:0:
402,192,73306,128,0,73427:0:0:0:0:
256,192,73306,128,0,73548:0:0:0:0:
109,192,73306,128,0,73427:0:0:0:0:
329,192,73427,128,0,73790:0:0:0:0:
182,192,73548,128,0,73669:0:0:0:0:
109,192,73548,128,0,73911:0:0:0:0:
475,192,73548,128,0,73669:0:0:0:0:
402,192,73548,128,0,73669:0:0:0:0:
36,192,73669,128,0,73911:0:0:0:0:
256,192,73669,128,0,74032:0:0:0:0:
182,192,73790,128,0,74153:0:0:0:0:
475,192,73790,128,0,73911:0:0:0:0:
402,192,73790,128,0,74032:0:0:0:0:
329,192,73911,128,0,74153:0:0:0:0:
36,192,74032,128,0,74153:0:0:0:0:
475,192,74032,128,0,74516:0:0:0:0:
109,192,74032,128,0,74395:0:0:0:0:
402,192,74153,128,0,74395:0:0:0:0:
256,192,74153,128,0,74274:0:0:0:0:
36,192,74274,128,0,74395:0:0:0:0:
329,192,74274,128,0,74395:0:0:0:0:
182,192,74274,128,0,74395:0:0:0:0:
256,192,74395,128,0,74999:0:0:0:0:
329,192,74516,128,0,75362:0:0:0:0:
36,192,74516,128,0,74878:0:0:0:0:
182,192,74516,128,0,75241:0:0:0:0:
402,192,74516,128,0,75120:0:0:0:0:
109,192,74516,128,0,79475:0:0:0:0:
475,192,74944,128,0,75362:0:0:0:0:
36,192,74999,128,0,75362:0:0:0:0:
256,192,75120,128,0,76935:0:0:0:0:
402,192,75241,128,0,76451:0:0:0:0:
182,192,75362,128,0,77298:0:0:0:0:
329,192,75483,128,0,78749:0:0:0:0:
475,192,75483,128,0,78749:0:0:0:0:
36,192,75483,128,0,78749:0:0:0:0:
402,192,76875,128,0,79838:0:0:0:0:
256,192,77358,128,0,79354:0:0:0:0:
182,192,77419,1,0,0:0:0:0:0
182,192,78870,128,0,79596:0:0:0:0:
329,192,78870,128,0,79233:0:0:0:0:
475,192,78870,128,0,79233:0:0:0:0:
36,192,78870,128,0,79233:0:0:0:0:
329,192,79354,128,0,79475:0:0:0:0:
475,192,79354,128,0,79475:0:0:0:0:
36,192,79354,128,0,79717:0:0:0:0:
256,192,79475,128,0,79717:0:0:0:0:
329,192,79596,128,0,79959:0:0:0:0:
109,192,79596,128,0,79838:0:0:0:0:
475,192,79596,128,0,80201:0:0:0:0:
182,192,79717,128,0,79959:0:0:0:0:
256,192,79838,128,0,80080:0:0:0:0:
36,192,79838,128,0,80201:0:0:0:0:
109,192,79959,128,0,80443:0:0:0:0:
402,192,79959,128,0,80806:0:0:0:0:
182,192,80080,128,0,80322:0:0:0:0:
329,192,80080,128,0,80201:0:0:0:0:
256,192,80201,128,0,80564:0:0:0:0:
329,192,80322,128,0,80443:0:0:0:0:
36,192,80322,128,0,80685:0:0:0:0:
475,192,80322,128,0,80443:0:0:0:0:
182,192,80443,128,0,80806:0:0:0:0:
475,192,80564,128,0,81169:0:0:0:0:
329,192,80564,128,0,80685:0:0:0:0:
109,192,80564,128,0,80927:0:0:0:0:
256,192,80685,128,0,80927:0:0:0:0:
329,192,80806,128,0,81169:0:0:0:0:
36,192,80806,128,0,81169:0:0:0:0:
182,192,80927,128,0,81048:0:0:0:0:
402,192,80927,128,0,81774:0:0:0:0:
109,192,81048,128,0,81411:0:0:0:0:
256,192,81048,128,0,81290:0:0:0:0:
182,192,81169,128,0,81532:0:0:0:0:
36,192,81290,128,0,81653:0:0:0:0:
329,192,81290,128,0,81411:0:0:0:0:
475,192,81290,128,0,81411:0:0:0:0:
256,192,81411,128,0,81653:0:0:0:0:
329,192,81532,128,0,82137:0:0:0:0:
109,192,81532,128,0,81774:0:0:0:0:
475,192,81532,128,0,82137:0:0:0:0:
182,192,81653,128,0,81895:0:0:0:0:
256,192,81774,128,0,82258:0:0:0:0:
36,192,81774,128,0,82137:0:0:0:0:
402,192,81895,128,0,82016:0:0:0:0:
109,192,81895,128,0,82379:0:0:0:0:
182,192,82016,128,0,82741:0:0:0:0:
402,192,82137,128,0,82620:0:0:0:0:
329,192,82258,128,0,82379:0:0:0:0:
36,192,82258,128,0,82620:0:0:0:0:
475,192,82258,128,0,82379:0:0:0:0:
256,192,82379,1,0,0:0:0:0:0
329,192,82500,128,0,83104:0:0:0:0:
109,192,82500,128,0,82983:0:0:0:0:
475,192,82500,128,0,82741:0:0:0:0:
256,192,82620,128,0,82862:0:0:0:0:
36,192,82741,128,0,83104:0:0:0:0:
402,192,82741,128,0,82862:0:0:0:0:
182,192,82862,128,0,83467:0:0:0:0:
475,192,82862,128,0,83104:0:0:0:0:
256,192,82983,128,0,83225:0:0:0:0:
402,192,82983,128,0,83709:0:0:0:0:
109,192,83104,128,0,83346:0:0:0:0:
329,192,83225,128,0,83346:0:0:0:0:
36,192,83225,128,0,83588:0:0:0:0:
475,192,83225,128,0,83346:0:0:0:0:
256,192,83346,128,0,83588:0:0:0:0:
329,192,83467,128,0,84072:0:0:0:0:
109,192,83467,128,0,83709:0:0:0:0:
475,192,83467,128,0,84072:0:0:0:0:
182,192,83588,128,0,83830:0:0:0:0:
36,192,83709,128,0,84072:0:0:0:0:
256,192,83709,128,0,83951:0:0:0:0:
109,192,83830,128,0,84314:0:0:0:0:
402,192,83830,128,0,84677:0:0:0:0:
182,192,83951,128,0,84193:0:0:0:0:
256,192,84072,128,0,84435:0:0:0:0:
475,192,84193,128,0,84314:0:0:0:0:
329,192,84193,128,0,84314:0:0:0:0:
36,192,84193,128,0,84556:0:0:0:0:
182,192,84314,128,0,84677:0:0:0:0:
329,192,84435,128,0,84556:0:0:0:0:
109,192,84435,128,0,84798:0:0:0:0:
475,192,84435,128,0,85040:0:0:0:0:
256,192,84556,128,0,85161:0:0:0:0:
36,192,84677,128,0,85040:0:0:0:0:
329,192,84677,128,0,85040:0:0:0:0:
182,192,84798,128,0,84919:0:0:0:0:
402,192,84798,128,0,85645:0:0:0:0:
109,192,84919,128,0,85282:0:0:0:0:
182,192,85040,128,0,85403:0:0:0:0:
36,192,85161,128,0,85766:0:0:0:0:
329,192,85161,128,0,85282:0:0:0:0:
475,192,85161,128,0,85282:0:0:0:0:
256,192,85282,128,0,85524:0:0:0:0:
109,192,85403,128,0,85645:0:0:0:0:
329,192,85403,128,0,86008:0:0:0:0:
475,192,85403,128,0,85524:0:0:0:0:
182,192,85524,128,0,85887:0:0:0:0:
256,192,85645,128,0,85766:0:0:0:0:
475,192,85645,128,0,86008:0:0:0:0:
109,192,85766,128,0,86249:0:0:0:0:
402,192,85766,128,0,86612:0:0:0:0:
36,192,85887,128,0,86008:0:0:0:0:
256,192,85887,128,0,86370:0:0:0:0:
182,192,86008,128,0,86129:0:0:0:0:
329,192,86129,1,0,0:0:0:0:0
475,192,86129,1,0,0:0:0:0:0
36,192,86129,128,0,86491:0:0:0:0:
182,192,86250,128,0,86612:0:0:0:0:
475,192,86370,128,0,86491:0:0:0:0:
329,192,86370,128,0,86491:0:0:0:0:
109,192,86370,128,0,86733:0:0:0:0:
256,192,86491,128,0,86733:0:0:0:0:
475,192,86612,128,0,86854:0:0:0:0:
329,192,86612,128,0,86733:0:0:0:0:
36,192,86612,128,0,86975:0:0:0:0:
182,192,86733,128,0,87338:0:0:0:0:
402,192,86733,128,0,86975:0:0:0:0:
329,192,86854,128,0,87096:0:0:0:0:
256,192,86854,128,0,86975:0:0:0:0:
109,192,86854,128,0,87217:0:0:0:0:
475,192,86975,128,0,87580:0:0:0:0:
256,192,87096,128,0,87217:0:0:0:0:
36,192,87096,128,0,87459:0:0:0:0:
402,192,87096,128,0,87217:0:0:0:0:
329,192,87217,128,0,87459:0:0:0:0:
256,192,87338,128,0,87580:0:0:0:0:
109,192,87338,128,0,87701:0:0:0:0:
402,192,87338,128,0,87701:0:0:0:0:
182,192,87459,128,0,87822:0:0:0:0:
329,192,87580,128,0,87943:0:0:0:0:
36,192,87580,128,0,87943:0:0:0:0:
475,192,87701,128,0,87943:0:0:0:0:
256,192,87701,128,0,88306:0:0:0:0:
109,192,87822,128,0,88185:0:0:0:0:
402,192,87822,128,0,88427:0:0:0:0:
182,192,87943,128,0,88064:0:0:0:0:
36,192,88064,128,0,88427:0:0:0:0:
475,192,88064,128,0,88185:0:0:0:0:
329,192,88064,128,0,88185:0:0:0:0:
182,192,88185,128,0,88548:0:0:0:0:
475,192,88306,128,0,88548:0:0:0:0:
109,192,88306,128,0,88669:0:0:0:0:
329,192,88306,128,0,88669:0:0:0:0:
256,192,88427,128,0,88911:0:0:0:0:
36,192,88548,128,0,88911:0:0:0:0:
402,192,88548,128,0,88911:0:0:0:0:
475,192,88669,128,0,89516:0:0:0:0:
182,192,88669,128,0,88790:0:0:0:0:
109,192,88790,128,0,89153:0:0:0:0:
329,192,88790,128,0,89032:0:0:0:0:
182,192,88911,128,0,89274:0:0:0:0:
256,192,89032,128,0,89153:0:0:0:0:
36,192,89032,128,0,89395:0:0:0:0:
402,192,89032,128,0,89153:0:0:0:0:
329,192,89153,128,0,89395:0:0:0:0:
256,192,89274,128,0,89516:0:0:0:0:
109,192,89274,128,0,89637:0:0:0:0:
402,192,89274,128,0,89637:0:0:0:0:
182,192,89395,128,0,89758:0:0:0:0:
329,192,89516,128,0,89879:0:0:0:0:
36,192,89516,128,0,89879:0:0:0:0:
475,192,89637,128,0,89879:0:0:0:0:
256,192,89637,128,0,90241:0:0:0:0:
109,192,89758,128,0,90120:0:0:0:0:
402,192,89758,128,0,90483:0:0:0:0:
182,192,89879,1,0,0:0:0:0:0
36,192,90000,128,0,90362:0:0:0:0:
329,192,90000,1,0,0:0:0:0:0
475,192,90000,1,0,0:0:0:0:0
182,192,90120,128,0,90604:0:0:0:0:
329,192,90241,128,0,90362:0:0:0:0:
109,192,90241,128,0,90483:0:0:0:0:
475,192,90241,128,0,90604:0:0:0:0:
256,192,90362,128,0,90846:0:0:0:0:
36,192,90483,128,0,90846:0:0:0:0:
329,192,90483,128,0,90725:0:0:0:0:
109,192,90604,128,0,91088:0:0:0:0:
402,192,90604,128,0,90846:0:0:0:0:
182,192,90725,128,0,91209:0:0:0:0:
475,192,90725,128,0,91451:0:0:0:0:
329,192,90846,128,0,90967:0:0:0:0:
256,192,90967,128,0,91088:0:0:0:0:
402,192,90967,128,0,91088:0:0:0:0:
36,192,90967,128,0,91330:0:0:0:0:
329,192,91088,128,0,91330:0:0:0:0:
402,192,91209,128,0,91572:0:0:0:0:
109,192,91209,128,0,91572:0:0:0:0:
256,192,91209,128,0,91451:0:0:0:0:
182,192,91330,128,0,91935:0:0:0:0:
329,192,91451,128,0,91814:0:0:0:0:
36,192,91451,128,0,91814:0:0:0:0:
475,192,91572,128,0,91814:0:0:0:0:
256,192,91572,128,0,91693:0:0:0:0:
109,192,91693,128,0,92056:0:0:0:0:
402,192,91693,128,0,92903:0:0:0:0:
256,192,91814,128,0,92419:0:0:0:0:
329,192,91935,128,0,92056:0:0:0:0:
475,192,91935,128,0,92056:0:0:0:0:
36,192,91935,128,0,92298:0:0:0:0:
182,192,92056,128,0,92177:0:0:0:0:
329,192,92177,128,0,92298:0:0:0:0:
475,192,92177,128,0,92419:0:0:0:0:
109,192,92177,128,0,93387:0:0:0:0:
182,192,92298,128,0,92782:0:0:0:0:
329,192,92419,128,0,92782:0:0:0:0:
36,192,92419,128,0,92782:0:0:0:0:
475,192,92540,128,0,93266:0:0:0:0:
256,192,92540,128,0,93508:0:0:0:0:
329,192,92903,128,0,93024:0:0:0:0:
182,192,92903,128,0,93024:0:0:0:0:
36,192,92903,128,0,93024:0:0:0:0:
402,192,93024,128,0,93145:0:0:0:0:
329,192,93145,128,0,93387:0:0:0:0:
182,192,93145,128,0,93387:0:0:0:0:
36,192,93145,128,0,93266:0:0:0:0:
402,192,93266,128,0,94354:0:0:0:0:
475,192,93387,128,0,93749:0:0:0:0:
36,192,93387,128,0,93749:0:0:0:0:
182,192,93508,128,0,94717:0:0:0:0:
109,192,93508,128,0,94354:0:0:0:0:
329,192,93508,128,0,94233:0:0:0:0:
256,192,93629,128,0,93870:0:0:0:0:
475,192,93870,128,0,94233:0:0:0:0:
36,192,93870,128,0,94475:0:0:0:0:
256,192,94233,128,0,94475:0:0:0:0:
475,192,94354,128,0,94596:0:0:0:0:
329,192,94354,128,0,94596:0:0:0:0:
109,192,94475,128,0,94959:0:0:0:0:
402,192,94475,128,0,94717:0:0:0:0:
36,192,94596,128,0,94717:0:0:0:0:
256,192,94596,128,0,94717:0:0:0:0:
329,192,94717,128,0,94838:0:0:0:0:
475,192,94717,128,0,94959:0:0:0:0:
36,192,94838,128,0,95201:0:0:0:0:
256,192,94838,128,0,94959:0:0:0:0:
182,192,94838,128,0,95080:0:0:0:0:
402,192,94838,128,0,95322:0:0:0:0:
329,192,94959,128,0,95080:0:0:0:0:
256,192,95080,128,0,95201:0:0:0:0:
475,192,95080,128,0,95201:0:0:0:0:
109,192,95080,128,0,95443:0:0:0:0:
329,192,95201,128,0,95685:0:0:0:0:
182,192,95201,128,0,95322:0:0:0:0:
256,192,95322,128,0,95443:0:0:0:0:
475,192,95322,128,0,95443:0:0:0:0:
36,192,95322,128,0,95685:0:0:0:0:
182,192,95443,128,0,95564:0:0:0:0:
402,192,95443,128,0,95564:0:0:0:0:
256,192,95564,128,0,95927:0:0:0:0:
109,192,95564,128,0,95685:0:0:0:0:
475,192,95564,128,0,95685:0:0:0:0:
182,192,95685,128,0,95806:0:0:0:0:
402,192,95685,128,0,95927:0:0:0:0:
475,192,95806,128,0,96169:0:0:0:0:
329,192,95806,128,0,96048:0:0:0:0:
36,192,95806,128,0,96169:0:0:0:0:
109,192,95806,128,0,95927:0:0:0:0:
182,192,95927,128,0,96290:0:0:0:0:
256,192,96048,128,0,96169:0:0:0:0:
402,192,96048,128,0,96290:0:0:0:0:
109,192,96048,128,0,96411:0:0:0:0:
329,192,96169,128,0,96411:0:0:0:0:
475,192,96290,128,0,96411:0:0:0:0:
256,192,96290,128,0,96532:0:0:0:0:
36,192,96290,128,0,96653:0:0:0:0:
182,192,96411,128,0,96653:0:0:0:0:
402,192,96411,128,0,96653:0:0:0:0:
329,192,96532,128,0,96653:0:0:0:0:
475,192,96532,128,0,96653:0:0:0:0:
109,192,96532,128,0,96774:0:0:0:0:
256,192,96653,128,0,97137:0:0:0:0:
36,192,96774,128,0,96895:0:0:0:0:
329,192,96774,128,0,96895:0:0:0:0:
182,192,96774,128,0,97016:0:0:0:0:
402,192,96774,128,0,97016:0:0:0:0:
475,192,96774,128,0,96895:0:0:0:0:
109,192,96895,128,0,97379:0:0:0:0:
475,192,97016,128,0,97137:0:0:0:0:
36,192,97016,128,0,97137:0:0:0:0:
329,192,97016,128,0,97258:0:0:0:0:
182,192,97137,128,0,97258:0:0:0:0:
402,192,97137,128,0,97379:0:0:0:0:
475,192,97258,128,0,97620:0:0:0:0:
36,192,97258,128,0,97620:0:0:0:0:
256,192,97258,128,0,97379:0:0:0:0:
329,192,97379,1,0,0:0:0:0:0
182,192,97379,128,0,97620:0:0:0:0:
402,192,97500,1,0,0:0:0:0:0
109,192,97500,128,0,97862:0:0:0:0:
256,192,97500,128,0,97741:0:0:0:0:
329,192,97620,128,0,97862:0:0:0:0:
402,192,97741,128,0,98104:0:0:0:0:
475,192,97741,128,0,97983:0:0:0:0:
36,192,97741,128,0,98104:0:0:0:0:
182,192,97741,128,0,97862:0:0:0:0:
256,192,97862,128,0,98225:0:0:0:0:
329,192,97983,128,0,98346:0:0:0:0:
109,192,97983,128,0,98346:0:0:0:0:
182,192,97983,128,0,98104:0:0:0:0:
475,192,98104,128,0,98225:0:0:0:0:
36,192,98225,128,0,98588:0:0:0:0:
182,192,98225,128,0,98588:0:0:0:0:
402,192,98225,128,0,98346:0:0:0:0:
256,192,98346,128,0,98709:0:0:0:0:
475,192,98346,128,0,98588:0:0:0:0:
329,192,98467,128,0,98588:0:0:0:0:
402,192,98467,128,0,98588:0:0:0:0:
109,192,98467,128,0,98830:0:0:0:0:
36,192,98709,128,0,99072:0:0:0:0:
475,192,98709,128,0,98830:0:0:0:0:
329,192,98709,128,0,98830:0:0:0:0:
402,192,98709,128,0,98951:0:0:0:0:
182,192,98709,128,0,98951:0:0:0:0:
256,192,98830,128,0,99072:0:0:0:0:
109,192,98951,128,0,99314:0:0:0:0:
475,192,98951,128,0,99314:0:0:0:0:
329,192,98951,128,0,99072:0:0:0:0:
182,192,99072,128,0,99193:0:0:0:0:
402,192,99072,128,0,99435:0:0:0:0:
256,192,99193,128,0,99677:0:0:0:0:
329,192,99193,128,0,99314:0:0:0:0:
36,192,99193,128,0,99556:0:0:0:0:
182,192,99314,128,0,99435:0:0:0:0:
475,192,99435,128,0,99556:0:0:0:0:
329,192,99435,128,0,99556:0:0:0:0:
109,192,99435,128,0,99677:0:0:0:0:
182,192,99556,128,0,99798:0:0:0:0:
402,192,99556,128,0,99798:0:0:0:0:
36,192,99677,128,0,99798:0:0:0:0:
475,192,99677,128,0,99919:0:0:0:0:
329,192,99677,128,0,100161:0:0:0:0:
256,192,99798,128,0,99919:0:0:0:0:
109,192,99798,128,0,100040:0:0:0:0:
182,192,99919,128,0,100282:0:0:0:0:
36,192,99919,128,0,100040:0:0:0:0:
402,192,99919,128,0,100040:0:0:0:0:
256,192,100040,128,0,100161:0:0:0:0:
475,192,100040,128,0,100282:0:0:0:0:
109,192,100161,128,0,100282:0:0:0:0:
36,192,100161,128,0,100524:0:0:0:0:
402,192,100161,128,0,100524:0:0:0:0:
256,192,100282,128,0,100524:0:0:0:0:
329,192,100282,128,0,100403:0:0:0:0:
182,192,100403,128,0,100645:0:0:0:0:
475,192,100403,128,0,100524:0:0:0:0:
109,192,100403,128,0,100524:0:0:0:0:
329,192,100524,128,0,100766:0:0:0:0:
256,192,100645,128,0,101129:0:0:0:0:
109,192,100645,128,0,100766:0:0:0:0:
36,192,100645,128,0,101008:0:0:0:0:
475,192,100645,128,0,100766:0:0:0:0:
402,192,100645,128,0,101249:0:0:0:0:
182,192,100766,128,0,100887:0:0:0:0:
329,192,100887,128,0,101008:0:0:0:0:
109,192,100887,128,0,101249:0:0:0:0:
475,192,100887,128,0,101008:0:0:0:0:
182,192,101008,128,0,101249:0:0:0:0:
475,192,101129,128,0,101491:0:0:0:0:
329,192,101129,128,0,101491:0:0:0:0:
36,192,101129,128,0,101491:0:0:0:0:
256,192,101250,1,0,0:0:0:0:0
182,192,101370,128,0,101491:0:0:0:0:
109,192,101370,128,0,101733:0:0:0:0:
402,192,101370,128,0,101612:0:0:0:0:
256,192,101491,128,0,101854:0:0:0:0:
475,192,101612,128,0,101733:0:0:0:0:
329,192,101612,128,0,101733:0:0:0:0:
182,192,101612,128,0,101975:0:0:0:0:
36,192,101612,128,0,101975:0:0:0:0:
402,192,101733,128,0,101975:0:0:0:0:
109,192,101854,128,0,102096:0:0:0:0:
329,192,101854,128,0,102217:0:0:0:0:
475,192,101854,128,0,102217:0:0:0:0:
256,192,101975,128,0,102096:0:0:0:0:
182,192,102096,128,0,102217:0:0:0:0:
36,192,102096,128,0,102459:0:0:0:0:
402,192,102096,128,0,102459:0:0:0:0:
256,192,102217,128,0,102459:0:0:0:0:
109,192,102217,128,0,102459:0:0:0:0:
182,192,102338,128,0,102701:0:0:0:0:
475,192,102338,128,0,102580:0:0:0:0:
329,192,102338,128,0,102459:0:0:0:0:
329,192,102580,128,0,102701:0:0:0:0:
36,192,102580,128,0,103064:0:0:0:0:
256,192,102580,128,0,102822:0:0:0:0:
109,192,102580,128,0,102943:0:0:0:0:
402,192,102580,128,0,102943:0:0:0:0:
475,192,102701,128,0,103185:0:0:0:0:
329,192,102822,128,0,102943:0:0:0:0:
182,192,102822,128,0,103185:0:0:0:0:
256,192,102943,128,0,103185:0:0:0:0:
329,192,103064,128,0,103427:0:0:0:0:
109,192,103064,128,0,103427:0:0:0:0:
402,192,103064,128,0,103306:0:0:0:0:
36,192,103185,128,0,103427:0:0:0:0:
475,192,103306,128,0,103669:0:0:0:0:
182,192,103306,128,0,103669:0:0:0:0:
256,192,103306,128,0,103548:0:0:0:0:
402,192,103427,128,0,104032:0:0:0:0:
109,192,103548,128,0,103911:0:0:0:0:
329,192,103548,128,0,103669:0:0:0:0:
36,192,103548,128,0,103790:0:0:0:0:
256,192,103669,128,0,104153:0:0:0:0:
475,192,103790,128,0,103911:0:0:0:0:
182,192,103790,128,0,104395:0:0:0:0:
329,192,103790,128,0,103911:0:0:0:0:
36,192,103911,128,0,104153:0:0:0:0:
109,192,104032,128,0,104395:0:0:0:0:
329,192,104032,128,0,104516:0:0:0:0:
475,192,104032,128,0,104153:0:0:0:0:
402,192,104153,128,0,104395:0:0:0:0:
36,192,104274,128,0,104637:0:0:0:0:
475,192,104274,128,0,104637:0:0:0:0:
256,192,104274,128,0,104637:0:0:0:0:
109,192,104516,128,0,104879:0:0:0:0:
182,192,104516,128,0,104758:0:0:0:0:
402,192,104516,128,0,104999:0:0:0:0:
329,192,104637,128,0,104879:0:0:0:0:
36,192,104758,128,0,104879:0:0:0:0:
475,192,104758,128,0,105120:0:0:0:0:
256,192,104758,128,0,105241:0:0:0:0:
182,192,104879,128,0,105120:0:0:0:0:
109,192,105000,128,0,105967:0:0:0:0:
329,192,105000,128,0,105362:0:0:0:0:
36,192,105000,1,0,0:0:0:0:0
402,192,105120,128,0,105241:0:0:0:0:
182,192,105241,128,0,105362:0:0:0:0:
36,192,105241,128,0,105362:0:0:0:0:
475,192,105241,128,0,106088:0:0:0:0:
256,192,105362,128,0,105846:0:0:0:0:
402,192,105362,128,0,105846:0:0:0:0:
182,192,105483,128,0,106088:0:0:0:0:
329,192,105483,128,0,105967:0:0:0:0:
36,192,105483,128,0,105846:0:0:0:0:
36,192,105967,128,0,106088:0:0:0:0:
256,192,105967,128,0,106330:0:0:0:0:
402,192,105967,128,0,106330:0:0:0:0:
109,192,106088,128,0,106572:0:0:0:0:
329,192,106088,128,0,106209:0:0:0:0:
475,192,106209,128,0,106572:0:0:0:0:
182,192,106209,128,0,106451:0:0:0:0:
36,192,106209,128,0,106330:0:0:0:0:
329,192,106330,128,0,106693:0:0:0:0:
36,192,106451,128,0,106814:0:0:0:0:
256,192,106451,128,0,106572:0:0:0:0:
402,192,106451,128,0,107298:0:0:0:0:
182,192,106572,128,0,106814:0:0:0:0:
109,192,106693,128,0,106935:0:0:0:0:
475,192,106693,128,0,106814:0:0:0:0:
256,192,106693,128,0,107056:0:0:0:0:
329,192,106814,128,0,107177:0:0:0:0:
475,192,106935,128,0,107056:0:0:0:0:
36,192,106935,128,0,107298:0:0:0:0:
182,192,106935,128,0,107056:0:0:0:0:
109,192,107056,128,0,107540:0:0:0:0:
256,192,107177,128,0,107298:0:0:0:0:
475,192,107177,128,0,107540:0:0:0:0:
182,192,107177,128,0,107419:0:0:0:0:
329,192,107298,128,0,107661:0:0:0:0:
36,192,107419,128,0,107782:0:0:0:0:
402,192,107419,128,0,107782:0:0:0:0:
256,192,107419,128,0,107540:0:0:0:0:
182,192,107540,128,0,107782:0:0:0:0:
256,192,107661,128,0,108024:0:0:0:0:
475,192,107661,128,0,108024:0:0:0:0:
109,192,107661,128,0,108024:0:0:0:0:
329,192,107782,128,0,107903:0:0:0:0:
182,192,107903,128,0,108266:0:0:0:0:
36,192,107903,128,0,108387:0:0:0:0:
402,192,107903,128,0,108266:0:0:0:0:
329,192,108024,128,0,108145:0:0:0:0:
109,192,108145,128,0,108508:0:0:0:0:
256,192,108145,128,0,108870:0:0:0:0:
475,192,108145,128,0,108508:0:0:0:0:
329,192,108266,128,0,108629:0:0:0:0:
182,192,108387,128,0,108629:0:0:0:0:
402,192,108387,128,0,108749:0:0:0:0:
36,192,108508,128,0,109112:0:0:0:0:
109,192,108629,128,0,109233:0:0:0:0:
475,192,108629,128,0,109717:0:0:0:0:
182,192,108750,128,0,108991:0:0:0:0:
329,192,108750,128,0,110201:0:0:0:0:
402,192,108870,128,0,110443:0:0:0:0:
256,192,108991,128,0,109717:0:0:0:0:
182,192,109112,128,0,110322:0:0:0:0:
36,192,109233,128,0,109717:0:0:0:0:
109,192,109354,128,0,110443:0:0:0:0:
475,192,109838,128,0,110201:0:0:0:0:
36,192,109838,128,0,110201:0:0:0:0:
256,192,109838,128,0,110443:0:0:0:0:
475,192,110322,128,0,110564:0:0:0:0:
36,192,110322,128,0,110685:0:0:0:0:
329,192,110322,128,0,110685:0:0:0:0:
182,192,110443,128,0,110685:0:0:0:0:
402,192,110564,128,0,110806:0:0:0:0:
256,192,110564,128,0,110806:0:0:0:0:
109,192,110564,128,0,110927:0:0:0:0:
475,192,110685,128,0,110927:0:0:0:0:
182,192,110806,128,0,111048:0:0:0:0:
36,192,110806,128,0,111169:0:0:0:0:
329,192,110806,128,0,110927:0:0:0:0:
256,192,110927,128,0,111290:0:0:0:0:
402,192,110927,128,0,111532:0:0:0:0:
109,192,111048,128,0,111653:0:0:0:0:
475,192,111048,128,0,111169:0:0:0:0:
329,192,111048,128,0,111169:0:0:0:0:
182,192,111169,128,0,111411:0:0:0:0:
329,192,111290,128,0,111411:0:0:0:0:
36,192,111290,128,0,111653:0:0:0:0:
475,192,111290,128,0,111411:0:0:0:0:
256,192,111411,128,0,111774:0:0:0:0:
329,192,111532,128,0,111895:0:0:0:0:
475,192,111532,128,0,111653:0:0:0:0:
182,192,111532,128,0,111895:0:0:0:0:
402,192,111653,128,0,111774:0:0:0:0:
109,192,111774,128,0,112016:0:0:0:0:
36,192,111774,128,0,112137:0:0:0:0:
475,192,111774,128,0,111895:0:0:0:0:
256,192,111895,128,0,112379:0:0:0:0:
402,192,111895,128,0,112379:0:0:0:0:
182,192,112016,128,0,112258:0:0:0:0:
329,192,112016,128,0,112137:0:0:0:0:
475,192,112016,128,0,112137:0:0:0:0:
109,192,112137,128,0,112379:0:0:0:0:
36,192,112258,128,0,112620:0:0:0:0:
329,192,112258,128,0,112499:0:0:0:0:
475,192,112258,128,0,112620:0:0:0:0:
182,192,112379,128,0,112620:0:0:0:0:
256,192,112500,128,0,112741:0:0:0:0:
109,192,112500,128,0,112862:0:0:0:0:
402,192,112500,128,0,112741:0:0:0:0:
329,192,112620,128,0,112862:0:0:0:0:
36,192,112741,128,0,113104:0:0:0:0:
182,192,112741,128,0,112983:0:0:0:0:
475,192,112741,128,0,112862:0:0:0:0:
256,192,112862,128,0,113467:0:0:0:0:
402,192,112862,128,0,113225:0:0:0:0:
475,192,112983,128,0,113104:0:0:0:0:
329,192,112983,128,0,113104:0:0:0:0:
109,192,112983,128,0,113588:0:0:0:0:
182,192,113104,128,0,113346:0:0:0:0:
475,192,113225,128,0,113346:0:0:0:0:
329,192,113225,128,0,113346:0:0:0:0:
36,192,113225,128,0,113588:0:0:0:0:
402,192,113346,128,0,113588:0:0:0:0:
182,192,113467,128,0,113830:0:0:0:0:
475,192,113467,128,0,113709:0:0:0:0:
329,192,113467,128,0,113709:0:0:0:0:
256,192,113588,128,0,113951:0:0:0:0:
109,192,113709,128,0,113951:0:0:0:0:
402,192,113709,128,0,113830:0:0:0:0:
36,192,113709,128,0,114072:0:0:0:0:
475,192,113830,128,0,114072:0:0:0:0:
329,192,113830,128,0,114072:0:0:0:0:
182,192,113951,128,0,114193:0:0:0:0:
402,192,113951,128,0,114314:0:0:0:0:
256,192,114072,128,0,114314:0:0:0:0:
109,192,114072,128,0,114314:0:0:0:0:
475,192,114193,128,0,114556:0:0:0:0:
329,192,114193,128,0,114435:0:0:0:0:
36,192,114193,128,0,114556:0:0:0:0:
182,192,114314,128,0,114556:0:0:0:0:
402,192,114435,128,0,114677:0:0:0:0:
256,192,114435,128,0,114677:0:0:0:0:
109,192,114435,128,0,114798:0:0:0:0:
329,192,114556,128,0,114798:0:0:0:0:
182,192,114677,128,0,114919:0:0:0:0:
475,192,114677,128,0,114798:0:0:0:0:
36,192,114677,128,0,115040:0:0:0:0:
402,192,114798,128,0,115645:0:0:0:0:
256,192,114798,128,0,115161:0:0:0:0:
475,192,114919,128,0,115040:0:0:0:0:
109,192,114919,128,0,115524:0:0:0:0:
329,192,114919,128,0,115040:0:0:0:0:
182,192,115040,128,0,115282:0:0:0:0:
36,192,115161,128,0,115524:0:0:0:0:
329,192,115161,128,0,115282:0:0:0:0:
475,192,115161,128,0,115282:0:0:0:0:
256,192,115282,128,0,115403:0:0:0:0:
475,192,115403,128,0,115766:0:0:0:0:
329,192,115403,128,0,115524:0:0:0:0:
182,192,115403,128,0,115766:0:0:0:0:
256,192,115524,128,0,115645:0:0:0:0:
329,192,115645,128,0,115766:0:0:0:0:
36,192,115645,128,0,116008:0:0:0:0:
109,192,115645,128,0,115887:0:0:0:0:
256,192,115766,128,0,116249:0:0:0:0:
402,192,115766,128,0,116249:0:0:0:0:
475,192,115887,128,0,116008:0:0:0:0:
329,192,115887,128,0,116008:0:0:0:0:
182,192,115887,128,0,116249:0:0:0:0:
109,192,116008,128,0,116129:0:0:0:0:
475,192,116129,128,0,116491:0:0:0:0:
329,192,116129,128,0,116370:0:0:0:0:
36,192,116129,128,0,116491:0:0:0:0:
109,192,116250,128,0,116612:0:0:0:0:
182,192,116370,128,0,116733:0:0:0:0:
256,192,116370,128,0,116733:0:0:0:0:
402,192,116370,128,0,116733:0:0:0:0:
329,192,116491,128,0,116854:0:0:0:0:
475,192,116612,128,0,116975:0:0:0:0:
36,192,116612,128,0,116975:0:0:0:0:
109,192,116733,128,0,117701:0:0:0:0:
256,192,116854,128,0,117096:0:0:0:0:
182,192,116854,128,0,117459:0:0:0:0:
402,192,116854,128,0,117459:0:0:0:0:
329,192,116975,128,0,117217:0:0:0:0:
475,192,117096,128,0,117217:0:0:0:0:
36,192,117096,128,0,117217:0:0:0:0:
256,192,117217,128,0,117338:0:0:0:0:
329,192,117338,128,0,117580:0:0:0:0:
475,192,117338,128,0,117580:0:0:0:0:
36,192,117338,128,0,117580:0:0:0:0:
256,192,117459,128,0,117701:0:0:0:0:
182,192,117580,128,0,117822:0:0:0:0:
402,192,117580,128,0,117943:0:0:0:0:
329,192,117701,128,0,118306:0:0:0:0:
36,192,117701,128,0,117943:0:0:0:0:
475,192,117701,128,0,118427:0:0:0:0:
109,192,117822,128,0,118185:0:0:0:0:
256,192,117822,128,0,117943:0:0:0:0:
182,192,117943,128,0,118306:0:0:0:0:
36,192,118064,128,0,118427:0:0:0:0:
256,192,118064,128,0,118185:0:0:0:0:
402,192,118064,128,0,118185:0:0:0:0:
256,192,118306,128,0,118427:0:0:0:0:
402,192,118306,128,0,118548:0:0:0:0:
109,192,118306,128,0,118669:0:0:0:0:
182,192,118427,128,0,118548:0:0:0:0:
329,192,118427,128,0,118548:0:0:0:0:
36,192,118548,128,0,118911:0:0:0:0:
256,192,118548,128,0,118911:0:0:0:0:
475,192,118548,128,0,118669:0:0:0:0:
329,192,118669,128,0,118790:0:0:0:0:
402,192,118669,128,0,118911:0:0:0:0:
182,192,118669,128,0,119274:0:0:0:0:
475,192,118790,128,0,119274:0:0:0:0:
109,192,118790,128,0,119395:0:0:0:0:
329,192,118911,128,0,119395:0:0:0:0:
36,192,119032,128,0,119153:0:0:0:0:
256,192,119032,128,0,119153:0:0:0:0:
402,192,119032,128,0,119153:0:0:0:0:
256,192,119274,128,0,119637:0:0:0:0:
36,192,119274,128,0,119516:0:0:0:0:
402,192,119274,128,0,119395:0:0:0:0:
475,192,119395,128,0,119516:0:0:0:0:
182,192,119395,128,0,119516:0:0:0:0:
329,192,119516,128,0,119637:0:0:0:0:
109,192,119516,128,0,119879:0:0:0:0:
402,192,119516,128,0,119879:0:0:0:0:
475,192,119637,128,0,119758:0:0:0:0:
182,192,119637,128,0,120241:0:0:0:0:
36,192,119637,128,0,120120:0:0:0:0:
329,192,119758,128,0,120241:0:0:0:0:
256,192,119758,128,0,119879:0:0:0:0:
475,192,119879,128,0,120362:0:0:0:0:
256,192,120000,1,0,0:0:0:0:0
109,192,120000,128,0,120362:0:0:0:0:
402,192,120000,1,0,0:0:0:0:0
256,192,120241,128,0,120846:0:0:0:0:
36,192,120241,128,0,120362:0:0:0:0:
402,192,120241,128,0,120483:0:0:0:0:
329,192,120362,128,0,120483:0:0:0:0:
182,192,120362,128,0,120483:0:0:0:0:
36,192,120483,128,0,120846:0:0:0:0:
109,192,120483,128,0,120604:0:0:0:0:
475,192,120483,128,0,120604:0:0:0:0:
329,192,120604,128,0,120725:0:0:0:0:
182,192,120604,128,0,121209:0:0:0:0:
402,192,120604,128,0,120846:0:0:0:0:
475,192,120725,128,0,121330:0:0:0:0:
109,192,120725,128,0,121088:0:0:0:0:
329,192,120846,128,0,121209:0:0:0:0:
36,192,120967,128,0,121330:0:0:0:0:
402,192,120967,128,0,121088:0:0:0:0:
256,192,120967,128,0,121088:0:0:0:0:
402,192,121209,128,0,121451:0:0:0:0:
256,192,121209,128,0,121330:0:0:0:0:
109,192,121209,128,0,121693:0:0:0:0:
329,192,121330,128,0,121572:0:0:0:0:
182,192,121330,128,0,121451:0:0:0:0:
36,192,121451,128,0,121814:0:0:0:0:
256,192,121451,128,0,121814:0:0:0:0:
475,192,121451,128,0,121572:0:0:0:0:
402,192,121572,128,0,121814:0:0:0:0:
182,192,121572,128,0,122177:0:0:0:0:
329,192,121693,128,0,122177:0:0:0:0:
475,192,121693,128,0,122298:0:0:0:0:
109,192,121814,128,0,122056:0:0:0:0:
36,192,121935,128,0,122298:0:0:0:0:
402,192,121935,128,0,122056:0:0:0:0:
256,192,121935,128,0,122056:0:0:0:0:
256,192,122177,128,0,122298:0:0:0:0:
109,192,122177,128,0,122540:0:0:0:0:
402,192,122177,128,0,122419:0:0:0:0:
329,192,122298,128,0,122419:0:0:0:0:
182,192,122298,128,0,122419:0:0:0:0:
475,192,122419,128,0,122540:0:0:0:0:
256,192,122419,128,0,122782:0:0:0:0:
36,192,122419,128,0,122782:0:0:0:0:
182,192,122540,128,0,123266:0:0:0:0:
329,192,122540,128,0,122661:0:0:0:0:
402,192,122540,128,0,122782:0:0:0:0:
475,192,122661,128,0,123145:0:0:0:0:
109,192,122661,128,0,123145:0:0:0:0:
329,192,122782,128,0,123266:0:0:0:0:
256,192,122903,128,0,123024:0:0:0:0:
36,192,122903,128,0,123024:0:0:0:0:
402,192,122903,128,0,123024:0:0:0:0:
256,192,123145,128,0,123266:0:0:0:0:
36,192,123145,128,0,123387:0:0:0:0:
402,192,123145,128,0,123387:0:0:0:0:
475,192,123266,128,0,123629:0:0:0:0:
109,192,123266,128,0,123387:0:0:0:0:
256,192,123387,128,0,124072:0:0:0:0:
182,192,123387,128,0,123508:0:0:0:0:
329,192,123387,128,0,123508:0:0:0:0:
36,192,123508,128,0,123749:0:0:0:0:
109,192,123508,128,0,123991:0:0:0:0:
402,192,123508,128,0,124153:0:0:0:0:
182,192,123629,128,0,123830:0:0:0:0:
329,192,123629,128,0,123911:0:0:0:0:
475,192,123748,128,0,124756:0:0:0:0:
36,192,123869,128,0,124272:0:0:0:0:
182,192,123949,128,0,124433:0:0:0:0:
329,192,124030,128,0,124594:0:0:0:0:
109,192,124111,128,0,124352:0:0:0:0:
256,192,124191,128,0,124514:0:0:0:0:
402,192,124272,128,0,124675:0:0:0:0:
36,192,124352,128,0,125723:0:0:0:0:
109,192,124433,128,0,125159:0:0:0:0:
182,192,124514,128,0,125078:0:0:0:0:
256,192,124594,128,0,124998:0:0:0:0:
329,192,124675,128,0,124917:0:0:0:0:
402,192,124756,128,0,124836:0:0:0:0:
475,192,124836,128,0,125240:0:0:0:0:
402,192,124917,128,0,125482:0:0:0:0:
329,192,124998,128,0,125320:0:0:0:0:
256,192,125078,128,0,125562:0:0:0:0:
182,192,125159,128,0,125401:0:0:0:0:
109,192,125240,128,0,125643:0:0:0:0:
475,192,125322,1,0,0:0:0:0:0
329,192,125403,1,0,0:0:0:0:0
182,192,125483,1,0,0:0:0:0:0
402,192,125564,1,0,0:0:0:0:0
256,192,125645,1,0,0:0:0:0:0
109,192,125725,1,0,0:0:0:0:0
36,192,125806,1,0,0:0:0:0:0
