osu file format v14

[General]
AudioFilename: Ten, Sen, Men, Rittai.mp3
AudioLeadIn: 0
PreviewTime: -1
Countdown: 0
SampleSet: Soft
StackLeniency: 0.7
Mode: 3
LetterboxInBreaks: 0
SpecialStyle: 0
WidescreenStoryboard: 1

[Editor]
DistanceSpacing: 1.2
BeatDivisor: 4
GridSize: 16
TimelineZoom: 1.6

[Metadata]
Title:Ten, Sen, Men, Rittai
TitleUnicode:點、線、面、立體
Artist:sound piercer
ArtistUnicode:sound piercer
Creator:c36098651
Version:7K LV.01
Source:BMS
Tags:
BeatmapID:759051
BeatmapSetID:343569

[Difficulty]
HPDrainRate:8
CircleSize:7
OverallDifficulty:0
ApproachRate:5
SliderMultiplier:1.4
SliderTickRate:1

[Events]
//Background and Video events
0,0,"_title.jpg",0,0
//Break Periods
//Storyboard Layer 0 (Background)
//Storyboard Layer 1 (Fail)
//Storyboard Layer 2 (Pass)
//Storyboard Layer 3 (Foreground)
//Storyboard Sound Samples

[TimingPoints]
1935,483.870967741935,4,2,0,0,1,0
16934,10000000,4,2,0,0,1,0
17176,483.870967741935,4,2,0,0,1,0
17902,10000000,4,2,0,0,1,0
18144,483.870967741935,4,2,0,0,1,0
18870,10000000,4,2,0,0,1,0
19112,483.870967741935,4,2,0,0,1,0
19838,10000000,4,2,0,0,1,0
20080,483.870967741935,4,2,0,0,1,0
20805,10000000,4,2,0,0,1,0
21047,483.870967741935,4,2,0,0,1,0
24676,10000000,4,2,0,0,1,0
24918,483.870967741935,4,2,0,0,1,0
31934,10000000,4,2,0,0,1,0
32781,483.870967741935,4,2,0,0,1,0
33385,483.870967741935,4,2,0,0,1,0
44031,10000000,4,2,0,0,1,0
44273,483.870967741935,4,2,0,0,1,0
44514,483.870967741935,4,2,0,0,1,0
77418,10000000,4,2,0,0,1,0
78386,483.870967741935,4,2,0,0,1,0
79353,483.870967741935,4,2,0,0,1,0

[HitObjects]
36,192,1935,5,0,0:0:0:0:s1.wav
329,192,1935,1,0,0:0:0:0:n2p_1.wav
475,192,1935,1,0,0:0:0:0:x1.wav
182,192,2056,1,0,0:0:0:0:x2.wav
36,192,2177,1,0,0:0:0:0:imp4.wav
256,192,2177,1,0,0:0:0:0:s2.wav
475,192,2177,1,0,0:0:0:0:x3.wav
182,192,2298,1,0,0:0:0:0:s3.wav
109,192,2419,1,0,0:0:0:0:x5.wav
256,192,2419,1,0,0:0:0:0:s4.wav
402,192,2419,1,0,0:0:0:0:n2p_3.wav
36,192,2540,1,0,0:0:0:0:s5.wav
256,192,2661,1,0,0:0:0:0:s6.wav
109,192,2782,1,0,0:0:0:0:s7.wav
329,192,2782,1,0,0:0:0:0:n2p_5.wav
402,192,2782,1,0,0:0:0:0:x8.wav
182,192,2903,1,0,0:0:0:0:n2p_6.wav
475,192,2903,1,0,0:0:0:0:s9.wav
256,192,3024,1,0,0:0:0:0:x10.wav
36,192,3145,1,0,0:0:0:0:n2p_7.wav
182,192,3145,1,0,0:0:0:0:s2.wav
475,192,3145,1,0,0:0:0:0:x11.wav
402,192,3266,1,0,0:0:0:0:s3.wav
109,192,3387,1,0,0:0:0:0:n2p_8.wav
256,192,3387,1,0,0:0:0:0:s4.wav
475,192,3387,1,0,0:0:0:0:x13.wav
402,192,3508,1,0,0:0:0:0:s5.wav
36,192,3629,1,0,0:0:0:0:n2p_9.wav
182,192,3629,1,0,0:0:0:0:s6.wav
256,192,3629,1,0,0:0:0:0:x15.wav
329,192,3750,1,0,0:0:0:0:s7.wav
36,192,3870,1,0,0:0:0:0:s9.wav
256,192,3870,1,0,0:0:0:0:x17.wav
475,192,3870,1,0,0:0:0:0:n2p_10.wav
182,192,3991,1,0,0:0:0:0:n2p_11.wav
109,192,4112,1,0,0:0:0:0:n2p_12.wav
329,192,4112,1,0,0:0:0:0:s2.wav
475,192,4112,1,0,0:0:0:0:x19.wav
182,192,4233,1,0,0:0:0:0:s3.wav
36,192,4354,1,0,0:0:0:0:x21.wav
256,192,4354,1,0,0:0:0:0:s4.wav
402,192,4354,1,0,0:0:0:0:n2p_13.wav
109,192,4475,1,0,0:0:0:0:s5.wav
182,192,4596,1,0,0:0:0:0:n2p_14.wav
256,192,4596,1,0,0:0:0:0:s6.wav
475,192,4596,1,0,0:0:0:0:x23.wav
109,192,4717,1,0,0:0:0:0:s7.wav
329,192,4717,1,0,0:0:0:0:n2p_15.wav
36,192,4838,1,0,0:0:0:0:x25.wav
182,192,4838,1,0,0:0:0:0:n2p_16.wav
475,192,4838,1,0,0:0:0:0:s9.wav
109,192,4959,1,0,0:0:0:0:x26.wav
36,192,5080,1,0,0:0:0:0:x27.wav
256,192,5080,1,0,0:0:0:0:s2.wav
329,192,5080,1,0,0:0:0:0:n2p_17.wav
402,192,5201,1,0,0:0:0:0:s3.wav
109,192,5322,1,0,0:0:0:0:s8.wav
256,192,5322,1,0,0:0:0:0:x29.wav
475,192,5322,1,0,0:0:0:0:n2p_18.wav
36,192,5806,1,0,0:0:0:0:s1.wav
329,192,5806,1,0,0:0:0:0:n2p_1.wav
475,192,5806,1,0,0:0:0:0:x1.wav
182,192,5927,1,0,0:0:0:0:x2.wav
109,192,6048,1,0,0:0:0:0:x3.wav
329,192,6048,1,0,0:0:0:0:s2.wav
402,192,6048,1,0,0:0:0:0:n2p_2.wav
182,192,6169,1,0,0:0:0:0:s3.wav
36,192,6290,1,0,0:0:0:0:x5.wav
256,192,6290,1,0,0:0:0:0:s4.wav
402,192,6290,1,0,0:0:0:0:n2p_3.wav
109,192,6411,1,0,0:0:0:0:s5.wav
182,192,6532,1,0,0:0:0:0:x7.wav
256,192,6532,1,0,0:0:0:0:s6.wav
475,192,6532,1,0,0:0:0:0:n2p_4.wav
109,192,6653,1,0,0:0:0:0:s7.wav
329,192,6653,1,0,0:0:0:0:n2p_5.wav
36,192,6774,1,0,0:0:0:0:x9.wav
182,192,6774,1,0,0:0:0:0:s9.wav
475,192,6774,1,0,0:0:0:0:n2p_6.wav
256,192,6895,1,0,0:0:0:0:x10.wav
36,192,7016,1,0,0:0:0:0:n2p_7.wav
182,192,7016,1,0,0:0:0:0:s2.wav
329,192,7016,1,0,0:0:0:0:x11.wav
402,192,7137,1,0,0:0:0:0:s3.wav
109,192,7258,1,0,0:0:0:0:n2p_8.wav
256,192,7258,1,0,0:0:0:0:s4.wav
475,192,7258,1,0,0:0:0:0:x13.wav
402,192,7379,1,0,0:0:0:0:s5.wav
36,192,7500,1,0,0:0:0:0:x15.wav
182,192,7500,1,0,0:0:0:0:s6.wav
256,192,7500,1,0,0:0:0:0:n2p_9.wav
329,192,7620,1,0,0:0:0:0:s7.wav
36,192,7741,1,0,0:0:0:0:s9.wav
256,192,7741,1,0,0:0:0:0:x17.wav
475,192,7741,1,0,0:0:0:0:n2p_10.wav
109,192,7862,1,0,0:0:0:0:n2p_11.wav
182,192,7983,1,0,0:0:0:0:x19.wav
329,192,7983,1,0,0:0:0:0:s2.wav
475,192,7983,1,0,0:0:0:0:n2p_12.wav
109,192,8104,1,0,0:0:0:0:s3.wav
36,192,8225,1,0,0:0:0:0:x21.wav
256,192,8225,1,0,0:0:0:0:s4.wav
402,192,8225,1,0,0:0:0:0:n2p_13.wav
109,192,8346,1,0,0:0:0:0:s5.wav
256,192,8467,1,0,0:0:0:0:s6.wav
402,192,8467,1,0,0:0:0:0:n2p_14.wav
475,192,8467,1,0,0:0:0:0:x23.wav
109,192,8588,1,0,0:0:0:0:s7.wav
329,192,8588,1,0,0:0:0:0:n2p_15.wav
36,192,8709,1,0,0:0:0:0:x25.wav
182,192,8709,1,0,0:0:0:0:n2p_16.wav
475,192,8709,1,0,0:0:0:0:s9.wav
329,192,8830,1,0,0:0:0:0:x26.wav
109,192,8951,1,0,0:0:0:0:s2.wav
182,192,8951,1,0,0:0:0:0:n2p_17.wav
475,192,8951,1,0,0:0:0:0:x27.wav
256,192,9072,1,0,0:0:0:0:s3.wav
36,192,9193,1,0,0:0:0:0:n2p_18.wav
182,192,9193,1,0,0:0:0:0:x29.wav
475,192,9193,1,0,0:0:0:0:s8.wav
36,192,9677,1,0,0:0:0:0:n2p_1.wav
182,192,9677,1,0,0:0:0:0:x1.wav
475,192,9677,1,0,0:0:0:0:ticktock_1.wav
329,192,9798,1,0,0:0:0:0:x2.wav
36,192,9919,1,0,0:0:0:0:s2.wav
182,192,9919,1,0,0:0:0:0:x3.wav
402,192,9919,1,0,0:0:0:0:perc_2.wav
329,192,10040,1,0,0:0:0:0:x4.wav
109,192,10161,1,0,0:0:0:0:x5.wav
402,192,10161,1,0,0:0:0:0:n2p_3.wav
475,192,10161,1,0,0:0:0:0:perc_1.wav
256,192,10282,1,0,0:0:0:0:x6.wav
36,192,10403,1,0,0:0:0:0:x7.wav
182,192,10403,1,0,0:0:0:0:s6.wav
329,192,10403,1,0,0:0:0:0:perc_2.wav
256,192,10524,1,0,0:0:0:0:n2p_5.wav
402,192,10524,1,0,0:0:0:0:x8.wav
36,192,10645,1,0,0:0:0:0:n2p_6.wav
182,192,10645,1,0,0:0:0:0:x9.wav
475,192,10645,1,0,0:0:0:0:ticktock_1.wav
329,192,10766,1,0,0:0:0:0:x10.wav
109,192,10887,1,0,0:0:0:0:s2.wav
256,192,10887,1,0,0:0:0:0:x11.wav
402,192,10887,1,0,0:0:0:0:perc_2.wav
475,192,11008,1,0,0:0:0:0:x12.wav
36,192,11129,1,0,0:0:0:0:x13.wav
182,192,11129,1,0,0:0:0:0:perc_1.wav
329,192,11129,1,0,0:0:0:0:n2p_8.wav
109,192,11250,1,0,0:0:0:0:x14.wav
182,192,11370,1,0,0:0:0:0:s6.wav
256,192,11370,1,0,0:0:0:0:x15.wav
475,192,11370,1,0,0:0:0:0:perc_2.wav
402,192,11491,1,0,0:0:0:0:x16.wav
36,192,11612,1,0,0:0:0:0:n2p_10.wav
182,192,11612,1,0,0:0:0:0:x17.wav
475,192,11612,1,0,0:0:0:0:ticktock_2.wav
329,192,11733,1,0,0:0:0:0:x18.wav
109,192,11854,1,0,0:0:0:0:s2.wav
182,192,11854,1,0,0:0:0:0:x19.wav
475,192,11854,1,0,0:0:0:0:perc_2.wav
329,192,11975,1,0,0:0:0:0:x20.wav
36,192,12096,1,0,0:0:0:0:x21.wav
182,192,12096,1,0,0:0:0:0:perc_1.wav
402,192,12096,1,0,0:0:0:0:n2p_13.wav
256,192,12217,1,0,0:0:0:0:x22.wav
109,192,12338,1,0,0:0:0:0:x23.wav
329,192,12338,1,0,0:0:0:0:s6.wav
475,192,12338,1,0,0:0:0:0:perc_2.wav
256,192,12459,1,0,0:0:0:0:n2p_15.wav
402,192,12459,1,0,0:0:0:0:x24.wav
36,192,12580,1,0,0:0:0:0:n2p_16.wav
182,192,12580,1,0,0:0:0:0:x25.wav
475,192,12580,1,0,0:0:0:0:perc_1.wav
329,192,12701,1,0,0:0:0:0:x26.wav
109,192,12822,1,0,0:0:0:0:perc_2.wav
182,192,12822,1,0,0:0:0:0:x27.wav
402,192,12822,1,0,0:0:0:0:s2.wav
475,192,12943,1,0,0:0:0:0:x28.wav
36,192,13064,1,0,0:0:0:0:perc_1.wav
109,192,13064,1,0,0:0:0:0:n2p_18.wav
256,192,13064,1,0,0:0:0:0:x29.wav
36,192,13548,1,0,0:0:0:0:n2p_1.wav
182,192,13548,1,0,0:0:0:0:x1.wav
475,192,13548,1,0,0:0:0:0:ticktock_1.wav
329,192,13669,1,0,0:0:0:0:x2.wav
109,192,13790,1,0,0:0:0:0:s2.wav
182,192,13790,1,0,0:0:0:0:x3.wav
402,192,13790,1,0,0:0:0:0:perc_2.wav
329,192,13911,1,0,0:0:0:0:x4.wav
109,192,14032,1,0,0:0:0:0:x5.wav
402,192,14032,1,0,0:0:0:0:n2p_3.wav
475,192,14032,1,0,0:0:0:0:perc_1.wav
256,192,14153,1,0,0:0:0:0:x6.wav
109,192,14274,1,0,0:0:0:0:x7.wav
329,192,14274,1,0,0:0:0:0:perc_2.wav
475,192,14274,1,0,0:0:0:0:s6.wav
256,192,14395,1,0,0:0:0:0:n2p_5.wav
402,192,14395,1,0,0:0:0:0:x8.wav
36,192,14516,1,0,0:0:0:0:n2p_6.wav
182,192,14516,1,0,0:0:0:0:x9.wav
475,192,14516,1,0,0:0:0:0:ticktock_1.wav
329,192,14637,1,0,0:0:0:0:x10.wav
182,192,14758,1,0,0:0:0:0:x11.wav
256,192,14758,1,0,0:0:0:0:perc_2.wav
402,192,14758,1,0,0:0:0:0:s2.wav
475,192,14879,1,0,0:0:0:0:x12.wav
36,192,15000,1,0,0:0:0:0:x13.wav
109,192,15000,1,0,0:0:0:0:perc_1.wav
329,192,15000,1,0,0:0:0:0:n2p_8.wav
182,192,15120,1,0,0:0:0:0:x14.wav
109,192,15241,1,0,0:0:0:0:perc_2.wav
256,192,15241,1,0,0:0:0:0:x15.wav
475,192,15241,1,0,0:0:0:0:s6.wav
402,192,15362,1,0,0:0:0:0:x16.wav
36,192,15483,1,0,0:0:0:0:n2p_10.wav
182,192,15483,1,0,0:0:0:0:x17.wav
475,192,15483,1,0,0:0:0:0:ticktock_2.wav
329,192,15604,1,0,0:0:0:0:x18.wav
182,192,15725,1,0,0:0:0:0:x19.wav
402,192,15725,1,0,0:0:0:0:perc_2.wav
475,192,15725,1,0,0:0:0:0:s2.wav
329,192,15846,1,0,0:0:0:0:x20.wav
36,192,15967,1,0,0:0:0:0:perc_1.wav
109,192,15967,1,0,0:0:0:0:x21.wav
402,192,15967,1,0,0:0:0:0:n2p_13.wav
256,192,16088,1,0,0:0:0:0:x22.wav
109,192,16209,1,0,0:0:0:0:x23.wav
329,192,16209,1,0,0:0:0:0:s6.wav
475,192,16209,1,0,0:0:0:0:perc_2.wav
256,192,16330,1,0,0:0:0:0:n2p_14.wav
402,192,16330,1,0,0:0:0:0:x24.wav
36,192,16451,1,0,0:0:0:0:perc_1.wav
182,192,16451,1,0,0:0:0:0:x25.wav
475,192,16451,1,0,0:0:0:0:n2p_16.wav
329,192,16572,1,0,0:0:0:0:x26.wav
109,192,16693,1,0,0:0:0:0:x27.wav
182,192,16693,1,0,0:0:0:0:s2.wav
402,192,16693,1,0,0:0:0:0:perc_2.wav
256,192,16814,1,0,0:0:0:0:x28.wav
36,192,16935,1,0,0:0:0:0:s8.wav
182,192,16935,1,0,0:0:0:0:perc_1.wav
329,192,16935,1,0,0:0:0:0:x29.wav
475,192,16935,1,0,0:0:0:0:n2p_18.wav
36,192,17419,1,0,0:0:0:0:b1.wav
329,192,17419,1,0,0:0:0:0:kick.wav
475,192,17419,1,0,0:0:0:0:rhode_1.wav
36,192,17782,1,0,0:0:0:0:b2.wav
182,192,17903,1,0,0:0:0:0:clap.wav
475,192,17903,1,0,0:0:0:0:put_this_sound_for_fun.wav
36,192,18387,1,0,0:0:0:0:b1.wav
329,192,18387,1,0,0:0:0:0:kick.wav
475,192,18387,1,0,0:0:0:0:rhode_2.wav
36,192,18749,1,0,0:0:0:0:b2.wav
182,192,18870,1,0,0:0:0:0:clap.wav
475,192,18870,1,0,0:0:0:0:put_this_sound_for_fun.wav
36,192,19354,1,0,0:0:0:0:b1.wav
329,192,19354,1,0,0:0:0:0:kick.wav
475,192,19354,1,0,0:0:0:0:rhode_3.wav
36,192,19717,1,0,0:0:0:0:b2.wav
182,192,19838,1,0,0:0:0:0:clap.wav
475,192,19838,1,0,0:0:0:0:put_this_sound_for_fun.wav
36,192,20322,1,0,0:0:0:0:b1.wav
329,192,20322,1,0,0:0:0:0:kick.wav
475,192,20322,1,0,0:0:0:0:rhode_4.wav
36,192,20685,1,0,0:0:0:0:b2.wav
182,192,20806,1,0,0:0:0:0:clap.wav
402,192,20806,1,0,0:0:0:0:rhode_5.wav
36,192,21290,1,0,0:0:0:0:kick.wav
182,192,21290,1,0,0:0:0:0:b1.wav
402,192,21290,1,0,0:0:0:0:rhode_1.wav
475,192,21290,1,0,0:0:0:0:perc_1.wav
475,192,21532,1,0,0:0:0:0:perc_2.wav
109,192,21653,1,0,0:0:0:0:b2.wav
256,192,21774,1,0,0:0:0:0:clap.wav
475,192,21774,1,0,0:0:0:0:perc_1.wav
475,192,22016,1,0,0:0:0:0:perc_2.wav
36,192,22258,1,0,0:0:0:0:kick.wav
182,192,22258,1,0,0:0:0:0:b1.wav
402,192,22258,1,0,0:0:0:0:rhode_2.wav
475,192,22258,1,0,0:0:0:0:perc_1.wav
475,192,22499,1,0,0:0:0:0:perc_2.wav
109,192,22620,1,0,0:0:0:0:b2.wav
256,192,22741,1,0,0:0:0:0:clap.wav
475,192,22741,1,0,0:0:0:0:perc_1.wav
475,192,22983,1,0,0:0:0:0:perc_2.wav
36,192,23225,1,0,0:0:0:0:kick.wav
182,192,23225,1,0,0:0:0:0:b1.wav
402,192,23225,1,0,0:0:0:0:rhode_3.wav
475,192,23225,1,0,0:0:0:0:perc_1.wav
475,192,23467,1,0,0:0:0:0:perc_2.wav
109,192,23588,1,0,0:0:0:0:b2.wav
256,192,23709,1,0,0:0:0:0:clap.wav
475,192,23709,1,0,0:0:0:0:perc_1.wav
475,192,23951,1,0,0:0:0:0:perc_2.wav
36,192,24193,1,0,0:0:0:0:kick.wav
182,192,24193,1,0,0:0:0:0:b1.wav
402,192,24193,1,0,0:0:0:0:rhode_4.wav
475,192,24193,1,0,0:0:0:0:perc_1.wav
109,192,24556,1,0,0:0:0:0:b2.wav
182,192,24677,1,0,0:0:0:0:rhode_5.wav
475,192,24677,1,0,0:0:0:0:pluck1_2.wav
36,192,25161,1,0,0:0:0:0:perc_1.wav
256,192,25161,1,0,0:0:0:0:b1.wav
402,192,25161,1,0,0:0:0:0:kick.wav
109,192,25403,1,0,0:0:0:0:perc_2.wav
329,192,25524,1,0,0:0:0:0:b2.wav
182,192,25645,1,0,0:0:0:0:perc_1.wav
475,192,25645,1,0,0:0:0:0:clap.wav
109,192,25887,1,0,0:0:0:0:perc_2.wav
36,192,26129,1,0,0:0:0:0:perc_1.wav
256,192,26129,1,0,0:0:0:0:b1.wav
402,192,26129,1,0,0:0:0:0:kick.wav
109,192,26370,1,0,0:0:0:0:perc_2.wav
329,192,26491,1,0,0:0:0:0:b2.wav
182,192,26612,1,0,0:0:0:0:perc_1.wav
475,192,26612,1,0,0:0:0:0:clap.wav
109,192,26854,1,0,0:0:0:0:perc_2.wav
36,192,27096,1,0,0:0:0:0:perc_1.wav
256,192,27096,1,0,0:0:0:0:b1.wav
402,192,27096,1,0,0:0:0:0:kick.wav
109,192,27338,1,0,0:0:0:0:perc_2.wav
329,192,27459,1,0,0:0:0:0:b2.wav
182,192,27580,1,0,0:0:0:0:perc_1.wav
475,192,27580,1,0,0:0:0:0:clap.wav
109,192,27822,1,0,0:0:0:0:perc_2.wav
36,192,28064,1,0,0:0:0:0:perc_1.wav
256,192,28064,1,0,0:0:0:0:b1.wav
402,192,28064,1,0,0:0:0:0:kick.wav
109,192,28306,1,0,0:0:0:0:perc_2.wav
329,192,28427,1,0,0:0:0:0:b2.wav
182,192,28548,1,0,0:0:0:0:perc_1.wav
256,192,28548,1,0,0:0:0:0:rhode_5.wav
475,192,28548,1,0,0:0:0:0:clap.wav
109,192,28790,1,0,0:0:0:0:perc_2.wav
36,192,29032,1,0,0:0:0:0:perc_1.wav
256,192,29032,1,0,0:0:0:0:b1.wav
402,192,29032,1,0,0:0:0:0:kick.wav
109,192,29274,1,0,0:0:0:0:perc_2.wav
329,192,29395,1,0,0:0:0:0:b2.wav
182,192,29516,1,0,0:0:0:0:perc_1.wav
475,192,29516,1,0,0:0:0:0:clap.wav
109,192,29758,1,0,0:0:0:0:perc_2.wav
36,192,29999,1,0,0:0:0:0:perc_1.wav
256,192,29999,1,0,0:0:0:0:b1.wav
402,192,29999,1,0,0:0:0:0:kick.wav
109,192,30241,1,0,0:0:0:0:perc_2.wav
329,192,30362,1,0,0:0:0:0:b2.wav
182,192,30483,1,0,0:0:0:0:perc_1.wav
475,192,30483,1,0,0:0:0:0:clap.wav
109,192,30725,1,0,0:0:0:0:perc_2.wav
475,192,30967,1,0,0:0:0:0:housefill_1.wav
329,192,31088,1,0,0:0:0:0:put_this_sound_for_fun.wav
182,192,31209,1,0,0:0:0:0:perc_2.wav
109,192,31330,1,0,0:0:0:0:put_this_sound_for_fun.wav
402,192,31451,1,0,0:0:0:0:housefill_2.wav
256,192,31572,1,0,0:0:0:0:put_this_sound_for_fun.wav
182,192,31693,1,0,0:0:0:0:perc_2.wav
36,192,31814,1,0,0:0:0:0:put_this_sound_for_fun.wav
36,192,33387,1,0,0:0:0:0:kick.wav
256,192,33387,1,0,0:0:0:0:pk3.wav
329,192,33387,1,0,0:0:0:0:perc_1.wav
475,192,33387,1,0,0:0:0:0:clap.wav
182,192,33508,1,0,0:0:0:0:bass_g4.wav
109,192,33629,1,0,0:0:0:0:perc_2.wav
329,192,33629,1,0,0:0:0:0:bass_g4.wav
182,192,33749,1,0,0:0:0:0:bass_g4.wav
36,192,33870,1,0,0:0:0:0:kick.wav
402,192,33870,1,0,0:0:0:0:rhode_2.wav
475,192,33870,1,0,0:0:0:0:perc_1.wav
256,192,33991,1,0,0:0:0:0:bass_g4.wav
109,192,34112,1,0,0:0:0:0:bass_g4.wav
329,192,34112,1,0,0:0:0:0:perc_2.wav
256,192,34233,1,0,0:0:0:0:bass_g4.wav
36,192,34354,1,0,0:0:0:0:kick.wav
182,192,34354,1,0,0:0:0:0:perc_1.wav
475,192,34354,1,0,0:0:0:0:clap.wav
256,192,34475,1,0,0:0:0:0:bass_g4.wav
109,192,34596,1,0,0:0:0:0:perc_2.wav
402,192,34596,1,0,0:0:0:0:bass_g4.wav
256,192,34717,1,0,0:0:0:0:bass_g5.wav
36,192,34838,1,0,0:0:0:0:kick.wav
182,192,34838,1,0,0:0:0:0:bass_g4.wav
402,192,34838,1,0,0:0:0:0:perc_1.wav
475,192,34838,1,0,0:0:0:0:rhode_3.wav
329,192,34959,1,0,0:0:0:0:bass_g4.wav
109,192,35080,1,0,0:0:0:0:perc_2.wav
182,192,35080,1,0,0:0:0:0:bass_g4.wav
329,192,35201,1,0,0:0:0:0:bass_g4.wav
36,192,35322,1,0,0:0:0:0:kick.wav
256,192,35322,1,0,0:0:0:0:perc_1.wav
475,192,35322,1,0,0:0:0:0:pk3.wav
182,192,35443,1,0,0:0:0:0:bass_g4.wav
329,192,35564,1,0,0:0:0:0:bass_g4.wav
475,192,35564,1,0,0:0:0:0:perc_2.wav
182,192,35685,1,0,0:0:0:0:bass_g4.wav
36,192,35806,1,0,0:0:0:0:kick.wav
329,192,35806,1,0,0:0:0:0:perc_1.wav
402,192,35806,1,0,0:0:0:0:rhode_4.wav
256,192,35927,1,0,0:0:0:0:bass_g4.wav
109,192,36048,1,0,0:0:0:0:bass_g4.wav
475,192,36048,1,0,0:0:0:0:perc_2.wav
256,192,36169,1,0,0:0:0:0:bass_g4.wav
36,192,36290,1,0,0:0:0:0:kick.wav
182,192,36290,1,0,0:0:0:0:rhode_5.wav
329,192,36290,1,0,0:0:0:0:perc_1.wav
475,192,36290,1,0,0:0:0:0:clap.wav
256,192,36411,1,0,0:0:0:0:bass_g4.wav
109,192,36532,1,0,0:0:0:0:perc_2.wav
402,192,36532,1,0,0:0:0:0:bass_g4.wav
256,192,36653,1,0,0:0:0:0:bass_g5.wav
36,192,36774,1,0,0:0:0:0:kick.wav
182,192,36774,1,0,0:0:0:0:bass_g4.wav
402,192,36774,1,0,0:0:0:0:perc_1.wav
475,192,36774,1,0,0:0:0:0:rhode_1.wav
329,192,36895,1,0,0:0:0:0:bass_g4.wav
109,192,37016,1,0,0:0:0:0:perc_2.wav
182,192,37016,1,0,0:0:0:0:bass_g4.wav
329,192,37137,1,0,0:0:0:0:bass_g4.wav
36,192,37258,1,0,0:0:0:0:kick.wav
256,192,37258,1,0,0:0:0:0:perc_1.wav
475,192,37258,1,0,0:0:0:0:clap.wav
182,192,37379,1,0,0:0:0:0:bass_g4.wav
329,192,37499,1,0,0:0:0:0:bass_g4.wav
475,192,37499,1,0,0:0:0:0:perc_2.wav
182,192,37620,1,0,0:0:0:0:bass_g4.wav
36,192,37741,1,0,0:0:0:0:kick.wav
109,192,37741,1,0,0:0:0:0:perc_1.wav
402,192,37741,1,0,0:0:0:0:rhode_2.wav
256,192,37862,1,0,0:0:0:0:bass_g4.wav
109,192,37983,1,0,0:0:0:0:bass_g4.wav
475,192,37983,1,0,0:0:0:0:perc_2.wav
256,192,38104,1,0,0:0:0:0:bass_g4.wav
36,192,38225,1,0,0:0:0:0:kick.wav
182,192,38225,1,0,0:0:0:0:pk3.wav
329,192,38225,1,0,0:0:0:0:perc_1.wav
475,192,38225,1,0,0:0:0:0:clap.wav
256,192,38346,1,0,0:0:0:0:bass_g4.wav
109,192,38467,1,0,0:0:0:0:perc_2.wav
402,192,38467,1,0,0:0:0:0:bass_g4.wav
256,192,38588,1,0,0:0:0:0:bass_g5.wav
36,192,38709,1,0,0:0:0:0:kick.wav
182,192,38709,1,0,0:0:0:0:bass_g4.wav
402,192,38709,1,0,0:0:0:0:perc_1.wav
475,192,38709,1,0,0:0:0:0:rhode_3.wav
329,192,38830,1,0,0:0:0:0:bass_g4.wav
182,192,38951,1,0,0:0:0:0:bass_g4.wav
475,192,38951,1,0,0:0:0:0:perc_2.wav
329,192,39072,1,0,0:0:0:0:bass_g4.wav
36,192,39193,1,0,0:0:0:0:kick.wav
256,192,39193,1,0,0:0:0:0:perc_1.wav
475,192,39193,1,0,0:0:0:0:clap.wav
182,192,39314,1,0,0:0:0:0:bass_g4.wav
109,192,39435,1,0,0:0:0:0:perc_2.wav
329,192,39435,1,0,0:0:0:0:bass_g4.wav
182,192,39556,1,0,0:0:0:0:bass_g4.wav
36,192,39677,1,0,0:0:0:0:kick.wav
402,192,39677,1,0,0:0:0:0:rhode_4.wav
475,192,39677,1,0,0:0:0:0:perc_1.wav
256,192,39798,1,0,0:0:0:0:bass_g4.wav
109,192,39919,1,0,0:0:0:0:bass_g4.wav
329,192,39919,1,0,0:0:0:0:perc_2.wav
256,192,40040,1,0,0:0:0:0:bass_g4.wav
36,192,40161,1,0,0:0:0:0:kick.wav
182,192,40161,1,0,0:0:0:0:pk3.wav
329,192,40161,1,0,0:0:0:0:clap.wav
475,192,40161,1,0,0:0:0:0:pluck1_2.wav
36,192,40645,1,0,0:0:0:0:kick.wav
256,192,40645,1,0,0:0:0:0:bass_g4.wav
402,192,40645,1,0,0:0:0:0:rhode_1.wav
475,192,40645,1,0,0:0:0:0:perc_1.wav
182,192,40766,1,0,0:0:0:0:bass_g4.wav
329,192,40766,1,0,0:0:0:0:x2.wav
109,192,40887,1,0,0:0:0:0:lineperc_2.wav
256,192,40887,1,0,0:0:0:0:perc_2.wav
402,192,40887,1,0,0:0:0:0:bass_g4.wav
36,192,41008,1,0,0:0:0:0:bass_g4.wav
329,192,41008,1,0,0:0:0:0:x4.wav
109,192,41129,1,0,0:0:0:0:perc_1.wav
256,192,41129,1,0,0:0:0:0:kick.wav
475,192,41129,1,0,0:0:0:0:clap.wav
36,192,41249,1,0,0:0:0:0:bass_g4.wav
402,192,41249,1,0,0:0:0:0:x6.wav
182,192,41370,1,0,0:0:0:0:bass_g4.wav
329,192,41370,1,0,0:0:0:0:perc_2.wav
475,192,41370,1,0,0:0:0:0:lineperc_4.wav
36,192,41491,1,0,0:0:0:0:bass_g4.wav
256,192,41491,1,0,0:0:0:0:x8.wav
182,192,41612,1,0,0:0:0:0:perc_1.wav
329,192,41612,1,0,0:0:0:0:kick.wav
475,192,41612,1,0,0:0:0:0:rhode_2.wav
109,192,41733,1,0,0:0:0:0:bass_g4.wav
402,192,41733,1,0,0:0:0:0:x10.wav
36,192,41854,1,0,0:0:0:0:lineperc_6.wav
256,192,41854,1,0,0:0:0:0:bass_g4.wav
475,192,41854,1,0,0:0:0:0:perc_2.wav
109,192,41975,1,0,0:0:0:0:bass_g4.wav
329,192,41975,1,0,0:0:0:0:lineperc_7.wav
36,192,42580,1,0,0:0:0:0:bass_g4.wav
109,192,42580,1,0,0:0:0:0:perc_1.wav
329,192,42580,1,0,0:0:0:0:kick.wav
475,192,42580,1,0,0:0:0:0:rhode_3.wav
182,192,42701,1,0,0:0:0:0:bass_g4.wav
402,192,42701,1,0,0:0:0:0:x18.wav
109,192,42822,1,0,0:0:0:0:perc_2.wav
329,192,42822,1,0,0:0:0:0:bass_g4.wav
475,192,42822,1,0,0:0:0:0:lineperc_2.wav
36,192,42943,1,0,0:0:0:0:x20.wav
256,192,42943,1,0,0:0:0:0:bass_g4.wav
109,192,43064,1,0,0:0:0:0:clap.wav
329,192,43064,1,0,0:0:0:0:perc_1.wav
475,192,43064,1,0,0:0:0:0:kick.wav
182,192,43185,1,0,0:0:0:0:x22.wav
256,192,43185,1,0,0:0:0:0:bass_g4.wav
109,192,43306,1,0,0:0:0:0:perc_2.wav
329,192,43306,1,0,0:0:0:0:lineperc_4.wav
402,192,43306,1,0,0:0:0:0:bass_g4.wav
36,192,43427,1,0,0:0:0:0:bass_g4.wav
256,192,43427,1,0,0:0:0:0:x24.wav
109,192,43548,1,0,0:0:0:0:perc_1.wav
329,192,43548,1,0,0:0:0:0:kick.wav
475,192,43548,1,0,0:0:0:0:rhode_4.wav
182,192,43669,1,0,0:0:0:0:bass_g4.wav
402,192,43669,1,0,0:0:0:0:x26.wav
36,192,43790,1,0,0:0:0:0:lineperc_6.wav
329,192,43790,1,0,0:0:0:0:bass_g4.wav
475,192,43790,1,0,0:0:0:0:perc_2.wav
182,192,43911,1,0,0:0:0:0:bass_g4.wav
402,192,43911,1,0,0:0:0:0:lineperc_7.wav
36,192,44032,1,0,0:0:0:0:rhode_5.wav
256,192,44032,1,0,0:0:0:0:x29.wav
329,192,44032,1,0,0:0:0:0:pk3.wav
36,192,44516,1,0,0:0:0:0:kick.wav
182,192,44516,1,0,0:0:0:0:smp_right.wav
329,192,44516,1,0,0:0:0:0:perc_1.wav
475,192,44516,1,0,0:0:0:0:dst1.wav
109,192,44637,1,0,0:0:0:0:x2.wav
402,192,44637,1,0,0:0:0:0:bass_g4.wav
182,192,44758,1,0,0:0:0:0:lineperc_2.wav
329,192,44758,1,0,0:0:0:0:bass_g4.wav
475,192,44758,1,0,0:0:0:0:perc_2.wav
109,192,44879,1,0,0:0:0:0:bass_g4.wav
402,192,44879,1,0,0:0:0:0:x4.wav
36,192,44999,1,0,0:0:0:0:kick.wav
256,192,44999,1,0,0:0:0:0:clap.wav
475,192,44999,1,0,0:0:0:0:dst2.wav
109,192,45120,1,0,0:0:0:0:x6.wav
402,192,45120,1,0,0:0:0:0:dst3.wav
36,192,45241,1,0,0:0:0:0:x7.wav
182,192,45241,1,0,0:0:0:0:lineperc_4.wav
329,192,45241,1,0,0:0:0:0:perc_2.wav
256,192,45362,1,0,0:0:0:0:x8.wav
402,192,45362,1,0,0:0:0:0:dst4.wav
109,192,45483,1,0,0:0:0:0:rhode_2.wav
329,192,45483,1,0,0:0:0:0:x9.wav
475,192,45483,1,0,0:0:0:0:dst5.wav
182,192,45604,1,0,0:0:0:0:d12.wav
36,192,45725,1,0,0:0:0:0:x11.wav
256,192,45725,1,0,0:0:0:0:dst6.wav
402,192,45725,1,0,0:0:0:0:d13.wav
329,192,45846,1,0,0:0:0:0:d14.wav
36,192,45967,1,0,0:0:0:0:smp_right.wav
256,192,45967,1,0,0:0:0:0:kick.wav
475,192,45967,1,0,0:0:0:0:clap.wav
182,192,46088,1,0,0:0:0:0:d16.wav
109,192,46209,1,0,0:0:0:0:perc_2.wav
329,192,46209,1,0,0:0:0:0:d17.wav
475,192,46209,1,0,0:0:0:0:lineperc_4.wav
402,192,46330,1,0,0:0:0:0:d18.wav
36,192,46451,1,0,0:0:0:0:x17.wav
256,192,46451,1,0,0:0:0:0:perc_1.wav
329,192,46451,1,0,0:0:0:0:perc_3.wav
109,192,46572,1,0,0:0:0:0:x18.wav
36,192,46693,1,0,0:0:0:0:lineperc_2.wav
182,192,46693,1,0,0:0:0:0:x19.wav
475,192,46693,1,0,0:0:0:0:perc_2.wav
329,192,46814,1,0,0:0:0:0:x20.wav
109,192,46935,1,0,0:0:0:0:x21.wav
256,192,46935,1,0,0:0:0:0:perc_3.wav
402,192,46935,1,0,0:0:0:0:perc_1.wav
182,192,47056,1,0,0:0:0:0:x22.wav
36,192,47177,1,0,0:0:0:0:perc_2.wav
256,192,47177,1,0,0:0:0:0:x23.wav
475,192,47177,1,0,0:0:0:0:lineperc_4.wav
402,192,47298,1,0,0:0:0:0:x24.wav
36,192,47419,1,0,0:0:0:0:put_this_sound_for_fun.wav
182,192,47499,1,0,0:0:0:0:put_this_sound_for_fun.wav
329,192,47580,1,0,0:0:0:0:put_this_sound_for_fun.wav
109,192,47661,1,0,0:0:0:0:put_this_sound_for_fun.wav
256,192,47741,1,0,0:0:0:0:put_this_sound_for_fun.wav
402,192,47822,1,0,0:0:0:0:put_this_sound_for_fun.wav
36,192,47903,1,0,0:0:0:0:put_this_sound_for_fun.wav
182,192,47983,1,0,0:0:0:0:put_this_sound_for_fun.wav
256,192,48064,1,0,0:0:0:0:put_this_sound_for_fun.wav
109,192,48145,1,0,0:0:0:0:put_this_sound_for_fun.wav
329,192,48225,1,0,0:0:0:0:put_this_sound_for_fun.wav
475,192,48306,1,0,0:0:0:0:put_this_sound_for_fun.wav
36,192,48387,1,0,0:0:0:0:kick.wav
182,192,48387,1,0,0:0:0:0:lineperc_1.wav
402,192,48387,1,0,0:0:0:0:x1.wav
256,192,48508,1,0,0:0:0:0:x2.wav
475,192,48508,1,0,0:0:0:0:b1.wav
182,192,48629,1,0,0:0:0:0:x3.wav
329,192,48629,1,0,0:0:0:0:lineperc_2.wav
256,192,48749,1,0,0:0:0:0:x4.wav
36,192,48870,1,0,0:0:0:0:x5.wav
109,192,48870,1,0,0:0:0:0:kick.wav
329,192,48870,1,0,0:0:0:0:clap.wav
475,192,48870,1,0,0:0:0:0:lineperc_3.wav
182,192,48991,1,0,0:0:0:0:x6.wav
109,192,49112,1,0,0:0:0:0:lineperc_4.wav
329,192,49112,1,0,0:0:0:0:biz_3.wav
182,192,49233,1,0,0:0:0:0:biz_4.wav
402,192,49233,1,0,0:0:0:0:x8.wav
36,192,49354,1,0,0:0:0:0:kick.wav
256,192,49354,1,0,0:0:0:0:lineperc_5.wav
475,192,49354,1,0,0:0:0:0:x9.wav
109,192,49475,1,0,0:0:0:0:b1.wav
329,192,49475,1,0,0:0:0:0:x10.wav
256,192,49596,1,0,0:0:0:0:lineperc_6.wav
402,192,49596,1,0,0:0:0:0:x11.wav
182,192,49717,1,0,0:0:0:0:x12.wav
36,192,49838,1,0,0:0:0:0:x13.wav
109,192,49838,1,0,0:0:0:0:kick.wav
329,192,49838,1,0,0:0:0:0:clap.wav
475,192,49838,1,0,0:0:0:0:lineperc_3.wav
182,192,49959,1,0,0:0:0:0:x14.wav
109,192,50080,1,0,0:0:0:0:lineperc_4.wav
329,192,50080,1,0,0:0:0:0:x15.wav
402,192,50080,1,0,0:0:0:0:biz_5.wav
256,192,50201,1,0,0:0:0:0:biz_6.wav
475,192,50201,1,0,0:0:0:0:x16.wav
36,192,50322,1,0,0:0:0:0:x17.wav
109,192,50322,1,0,0:0:0:0:kick.wav
402,192,50322,1,0,0:0:0:0:lineperc_1.wav
182,192,50443,1,0,0:0:0:0:x18.wav
329,192,50443,1,0,0:0:0:0:b1.wav
36,192,50564,1,0,0:0:0:0:x19.wav
475,192,50564,1,0,0:0:0:0:lineperc_2.wav
182,192,50685,1,0,0:0:0:0:x20.wav
36,192,50806,1,0,0:0:0:0:kick.wav
109,192,50806,1,0,0:0:0:0:x21.wav
329,192,50806,1,0,0:0:0:0:lineperc_3.wav
475,192,50806,1,0,0:0:0:0:clap.wav
256,192,50927,1,0,0:0:0:0:x22.wav
109,192,51048,1,0,0:0:0:0:biz_7.wav
182,192,51048,1,0,0:0:0:0:x23.wav
402,192,51048,1,0,0:0:0:0:lineperc_4.wav
256,192,51169,1,0,0:0:0:0:biz_8.wav
475,192,51169,1,0,0:0:0:0:x24.wav
36,192,51290,1,0,0:0:0:0:kick.wav
329,192,51290,1,0,0:0:0:0:lineperc_5.wav
402,192,51290,1,0,0:0:0:0:x25.wav
182,192,51411,1,0,0:0:0:0:x26.wav
329,192,51532,1,0,0:0:0:0:x27.wav
475,192,51532,1,0,0:0:0:0:lineperc_6.wav
182,192,51653,1,0,0:0:0:0:x28.wav
402,192,51653,1,0,0:0:0:0:lineperc_7.wav
36,192,51774,1,0,0:0:0:0:kick.wav
109,192,51774,1,0,0:0:0:0:clap.wav
256,192,51774,1,0,0:0:0:0:lineperc_3.wav
475,192,51774,1,0,0:0:0:0:biz_9.wav
402,192,51895,1,0,0:0:0:0:put_this_sound_for_fun.wav
182,192,52016,1,0,0:0:0:0:biz_10.wav
329,192,52016,1,0,0:0:0:0:lineperc_4.wav
36,192,52258,1,0,0:0:0:0:kick.wav
109,192,52258,1,0,0:0:0:0:x1.wav
329,192,52258,1,0,0:0:0:0:biz_11.wav
256,192,52379,1,0,0:0:0:0:x2.wav
402,192,52499,1,0,0:0:0:0:x3.wav
329,192,52620,1,0,0:0:0:0:biz_12.wav
475,192,52620,1,0,0:0:0:0:x4.wav
36,192,52741,1,0,0:0:0:0:kick.wav
109,192,52741,1,0,0:0:0:0:x5.wav
256,192,52862,1,0,0:0:0:0:x6.wav
329,192,52983,1,0,0:0:0:0:biz_13.wav
402,192,52983,1,0,0:0:0:0:x7.wav
475,192,53104,1,0,0:0:0:0:x8.wav
36,192,53225,1,0,0:0:0:0:kick.wav
109,192,53225,1,0,0:0:0:0:x9.wav
256,192,53346,1,0,0:0:0:0:x10.wav
329,192,53346,1,0,0:0:0:0:biz_14.wav
402,192,53467,1,0,0:0:0:0:x11.wav
475,192,53588,1,0,0:0:0:0:x12.wav
36,192,53709,1,0,0:0:0:0:kick.wav
109,192,53709,1,0,0:0:0:0:x13.wav
329,192,53709,1,0,0:0:0:0:biz_15.wav
256,192,53830,1,0,0:0:0:0:x14.wav
402,192,53951,1,0,0:0:0:0:x15.wav
109,192,54072,1,0,0:0:0:0:x16.wav
329,192,54072,1,0,0:0:0:0:biz_16.wav
36,192,54193,1,0,0:0:0:0:smallkick.wav
256,192,54193,1,0,0:0:0:0:x17.wav
475,192,54193,1,0,0:0:0:0:lineperc_1.wav
182,192,54314,1,0,0:0:0:0:bass_g4.wav
329,192,54314,1,0,0:0:0:0:x18.wav
109,192,54435,1,0,0:0:0:0:x19.wav
402,192,54435,1,0,0:0:0:0:bass_g4.wav
182,192,54556,1,0,0:0:0:0:bass_g4.wav
329,192,54556,1,0,0:0:0:0:x20.wav
36,192,54677,1,0,0:0:0:0:smp_alter_2.wav
256,192,54677,1,0,0:0:0:0:x21.wav
475,192,54677,1,0,0:0:0:0:lineperc_3.wav
182,192,54798,1,0,0:0:0:0:bass_g4.wav
329,192,54798,1,0,0:0:0:0:x22.wav
109,192,54919,1,0,0:0:0:0:bass_g4.wav
402,192,54919,1,0,0:0:0:0:x23.wav
182,192,55040,1,0,0:0:0:0:bass_g4.wav
329,192,55040,1,0,0:0:0:0:x24.wav
36,192,55161,1,0,0:0:0:0:put_this_sound_for_fun.wav
256,192,55161,1,0,0:0:0:0:x25.wav
475,192,55161,1,0,0:0:0:0:lineperc_5.wav
182,192,55282,1,0,0:0:0:0:x26.wav
329,192,55282,1,0,0:0:0:0:bass_g4.wav
109,192,55403,1,0,0:0:0:0:bass_g4.wav
402,192,55403,1,0,0:0:0:0:x27.wav
182,192,55524,1,0,0:0:0:0:bass_g4.wav
329,192,55524,1,0,0:0:0:0:x28.wav
36,192,55645,1,0,0:0:0:0:VEH3_FX_054_1.wav
256,192,55645,1,0,0:0:0:0:wobs.wav
475,192,55645,1,0,0:0:0:0:pluck1_2.wav
36,192,56129,1,0,0:0:0:0:y1.wav
256,192,56129,1,0,0:0:0:0:lineperc_1.wav
475,192,56129,1,0,0:0:0:0:kick.wav
109,192,56249,1,0,0:0:0:0:b1.wav
402,192,56249,1,0,0:0:0:0:x2.wav
36,192,56370,1,0,0:0:0:0:lineperc_2.wav
182,192,56370,1,0,0:0:0:0:y2.wav
256,192,56370,1,0,0:0:0:0:x3.wav
109,192,56491,1,0,0:0:0:0:x4.wav
329,192,56491,1,0,0:0:0:0:y3.wav
36,192,56612,1,0,0:0:0:0:kick.wav
182,192,56612,1,0,0:0:0:0:pk5.wav
475,192,56612,1,0,0:0:0:0:clap.wav
402,192,56733,1,0,0:0:0:0:x6.wav
109,192,56854,1,0,0:0:0:0:lineperc_4.wav
256,192,56854,1,0,0:0:0:0:y4.wav
475,192,56854,1,0,0:0:0:0:x7.wav
182,192,56975,1,0,0:0:0:0:x8.wav
109,192,57096,1,0,0:0:0:0:kick.wav
329,192,57096,1,0,0:0:0:0:lineperc_5.wav
402,192,57096,1,0,0:0:0:0:y5.wav
182,192,57217,1,0,0:0:0:0:x10.wav
256,192,57217,1,0,0:0:0:0:b1.wav
36,192,57338,1,0,0:0:0:0:y6.wav
329,192,57338,1,0,0:0:0:0:x11.wav
475,192,57338,1,0,0:0:0:0:lineperc_6.wav
182,192,57459,1,0,0:0:0:0:lineperc_7.wav
402,192,57459,1,0,0:0:0:0:y7.wav
109,192,57580,1,0,0:0:0:0:pk5.wav
256,192,57580,1,0,0:0:0:0:clap.wav
475,192,57580,1,0,0:0:0:0:kick.wav
182,192,57701,1,0,0:0:0:0:y8.wav
329,192,57701,1,0,0:0:0:0:x14.wav
109,192,57822,1,0,0:0:0:0:x15.wav
475,192,57822,1,0,0:0:0:0:y9.wav
256,192,57943,1,0,0:0:0:0:x16.wav
36,192,58064,1,0,0:0:0:0:dst1.wav
329,192,58064,1,0,0:0:0:0:kick.wav
402,192,58064,1,0,0:0:0:0:lineperc_1.wav
182,192,58185,1,0,0:0:0:0:x18.wav
475,192,58185,1,0,0:0:0:0:b1.wav
36,192,58306,1,0,0:0:0:0:x19.wav
402,192,58306,1,0,0:0:0:0:lineperc_2.wav
182,192,58427,1,0,0:0:0:0:x20.wav
109,192,58548,1,0,0:0:0:0:g3.wav
256,192,58548,1,0,0:0:0:0:pk5.wav
402,192,58548,1,0,0:0:0:0:dst2.wav
182,192,58669,1,0,0:0:0:0:dst3.wav
329,192,58669,1,0,0:0:0:0:x22.wav
36,192,58790,1,0,0:0:0:0:lineperc_4.wav
475,192,58790,1,0,0:0:0:0:x23.wav
182,192,58911,1,0,0:0:0:0:dst4.wav
402,192,58911,1,0,0:0:0:0:g5.wav
36,192,59032,1,0,0:0:0:0:dst5.wav
256,192,59032,1,0,0:0:0:0:lineperc_5.wav
475,192,59032,1,0,0:0:0:0:kick.wav
109,192,59153,1,0,0:0:0:0:x26.wav
329,192,59153,1,0,0:0:0:0:d12.wav
36,192,59274,1,0,0:0:0:0:x27.wav
182,192,59274,1,0,0:0:0:0:lineperc_6.wav
475,192,59274,1,0,0:0:0:0:d13.wav
109,192,59395,1,0,0:0:0:0:lineperc_7.wav
256,192,59395,1,0,0:0:0:0:x28.wav
329,192,59395,1,0,0:0:0:0:d14.wav
36,192,59516,1,0,0:0:0:0:lineperc_3.wav
182,192,59516,1,0,0:0:0:0:x29.wav
402,192,59516,1,0,0:0:0:0:clap.wav
475,192,59516,1,0,0:0:0:0:kick.wav
36,192,59999,1,0,0:0:0:0:g8.wav
256,192,59999,1,0,0:0:0:0:bass_g4.wav
475,192,59999,1,0,0:0:0:0:x1.wav
182,192,60120,1,0,0:0:0:0:bass_g4.wav
329,192,60120,1,0,0:0:0:0:x2.wav
36,192,60241,1,0,0:0:0:0:lineperc_2.wav
256,192,60241,1,0,0:0:0:0:bass_g4.wav
475,192,60241,1,0,0:0:0:0:x3.wav
109,192,60483,1,0,0:0:0:0:g9.wav
402,192,60483,1,0,0:0:0:0:x5.wav
182,192,60604,1,0,0:0:0:0:x6.wav
256,192,60604,1,0,0:0:0:0:d3.wav
329,192,60604,1,0,0:0:0:0:bass_g4.wav
109,192,60725,1,0,0:0:0:0:lineperc_4.wav
402,192,60725,1,0,0:0:0:0:x7.wav
36,192,60967,1,0,0:0:0:0:g10.wav
256,192,60967,1,0,0:0:0:0:d3.wav
475,192,60967,1,0,0:0:0:0:x9.wav
182,192,61088,1,0,0:0:0:0:bass_g4.wav
329,192,61088,1,0,0:0:0:0:x10.wav
36,192,61209,1,0,0:0:0:0:lineperc_6.wav
256,192,61209,1,0,0:0:0:0:d3.wav
475,192,61209,1,0,0:0:0:0:x11.wav
109,192,61451,1,0,0:0:0:0:g11.wav
402,192,61451,1,0,0:0:0:0:x13.wav
182,192,61572,1,0,0:0:0:0:d4.wav
256,192,61572,1,0,0:0:0:0:x14.wav
329,192,61572,1,0,0:0:0:0:bass_g4.wav
109,192,61693,1,0,0:0:0:0:lineperc_4.wav
402,192,61693,1,0,0:0:0:0:x15.wav
36,192,61935,1,0,0:0:0:0:kick.wav
182,192,61935,1,0,0:0:0:0:g12.wav
329,192,61935,1,0,0:0:0:0:x17.wav
475,192,61935,1,0,0:0:0:0:housefill_1.wav
256,192,62056,1,0,0:0:0:0:bass_g4.wav
402,192,62056,1,0,0:0:0:0:x18.wav
109,192,62177,1,0,0:0:0:0:bass_g4.wav
329,192,62177,1,0,0:0:0:0:x19.wav
475,192,62177,1,0,0:0:0:0:lineperc_2.wav
182,192,62298,1,0,0:0:0:0:bass_g4.wav
402,192,62298,1,0,0:0:0:0:x20.wav
36,192,62419,1,0,0:0:0:0:kick.wav
256,192,62419,1,0,0:0:0:0:x21.wav
329,192,62419,1,0,0:0:0:0:housefill_2.wav
475,192,62419,1,0,0:0:0:0:g13.wav
109,192,62540,1,0,0:0:0:0:bass_g4.wav
402,192,62540,1,0,0:0:0:0:x22.wav
36,192,62661,1,0,0:0:0:0:lineperc_4.wav
256,192,62661,1,0,0:0:0:0:bass_g4.wav
475,192,62661,1,0,0:0:0:0:x23.wav
182,192,62782,1,0,0:0:0:0:bass_g4.wav
329,192,62782,1,0,0:0:0:0:x24.wav
36,192,62903,1,0,0:0:0:0:crash1.wav
256,192,62903,1,0,0:0:0:0:housefill_3.wav
475,192,62903,1,0,0:0:0:0:lineperc_5.wav
36,192,63387,1,0,0:0:0:0:scratch1.wav
36,192,63870,1,0,0:0:0:0:kick.wav
109,192,63870,1,0,0:0:0:0:perc_3.wav
256,192,63870,1,0,0:0:0:0:x1.wav
402,192,63870,1,0,0:0:0:0:bass_ef5.wav
475,192,63870,1,0,0:0:0:0:perc_1.wav
182,192,63991,1,0,0:0:0:0:bass_ef5.wav
329,192,63991,1,0,0:0:0:0:x3.wav
109,192,64112,1,0,0:0:0:0:perc_2.wav
256,192,64112,1,0,0:0:0:0:bongoperc.wav
475,192,64112,1,0,0:0:0:0:bass_ef5.wav
182,192,64233,1,0,0:0:0:0:x4.wav
36,192,64354,1,0,0:0:0:0:kick.wav
256,192,64354,1,0,0:0:0:0:clap.wav
475,192,64354,1,0,0:0:0:0:x5.wav
182,192,64475,1,0,0:0:0:0:x6.wav
402,192,64475,1,0,0:0:0:0:bass_ef5.wav
109,192,64596,1,0,0:0:0:0:perc_2.wav
329,192,64596,1,0,0:0:0:0:bass_ef5.wav
475,192,64596,1,0,0:0:0:0:x7.wav
182,192,64717,1,0,0:0:0:0:x8.wav
36,192,64838,1,0,0:0:0:0:kick.wav
109,192,64838,1,0,0:0:0:0:perc_3.wav
329,192,64838,1,0,0:0:0:0:x9.wav
475,192,64838,1,0,0:0:0:0:perc_1.wav
182,192,64959,1,0,0:0:0:0:x10.wav
256,192,64959,1,0,0:0:0:0:bass_ef5.wav
109,192,65080,1,0,0:0:0:0:perc_2.wav
329,192,65080,1,0,0:0:0:0:bass_ef5.wav
475,192,65080,1,0,0:0:0:0:bongoperc.wav
256,192,65201,1,0,0:0:0:0:bass_ef5.wav
36,192,65322,1,0,0:0:0:0:kick.wav
182,192,65322,1,0,0:0:0:0:clap.wav
402,192,65322,1,0,0:0:0:0:x13.wav
109,192,65443,1,0,0:0:0:0:x14.wav
329,192,65443,1,0,0:0:0:0:bass_ef5.wav
182,192,65564,1,0,0:0:0:0:perc_2.wav
256,192,65564,1,0,0:0:0:0:bass_ef5.wav
475,192,65564,1,0,0:0:0:0:x15.wav
329,192,65685,1,0,0:0:0:0:x16.wav
36,192,65806,1,0,0:0:0:0:kick.wav
109,192,65806,1,0,0:0:0:0:perc_3.wav
256,192,65806,1,0,0:0:0:0:x17.wav
402,192,65806,1,0,0:0:0:0:perc_1.wav
475,192,65806,1,0,0:0:0:0:bass_c5.wav
182,192,65927,1,0,0:0:0:0:x18.wav
329,192,65927,1,0,0:0:0:0:bass_c5.wav
109,192,66048,1,0,0:0:0:0:perc_2.wav
256,192,66048,1,0,0:0:0:0:x19.wav
475,192,66048,1,0,0:0:0:0:bass_c5.wav
402,192,66169,1,0,0:0:0:0:bass_c5.wav
36,192,66290,1,0,0:0:0:0:kick.wav
182,192,66290,1,0,0:0:0:0:clap.wav
475,192,66290,1,0,0:0:0:0:perc_1.wav
329,192,66411,1,0,0:0:0:0:bass_c5.wav
402,192,66411,1,0,0:0:0:0:x22.wav
109,192,66532,1,0,0:0:0:0:perc_2.wav
256,192,66532,1,0,0:0:0:0:bongoperc.wav
475,192,66532,1,0,0:0:0:0:bass_c5.wav
182,192,66653,1,0,0:0:0:0:bass_c5.wav
36,192,66774,1,0,0:0:0:0:kick.wav
256,192,66774,1,0,0:0:0:0:perc_1.wav
329,192,66774,1,0,0:0:0:0:perc_3.wav
475,192,66774,1,0,0:0:0:0:x25.wav
182,192,66895,1,0,0:0:0:0:x26.wav
402,192,66895,1,0,0:0:0:0:bass_c5.wav
109,192,67016,1,0,0:0:0:0:perc_2.wav
256,192,67016,1,0,0:0:0:0:bass_c5.wav
475,192,67016,1,0,0:0:0:0:x27.wav
402,192,67137,1,0,0:0:0:0:bass_c5.wav
36,192,67258,1,0,0:0:0:0:kick.wav
182,192,67258,1,0,0:0:0:0:clap.wav
329,192,67258,1,0,0:0:0:0:perc_1.wav
256,192,67379,1,0,0:0:0:0:bass_c5.wav
402,192,67379,1,0,0:0:0:0:bongoperc.wav
109,192,67499,1,0,0:0:0:0:perc_2.wav
329,192,67499,1,0,0:0:0:0:d17.wav
475,192,67499,1,0,0:0:0:0:bass_c5.wav
182,192,67620,1,0,0:0:0:0:d18.wav
36,192,67741,1,0,0:0:0:0:kick.wav
109,192,67741,1,0,0:0:0:0:perc_1.wav
329,192,67741,1,0,0:0:0:0:perc_3.wav
402,192,67741,1,0,0:0:0:0:bass_g4.wav
475,192,67741,1,0,0:0:0:0:x1.wav
182,192,67862,1,0,0:0:0:0:x2.wav
256,192,67862,1,0,0:0:0:0:bass_g4.wav
109,192,67983,1,0,0:0:0:0:perc_2.wav
329,192,67983,1,0,0:0:0:0:x3.wav
475,192,67983,1,0,0:0:0:0:bass_g4.wav
256,192,68104,1,0,0:0:0:0:bass_g4.wav
36,192,68225,1,0,0:0:0:0:kick.wav
182,192,68225,1,0,0:0:0:0:clap.wav
329,192,68225,1,0,0:0:0:0:x5.wav
256,192,68346,1,0,0:0:0:0:x6.wav
475,192,68346,1,0,0:0:0:0:bass_g4.wav
109,192,68467,1,0,0:0:0:0:perc_2.wav
182,192,68467,1,0,0:0:0:0:x7.wav
329,192,68467,1,0,0:0:0:0:bass_g4.wav
402,192,68588,1,0,0:0:0:0:bass_g4.wav
36,192,68709,1,0,0:0:0:0:kick.wav
182,192,68709,1,0,0:0:0:0:perc_1.wav
256,192,68709,1,0,0:0:0:0:x9.wav
475,192,68709,1,0,0:0:0:0:perc_3.wav
109,192,68830,1,0,0:0:0:0:x10.wav
329,192,68830,1,0,0:0:0:0:bass_g4.wav
182,192,68951,1,0,0:0:0:0:perc_2.wav
256,192,68951,1,0,0:0:0:0:x11.wav
475,192,68951,1,0,0:0:0:0:bass_g4.wav
329,192,69072,1,0,0:0:0:0:bass_g4.wav
36,192,69193,1,0,0:0:0:0:kick.wav
182,192,69193,1,0,0:0:0:0:clap.wav
475,192,69193,1,0,0:0:0:0:perc_1.wav
256,192,69314,1,0,0:0:0:0:x14.wav
402,192,69314,1,0,0:0:0:0:bass_g4.wav
109,192,69435,1,0,0:0:0:0:v15.wav
329,192,69435,1,0,0:0:0:0:bass_g4.wav
475,192,69435,1,0,0:0:0:0:x15.wav
182,192,69556,1,0,0:0:0:0:x16.wav
36,192,69677,1,0,0:0:0:0:kick.wav
109,192,69677,1,0,0:0:0:0:x17.wav
329,192,69677,1,0,0:0:0:0:perc_3.wav
402,192,69677,1,0,0:0:0:0:d3.wav
475,192,69677,1,0,0:0:0:0:perc_1.wav
36,192,70161,1,0,0:0:0:0:kick.wav
109,192,70161,1,0,0:0:0:0:clap.wav
256,192,70161,1,0,0:0:0:0:pk6_g7.wav
329,192,70161,1,0,0:0:0:0:x21.wav
475,192,70161,1,0,0:0:0:0:perc_1.wav
36,192,70645,1,0,0:0:0:0:kick.wav
182,192,70645,1,0,0:0:0:0:x25.wav
256,192,70645,1,0,0:0:0:0:d3.wav
329,192,70645,1,0,0:0:0:0:perc_3.wav
475,192,70645,1,0,0:0:0:0:perc_1.wav
36,192,70887,1,0,0:0:0:0:kick.wav
109,192,70887,1,0,0:0:0:0:perc_2.wav
329,192,70887,1,0,0:0:0:0:b3.wav
402,192,70887,1,0,0:0:0:0:d1.wav
475,192,70887,1,0,0:0:0:0:d3.wav
109,192,71129,1,0,0:0:0:0:pk6_g7.wav
256,192,71129,1,0,0:0:0:0:x29.wav
36,192,71249,1,0,0:0:0:0:kick.wav
329,192,71249,1,0,0:0:0:0:b4.wav
475,192,71249,1,0,0:0:0:0:bongoperc.wav
256,192,71370,1,0,0:0:0:0:d6.wav
402,192,71370,1,0,0:0:0:0:perc_2.wav
109,192,71491,1,0,0:0:0:0:d7.wav
36,192,71612,1,0,0:0:0:0:perc_1.wav
182,192,71612,1,0,0:0:0:0:x1.wav
329,192,71612,1,0,0:0:0:0:bass_ef5.wav
475,192,71612,1,0,0:0:0:0:perc_3.wav
109,192,71733,1,0,0:0:0:0:bass_ef5.wav
402,192,71733,1,0,0:0:0:0:x2.wav
36,192,71854,1,0,0:0:0:0:x3.wav
329,192,71854,1,0,0:0:0:0:bass_ef5.wav
475,192,71854,1,0,0:0:0:0:perc_2.wav
182,192,71975,1,0,0:0:0:0:bass_ef5.wav
36,192,72096,1,0,0:0:0:0:pk6_g7.wav
256,192,72096,1,0,0:0:0:0:perc_3.wav
475,192,72096,1,0,0:0:0:0:clap.wav
109,192,72217,1,0,0:0:0:0:bass_ef5.wav
329,192,72217,1,0,0:0:0:0:x6.wav
36,192,72338,1,0,0:0:0:0:x7.wav
182,192,72338,1,0,0:0:0:0:perc_2.wav
402,192,72338,1,0,0:0:0:0:bass_ef5.wav
256,192,72459,1,0,0:0:0:0:bass_ef5.wav
109,192,72580,1,0,0:0:0:0:perc_3.wav
182,192,72580,1,0,0:0:0:0:imp1.wav
402,192,72580,1,0,0:0:0:0:perc_1.wav
475,192,72580,1,0,0:0:0:0:x9.wav
36,192,72701,1,0,0:0:0:0:bass_ef5.wav
256,192,72701,1,0,0:0:0:0:x10.wav
182,192,72822,1,0,0:0:0:0:perc_2.wav
329,192,72822,1,0,0:0:0:0:bass_ef5.wav
475,192,72822,1,0,0:0:0:0:bongoperc.wav
109,192,72943,1,0,0:0:0:0:bass_ef5.wav
36,192,73064,1,0,0:0:0:0:pk6_g7.wav
256,192,73064,1,0,0:0:0:0:perc_1.wav
475,192,73064,1,0,0:0:0:0:clap.wav
182,192,73185,1,0,0:0:0:0:bass_ef5.wav
329,192,73185,1,0,0:0:0:0:x14.wav
109,192,73306,1,0,0:0:0:0:perc_2.wav
256,192,73306,1,0,0:0:0:0:x15.wav
402,192,73306,1,0,0:0:0:0:bass_ef5.wav
329,192,73427,1,0,0:0:0:0:x16.wav
109,192,73548,1,0,0:0:0:0:imp1.wav
182,192,73548,1,0,0:0:0:0:bass_c5.wav
402,192,73548,1,0,0:0:0:0:perc_3.wav
475,192,73548,1,0,0:0:0:0:perc_1.wav
36,192,73669,1,0,0:0:0:0:bass_c5.wav
256,192,73669,1,0,0:0:0:0:x18.wav
182,192,73790,1,0,0:0:0:0:bass_c5.wav
402,192,73790,1,0,0:0:0:0:bongoperc.wav
475,192,73790,1,0,0:0:0:0:x19.wav
329,192,73911,1,0,0:0:0:0:bass_c5.wav
36,192,74032,1,0,0:0:0:0:x21.wav
109,192,74032,1,0,0:0:0:0:pk6_bf7.wav
475,192,74032,1,0,0:0:0:0:clap.wav
256,192,74153,1,0,0:0:0:0:bass_c5.wav
402,192,74153,1,0,0:0:0:0:x22.wav
36,192,74274,1,0,0:0:0:0:x23.wav
182,192,74274,1,0,0:0:0:0:bongoperc.wav
329,192,74274,1,0,0:0:0:0:bass_c5.wav
256,192,74395,1,0,0:0:0:0:bass_c5.wav
36,192,74516,1,0,0:0:0:0:perc_3.wav
109,192,74516,1,0,0:0:0:0:x25.wav
182,192,74516,1,0,0:0:0:0:perc_1.wav
329,192,74516,1,0,0:0:0:0:put_this_sound_for_fun.wav
402,192,74516,1,0,0:0:0:0:imp1.wav
475,192,74516,128,0,74944:0:0:0:0:phone.wav
36,192,74999,1,0,0:0:0:0:clap.wav
256,192,75120,1,0,0:0:0:0:bongoperc.wav
402,192,75241,1,0,0:0:0:0:bass_c5.wav
182,192,75362,1,0,0:0:0:0:scratch2.wav
36,192,75483,1,0,0:0:0:0:kick.wav
329,192,75483,1,0,0:0:0:0:v20.wav
475,192,75483,1,0,0:0:0:0:pk7_1.wav
402,192,76451,128,0,76875:0:0:0:0:housefill_3.wav
256,192,76935,128,0,77358:0:0:0:0:housefill_4.wav
182,192,77419,1,0,0:0:0:0:pk7_5.wav
36,192,78870,1,0,0:0:0:0:vrash3.wav
182,192,78870,1,0,0:0:0:0:put_this_sound_for_fun.wav
329,192,78870,1,0,0:0:0:0:sudden_entry_pad.wav
475,192,78870,1,0,0:0:0:0:pluck1_2.wav
36,192,79354,1,0,0:0:0:0:lp1.wav
329,192,79354,1,0,0:0:0:0:d3.wav
475,192,79354,1,0,0:0:0:0:d1.wav
256,192,79475,1,0,0:0:0:0:bass_g4.wav
109,192,79596,1,0,0:0:0:0:lp2.wav
329,192,79596,1,0,0:0:0:0:d3.wav
475,192,79596,1,0,0:0:0:0:d1.wav
182,192,79717,1,0,0:0:0:0:bass_g4.wav
36,192,79838,1,0,0:0:0:0:perc_4.wav
256,192,79838,1,0,0:0:0:0:pk1.wav
109,192,79959,1,0,0:0:0:0:d3.wav
402,192,79959,1,0,0:0:0:0:d1.wav
182,192,80080,1,0,0:0:0:0:bass_g4.wav
329,192,80080,1,0,0:0:0:0:lp4.wav
256,192,80201,1,0,0:0:0:0:bass_g4.wav
36,192,80322,1,0,0:0:0:0:lp5.wav
329,192,80322,1,0,0:0:0:0:d3.wav
475,192,80322,1,0,0:0:0:0:d1.wav
182,192,80443,1,0,0:0:0:0:bass_g4.wav
109,192,80564,1,0,0:0:0:0:lp6.wav
329,192,80564,1,0,0:0:0:0:d3.wav
475,192,80564,1,0,0:0:0:0:d1.wav
256,192,80685,1,0,0:0:0:0:bass_g4.wav
36,192,80806,1,0,0:0:0:0:pk1.wav
329,192,80806,1,0,0:0:0:0:perc_4.wav
182,192,80927,1,0,0:0:0:0:d4.wav
402,192,80927,1,0,0:0:0:0:d1.wav
109,192,81048,1,0,0:0:0:0:lp8.wav
256,192,81048,1,0,0:0:0:0:bass_g4.wav
182,192,81169,1,0,0:0:0:0:bass_g5.wav
36,192,81290,1,0,0:0:0:0:lp9.wav
329,192,81290,1,0,0:0:0:0:d3.wav
475,192,81290,1,0,0:0:0:0:d1.wav
256,192,81411,1,0,0:0:0:0:bass_g4.wav
109,192,81532,1,0,0:0:0:0:lp10.wav
329,192,81532,1,0,0:0:0:0:d3.wav
475,192,81532,1,0,0:0:0:0:d1.wav
182,192,81653,1,0,0:0:0:0:bass_g4.wav
36,192,81774,1,0,0:0:0:0:perc_4.wav
256,192,81774,1,0,0:0:0:0:pk1.wav
109,192,81895,1,0,0:0:0:0:d3.wav
402,192,81895,1,0,0:0:0:0:d1.wav
182,192,82016,1,0,0:0:0:0:bass_g4.wav
402,192,82137,1,0,0:0:0:0:bass_g4.wav
36,192,82258,1,0,0:0:0:0:lp13.wav
329,192,82258,1,0,0:0:0:0:d3.wav
475,192,82258,1,0,0:0:0:0:d1.wav
256,192,82379,1,0,0:0:0:0:bass_g4.wav
109,192,82500,1,0,0:0:0:0:lp14.wav
329,192,82500,1,0,0:0:0:0:d3.wav
475,192,82500,1,0,0:0:0:0:d1.wav
256,192,82620,1,0,0:0:0:0:bass_g4.wav
36,192,82741,1,0,0:0:0:0:perc_4.wav
402,192,82741,1,0,0:0:0:0:pk1.wav
182,192,82862,1,0,0:0:0:0:d5.wav
475,192,82862,1,0,0:0:0:0:d2.wav
256,192,82983,1,0,0:0:0:0:bass_g4.wav
402,192,82983,1,0,0:0:0:0:lp16.wav
109,192,83104,1,0,0:0:0:0:bass_g5.wav
36,192,83225,1,0,0:0:0:0:lp1.wav
329,192,83225,1,0,0:0:0:0:d1.wav
475,192,83225,1,0,0:0:0:0:d3.wav
256,192,83346,1,0,0:0:0:0:bass_g4.wav
109,192,83467,1,0,0:0:0:0:lp2.wav
329,192,83467,1,0,0:0:0:0:d1.wav
475,192,83467,1,0,0:0:0:0:d3.wav
182,192,83588,1,0,0:0:0:0:bass_g4.wav
36,192,83709,1,0,0:0:0:0:perc_4.wav
256,192,83709,1,0,0:0:0:0:pk1.wav
109,192,83830,1,0,0:0:0:0:d1.wav
402,192,83830,1,0,0:0:0:0:d3.wav
182,192,83951,1,0,0:0:0:0:bass_g4.wav
256,192,84072,1,0,0:0:0:0:bass_g4.wav
36,192,84193,1,0,0:0:0:0:lp5.wav
329,192,84193,1,0,0:0:0:0:d3.wav
475,192,84193,1,0,0:0:0:0:d1.wav
182,192,84314,1,0,0:0:0:0:bass_g4.wav
109,192,84435,1,0,0:0:0:0:lp6.wav
329,192,84435,1,0,0:0:0:0:d3.wav
475,192,84435,1,0,0:0:0:0:d1.wav
256,192,84556,1,0,0:0:0:0:bass_g4.wav
36,192,84677,1,0,0:0:0:0:pk1.wav
329,192,84677,1,0,0:0:0:0:perc_4.wav
182,192,84798,1,0,0:0:0:0:d4.wav
402,192,84798,1,0,0:0:0:0:d1.wav
109,192,84919,1,0,0:0:0:0:bass_g4.wav
182,192,85040,1,0,0:0:0:0:bass_g5.wav
36,192,85161,1,0,0:0:0:0:lp9.wav
329,192,85161,1,0,0:0:0:0:d3.wav
475,192,85161,1,0,0:0:0:0:d1.wav
256,192,85282,1,0,0:0:0:0:bass_g4.wav
109,192,85403,1,0,0:0:0:0:lp10.wav
329,192,85403,1,0,0:0:0:0:d3.wav
475,192,85403,1,0,0:0:0:0:d1.wav
182,192,85524,1,0,0:0:0:0:bass_g4.wav
256,192,85645,1,0,0:0:0:0:pk1.wav
475,192,85645,1,0,0:0:0:0:perc_4.wav
109,192,85766,1,0,0:0:0:0:d3.wav
402,192,85766,1,0,0:0:0:0:d1.wav
36,192,85887,1,0,0:0:0:0:lp12.wav
256,192,85887,1,0,0:0:0:0:bass_g4.wav
182,192,86008,1,0,0:0:0:0:bass_g4.wav
36,192,86129,1,0,0:0:0:0:lp13.wav
329,192,86129,1,0,0:0:0:0:d3.wav
475,192,86129,1,0,0:0:0:0:d1.wav
182,192,86250,1,0,0:0:0:0:bass_g4.wav
109,192,86370,1,0,0:0:0:0:lp14.wav
329,192,86370,1,0,0:0:0:0:d3.wav
475,192,86370,1,0,0:0:0:0:d1.wav
256,192,86491,1,0,0:0:0:0:bass_g4.wav
36,192,86612,1,0,0:0:0:0:pk1.wav
329,192,86612,1,0,0:0:0:0:perc_4.wav
475,192,86612,1,0,0:0:0:0:rhode_5.wav
182,192,86733,1,0,0:0:0:0:d4.wav
402,192,86733,1,0,0:0:0:0:d2.wav
109,192,86854,1,0,0:0:0:0:lp16.wav
256,192,86854,1,0,0:0:0:0:d6.wav
329,192,86854,1,0,0:0:0:0:bass_g4.wav
475,192,86975,1,0,0:0:0:0:d7.wav
36,192,87096,1,0,0:0:0:0:lp1.wav
256,192,87096,1,0,0:0:0:0:d3.wav
402,192,87096,1,0,0:0:0:0:d1.wav
329,192,87217,1,0,0:0:0:0:bass_g4.wav
109,192,87338,1,0,0:0:0:0:lp2.wav
256,192,87338,1,0,0:0:0:0:d3.wav
402,192,87338,1,0,0:0:0:0:d1.wav
182,192,87459,1,0,0:0:0:0:bass_g4.wav
36,192,87580,1,0,0:0:0:0:perc_4.wav
329,192,87580,1,0,0:0:0:0:pk1.wav
256,192,87701,1,0,0:0:0:0:d1.wav
475,192,87701,1,0,0:0:0:0:d3.wav
109,192,87822,1,0,0:0:0:0:bass_g4.wav
402,192,87822,1,0,0:0:0:0:lp4.wav
182,192,87943,1,0,0:0:0:0:bass_g4.wav
36,192,88064,1,0,0:0:0:0:lp5.wav
329,192,88064,1,0,0:0:0:0:d3.wav
475,192,88064,1,0,0:0:0:0:d1.wav
182,192,88185,1,0,0:0:0:0:bass_g4.wav
109,192,88306,1,0,0:0:0:0:lp6.wav
329,192,88306,1,0,0:0:0:0:d3.wav
475,192,88306,1,0,0:0:0:0:d1.wav
256,192,88427,1,0,0:0:0:0:bass_g4.wav
36,192,88548,1,0,0:0:0:0:pk1.wav
402,192,88548,1,0,0:0:0:0:perc_4.wav
182,192,88669,1,0,0:0:0:0:d1.wav
475,192,88669,1,0,0:0:0:0:d4.wav
109,192,88790,1,0,0:0:0:0:lp8.wav
329,192,88790,1,0,0:0:0:0:bass_g4.wav
182,192,88911,1,0,0:0:0:0:bass_g5.wav
36,192,89032,1,0,0:0:0:0:lp9.wav
256,192,89032,1,0,0:0:0:0:d3.wav
402,192,89032,1,0,0:0:0:0:d1.wav
329,192,89153,1,0,0:0:0:0:bass_g4.wav
109,192,89274,1,0,0:0:0:0:lp10.wav
256,192,89274,1,0,0:0:0:0:d3.wav
402,192,89274,1,0,0:0:0:0:d1.wav
182,192,89395,1,0,0:0:0:0:bass_g4.wav
36,192,89516,1,0,0:0:0:0:perc_4.wav
329,192,89516,1,0,0:0:0:0:pk1.wav
256,192,89637,1,0,0:0:0:0:d3.wav
475,192,89637,1,0,0:0:0:0:d1.wav
109,192,89758,1,0,0:0:0:0:bass_g4.wav
402,192,89758,1,0,0:0:0:0:lp12.wav
182,192,89879,1,0,0:0:0:0:bass_g4.wav
36,192,90000,1,0,0:0:0:0:lp13.wav
329,192,90000,1,0,0:0:0:0:d3.wav
475,192,90000,1,0,0:0:0:0:d1.wav
182,192,90120,1,0,0:0:0:0:bass_g4.wav
109,192,90241,1,0,0:0:0:0:lp14.wav
329,192,90241,1,0,0:0:0:0:d3.wav
475,192,90241,1,0,0:0:0:0:d1.wav
256,192,90362,1,0,0:0:0:0:bass_g4.wav
36,192,90483,1,0,0:0:0:0:pk1.wav
329,192,90483,1,0,0:0:0:0:perc_4.wav
109,192,90604,1,0,0:0:0:0:d5.wav
402,192,90604,1,0,0:0:0:0:d2.wav
182,192,90725,1,0,0:0:0:0:bass_g4.wav
475,192,90725,1,0,0:0:0:0:lp16.wav
329,192,90846,1,0,0:0:0:0:bass_g5.wav
36,192,90967,1,0,0:0:0:0:lp1.wav
256,192,90967,1,0,0:0:0:0:d3.wav
402,192,90967,1,0,0:0:0:0:d1.wav
329,192,91088,1,0,0:0:0:0:bass_g4.wav
109,192,91209,1,0,0:0:0:0:lp2.wav
256,192,91209,1,0,0:0:0:0:d3.wav
402,192,91209,1,0,0:0:0:0:d1.wav
182,192,91330,1,0,0:0:0:0:bass_g4.wav
36,192,91451,1,0,0:0:0:0:perc_4.wav
329,192,91451,1,0,0:0:0:0:pk1.wav
256,192,91572,1,0,0:0:0:0:d3.wav
475,192,91572,1,0,0:0:0:0:d1.wav
109,192,91693,1,0,0:0:0:0:bass_g4.wav
402,192,91693,1,0,0:0:0:0:lp4.wav
256,192,91814,1,0,0:0:0:0:bass_g4.wav
36,192,91935,1,0,0:0:0:0:lp5.wav
329,192,91935,1,0,0:0:0:0:d3.wav
475,192,91935,1,0,0:0:0:0:d1.wav
182,192,92056,1,0,0:0:0:0:bass_g4.wav
109,192,92177,1,0,0:0:0:0:lp6.wav
329,192,92177,1,0,0:0:0:0:d3.wav
475,192,92177,1,0,0:0:0:0:d1.wav
182,192,92298,1,0,0:0:0:0:bass_g4.wav
36,192,92419,1,0,0:0:0:0:perc_4.wav
329,192,92419,1,0,0:0:0:0:pk1.wav
256,192,92540,1,0,0:0:0:0:d4.wav
475,192,92540,1,0,0:0:0:0:d1.wav
36,192,92903,1,0,0:0:0:0:bass_g4.wav
182,192,92903,1,0,0:0:0:0:d3.wav
329,192,92903,1,0,0:0:0:0:d1.wav
402,192,93024,1,0,0:0:0:0:bass_g4.wav
36,192,93145,1,0,0:0:0:0:bass_g4.wav
182,192,93145,1,0,0:0:0:0:d3.wav
329,192,93145,1,0,0:0:0:0:d1.wav
402,192,93266,1,0,0:0:0:0:bass_g4.wav
36,192,93387,1,0,0:0:0:0:housefill_2.wav
475,192,93387,1,0,0:0:0:0:pk1.wav
109,192,93508,1,0,0:0:0:0:bass_g4.wav
182,192,93508,1,0,0:0:0:0:d3.wav
329,192,93508,1,0,0:0:0:0:d1.wav
256,192,93629,1,0,0:0:0:0:bass_g4.wav
36,192,93870,1,0,0:0:0:0:crash1.wav
475,192,93870,1,0,0:0:0:0:VEH3_FX_054_1.wav
256,192,93870,128,0,94233:0:0:0:0:phone.wav
329,192,94354,1,0,0:0:0:0:housefill_4.wav
475,192,94354,1,0,0:0:0:0:pk1.wav
109,192,94475,1,0,0:0:0:0:d4.wav
402,192,94475,1,0,0:0:0:0:bass_g4.wav
36,192,94596,1,0,0:0:0:0:bass_g4.wav
256,192,94596,1,0,0:0:0:0:d6.wav
329,192,94717,1,0,0:0:0:0:bass_g5.wav
475,192,94717,1,0,0:0:0:0:d7.wav
36,192,94838,1,0,0:0:0:0:lp1.wav
182,192,94838,1,0,0:0:0:0:bass_ef5.wav
256,192,94838,1,0,0:0:0:0:perc_1.wav
402,192,94838,1,0,0:0:0:0:perc_3.wav
329,192,94959,1,0,0:0:0:0:bass_ef5.wav
109,192,95080,1,0,0:0:0:0:lp2.wav
256,192,95080,1,0,0:0:0:0:bass_ef5.wav
475,192,95080,1,0,0:0:0:0:perc_2.wav
182,192,95201,1,0,0:0:0:0:v24.wav
329,192,95201,1,0,0:0:0:0:bass_ef5.wav
36,192,95322,1,0,0:0:0:0:lp3.wav
256,192,95322,1,0,0:0:0:0:perc_1.wav
475,192,95322,1,0,0:0:0:0:perc_3.wav
182,192,95443,1,0,0:0:0:0:bass_ef5.wav
402,192,95443,1,0,0:0:0:0:v25.wav
109,192,95564,1,0,0:0:0:0:lp4.wav
256,192,95564,1,0,0:0:0:0:bass_ef5.wav
475,192,95564,1,0,0:0:0:0:perc_2.wav
182,192,95685,1,0,0:0:0:0:bongoperc.wav
402,192,95685,1,0,0:0:0:0:bass_ef5.wav
36,192,95806,1,0,0:0:0:0:lp5.wav
109,192,95806,1,0,0:0:0:0:v26.wav
329,192,95806,1,0,0:0:0:0:perc_1.wav
475,192,95806,1,0,0:0:0:0:perc_3.wav
182,192,95927,1,0,0:0:0:0:bass_ef5.wav
109,192,96048,1,0,0:0:0:0:lp6.wav
256,192,96048,1,0,0:0:0:0:perc_2.wav
402,192,96048,1,0,0:0:0:0:bass_ef5.wav
329,192,96169,1,0,0:0:0:0:bass_ef5.wav
36,192,96290,1,0,0:0:0:0:lp7.wav
256,192,96290,1,0,0:0:0:0:perc_1.wav
475,192,96290,1,0,0:0:0:0:perc_3.wav
182,192,96411,1,0,0:0:0:0:bass_ef5.wav
402,192,96411,1,0,0:0:0:0:bongoperc.wav
109,192,96532,1,0,0:0:0:0:lp8.wav
329,192,96532,1,0,0:0:0:0:bass_ef5.wav
475,192,96532,1,0,0:0:0:0:perc_2.wav
256,192,96653,1,0,0:0:0:0:v29.wav
36,192,96774,1,0,0:0:0:0:lp9.wav
182,192,96774,1,0,0:0:0:0:bass_c5.wav
329,192,96774,1,0,0:0:0:0:v30.wav
402,192,96774,1,0,0:0:0:0:perc_3.wav
475,192,96774,1,0,0:0:0:0:perc_1.wav
109,192,96895,1,0,0:0:0:0:v31.wav
36,192,97016,1,0,0:0:0:0:lp10.wav
329,192,97016,1,0,0:0:0:0:bass_c5.wav
475,192,97016,1,0,0:0:0:0:perc_2.wav
182,192,97137,1,0,0:0:0:0:v33.wav
402,192,97137,1,0,0:0:0:0:bass_c5.wav
36,192,97258,1,0,0:0:0:0:lp11.wav
256,192,97258,1,0,0:0:0:0:perc_1.wav
475,192,97258,1,0,0:0:0:0:perc_3.wav
182,192,97379,1,0,0:0:0:0:v35.wav
329,192,97379,1,0,0:0:0:0:bass_c5.wav
109,192,97500,1,0,0:0:0:0:lp12.wav
256,192,97500,1,0,0:0:0:0:bass_c5.wav
402,192,97500,1,0,0:0:0:0:perc_2.wav
329,192,97620,1,0,0:0:0:0:bass_c5.wav
36,192,97741,1,0,0:0:0:0:lp13.wav
182,192,97741,1,0,0:0:0:0:perc_1.wav
402,192,97741,1,0,0:0:0:0:perc_3.wav
475,192,97741,1,0,0:0:0:0:v38.wav
256,192,97862,1,0,0:0:0:0:bass_c5.wav
109,192,97983,1,0,0:0:0:0:lp14.wav
182,192,97983,1,0,0:0:0:0:perc_2.wav
329,192,97983,1,0,0:0:0:0:bass_c5.wav
475,192,98104,1,0,0:0:0:0:bass_c5.wav
36,192,98225,1,0,0:0:0:0:lp15.wav
182,192,98225,1,0,0:0:0:0:perc_3.wav
402,192,98225,1,0,0:0:0:0:perc_1.wav
256,192,98346,1,0,0:0:0:0:bass_c5.wav
475,192,98346,1,0,0:0:0:0:bongoperc.wav
109,192,98467,1,0,0:0:0:0:lp16.wav
329,192,98467,1,0,0:0:0:0:perc_2.wav
402,192,98467,1,0,0:0:0:0:bass_c5.wav
36,192,98709,1,0,0:0:0:0:lp1.wav
182,192,98709,1,0,0:0:0:0:bass_g4.wav
329,192,98709,1,0,0:0:0:0:v40.wav
402,192,98709,1,0,0:0:0:0:perc_1.wav
475,192,98709,1,0,0:0:0:0:perc_3.wav
256,192,98830,1,0,0:0:0:0:bass_g4.wav
109,192,98951,1,0,0:0:0:0:bass_g4.wav
329,192,98951,1,0,0:0:0:0:lp2.wav
475,192,98951,1,0,0:0:0:0:perc_2.wav
182,192,99072,1,0,0:0:0:0:v41.wav
402,192,99072,1,0,0:0:0:0:bass_g4.wav
36,192,99193,1,0,0:0:0:0:lp3.wav
256,192,99193,1,0,0:0:0:0:perc_1.wav
329,192,99193,1,0,0:0:0:0:perc_3.wav
182,192,99314,1,0,0:0:0:0:bass_g4.wav
109,192,99435,1,0,0:0:0:0:lp4.wav
329,192,99435,1,0,0:0:0:0:bass_g4.wav
475,192,99435,1,0,0:0:0:0:perc_2.wav
182,192,99556,1,0,0:0:0:0:bass_g4.wav
402,192,99556,1,0,0:0:0:0:bongoperc.wav
36,192,99677,1,0,0:0:0:0:lp5.wav
329,192,99677,1,0,0:0:0:0:perc_1.wav
475,192,99677,1,0,0:0:0:0:perc_3.wav
109,192,99798,1,0,0:0:0:0:v43.wav
256,192,99798,1,0,0:0:0:0:bass_g4.wav
36,192,99919,1,0,0:0:0:0:perc_2.wav
182,192,99919,1,0,0:0:0:0:bass_g4.wav
402,192,99919,1,0,0:0:0:0:lp6.wav
256,192,100040,1,0,0:0:0:0:bass_g4.wav
475,192,100040,1,0,0:0:0:0:v45.wav
36,192,100161,1,0,0:0:0:0:lp7.wav
109,192,100161,1,0,0:0:0:0:perc_3.wav
402,192,100161,1,0,0:0:0:0:perc_1.wav
256,192,100282,1,0,0:0:0:0:bongoperc.wav
329,192,100282,1,0,0:0:0:0:bass_g4.wav
109,192,100403,1,0,0:0:0:0:perc_2.wav
182,192,100403,1,0,0:0:0:0:lp8.wav
475,192,100403,1,0,0:0:0:0:bass_g4.wav
329,192,100524,1,0,0:0:0:0:v47.wav
36,192,100645,1,0,0:0:0:0:lp9.wav
109,192,100645,1,0,0:0:0:0:v48.wav
256,192,100645,1,0,0:0:0:0:perc_3.wav
402,192,100645,1,0,0:0:0:0:bass_bf4.wav
475,192,100645,1,0,0:0:0:0:perc_1.wav
182,192,100766,1,0,0:0:0:0:bass_bf4.wav
109,192,100887,1,0,0:0:0:0:bass_bf4.wav
329,192,100887,1,0,0:0:0:0:lp10.wav
475,192,100887,1,0,0:0:0:0:perc_2.wav
182,192,101008,1,0,0:0:0:0:bass_bf4.wav
36,192,101129,1,0,0:0:0:0:lp11.wav
329,192,101129,1,0,0:0:0:0:perc_1.wav
475,192,101129,1,0,0:0:0:0:perc_3.wav
256,192,101250,1,0,0:0:0:0:bass_bf4.wav
109,192,101370,1,0,0:0:0:0:perc_2.wav
182,192,101370,1,0,0:0:0:0:bass_bf4.wav
402,192,101370,1,0,0:0:0:0:lp12.wav
256,192,101491,1,0,0:0:0:0:bass_bf4.wav
36,192,101612,1,0,0:0:0:0:lp13.wav
182,192,101612,1,0,0:0:0:0:perc_1.wav
329,192,101612,1,0,0:0:0:0:f2.wav
475,192,101612,1,0,0:0:0:0:perc_3.wav
402,192,101733,1,0,0:0:0:0:bass_bf4.wav
109,192,101854,1,0,0:0:0:0:lp14.wav
329,192,101854,1,0,0:0:0:0:bass_bf4.wav
475,192,101854,1,0,0:0:0:0:perc_2.wav
256,192,101975,1,0,0:0:0:0:bass_bf4.wav
36,192,102096,1,0,0:0:0:0:lp15.wav
182,192,102096,1,0,0:0:0:0:perc_3.wav
402,192,102096,1,0,0:0:0:0:perc_1.wav
109,192,102217,1,0,0:0:0:0:bongoperc.wav
256,192,102217,1,0,0:0:0:0:bass_bf4.wav
182,192,102338,1,0,0:0:0:0:lp16.wav
329,192,102338,1,0,0:0:0:0:bass_bf4.wav
475,192,102338,1,0,0:0:0:0:perc_2.wav
36,192,102580,1,0,0:0:0:0:lp1.wav
109,192,102580,1,0,0:0:0:0:perc_3.wav
256,192,102580,1,0,0:0:0:0:v51.wav
329,192,102580,1,0,0:0:0:0:perc_1.wav
402,192,102580,1,0,0:0:0:0:f4.wav
475,192,102701,1,0,0:0:0:0:bass_c5.wav
182,192,102822,1,0,0:0:0:0:lp2.wav
329,192,102822,1,0,0:0:0:0:perc_2.wav
256,192,102943,1,0,0:0:0:0:bass_c5.wav
109,192,103064,1,0,0:0:0:0:clap.wav
329,192,103064,1,0,0:0:0:0:lp3.wav
402,192,103064,1,0,0:0:0:0:perc_3.wav
36,192,103185,1,0,0:0:0:0:bass_c5.wav
182,192,103306,1,0,0:0:0:0:f5.wav
256,192,103306,1,0,0:0:0:0:lp4.wav
475,192,103306,1,0,0:0:0:0:perc_2.wav
402,192,103427,1,0,0:0:0:0:bass_c5.wav
36,192,103548,1,0,0:0:0:0:lp5.wav
109,192,103548,1,0,0:0:0:0:perc_3.wav
329,192,103548,1,0,0:0:0:0:perc_1.wav
256,192,103669,1,0,0:0:0:0:bass_c5.wav
182,192,103790,1,0,0:0:0:0:lp6.wav
329,192,103790,1,0,0:0:0:0:bongoperc.wav
475,192,103790,1,0,0:0:0:0:perc_2.wav
36,192,103911,1,0,0:0:0:0:bass_c5.wav
109,192,104032,1,0,0:0:0:0:f6.wav
329,192,104032,1,0,0:0:0:0:perc_3.wav
475,192,104032,1,0,0:0:0:0:lp7.wav
402,192,104153,1,0,0:0:0:0:bass_c5.wav
36,192,104274,1,0,0:0:0:0:perc_2.wav
256,192,104274,1,0,0:0:0:0:lp8.wav
475,192,104274,1,0,0:0:0:0:bass_c5.wav
109,192,104516,1,0,0:0:0:0:perc_1.wav
182,192,104516,1,0,0:0:0:0:lp9.wav
402,192,104516,1,0,0:0:0:0:perc_3.wav
329,192,104637,1,0,0:0:0:0:bass_ef5.wav
36,192,104758,1,0,0:0:0:0:v54.wav
256,192,104758,1,0,0:0:0:0:lp10.wav
475,192,104758,1,0,0:0:0:0:f7.wav
182,192,104879,1,0,0:0:0:0:bass_ef5.wav
36,192,105000,1,0,0:0:0:0:perc_1.wav
109,192,105000,1,0,0:0:0:0:lp11.wav
329,192,105000,1,0,0:0:0:0:clap.wav
402,192,105120,1,0,0:0:0:0:bass_ef5.wav
36,192,105241,1,0,0:0:0:0:bass_ef5.wav
182,192,105241,1,0,0:0:0:0:lp12.wav
475,192,105241,1,0,0:0:0:0:perc_2.wav
256,192,105362,1,0,0:0:0:0:bass_ef5.wav
402,192,105362,1,0,0:0:0:0:bongoperc.wav
36,192,105483,1,0,0:0:0:0:v55.wav
182,192,105483,1,0,0:0:0:0:phone.wav
329,192,105483,1,0,0:0:0:0:f8.wav
36,192,105967,1,0,0:0:0:0:perc_1.wav
256,192,105967,1,0,0:0:0:0:v56.wav
402,192,105967,1,0,0:0:0:0:f9.wav
109,192,106088,1,0,0:0:0:0:bongoperc.wav
329,192,106088,1,0,0:0:0:0:bass_e5.wav
36,192,106209,1,0,0:0:0:0:bass_e5.wav
182,192,106209,1,0,0:0:0:0:perc_2.wav
475,192,106209,1,0,0:0:0:0:lp16.wav
329,192,106330,1,0,0:0:0:0:scratch2.wav
36,192,106451,1,0,0:0:0:0:v57.wav
256,192,106451,1,0,0:0:0:0:perc_1.wav
402,192,106451,1,0,0:0:0:0:kick.wav
182,192,106572,1,0,0:0:0:0:bass_f4.wav
109,192,106693,1,0,0:0:0:0:perc_2.wav
256,192,106693,1,0,0:0:0:0:n2p_2.wav
475,192,106693,1,0,0:0:0:0:v58.wav
329,192,106814,1,0,0:0:0:0:put_this_sound_for_fun.wav
36,192,106935,1,0,0:0:0:0:n2p_3.wav
182,192,106935,1,0,0:0:0:0:perc_3.wav
475,192,106935,1,0,0:0:0:0:perc_1.wav
109,192,107056,1,0,0:0:0:0:bass_f4.wav
182,192,107177,1,0,0:0:0:0:kick.wav
256,192,107177,1,0,0:0:0:0:n2p_4.wav
475,192,107177,1,0,0:0:0:0:perc_2.wav
329,192,107298,1,0,0:0:0:0:n2p_5.wav
36,192,107419,1,0,0:0:0:0:n2p_6.wav
256,192,107419,1,0,0:0:0:0:perc_3.wav
402,192,107419,1,0,0:0:0:0:perc_1.wav
182,192,107540,1,0,0:0:0:0:bass_f4.wav
109,192,107661,1,0,0:0:0:0:n2p_7.wav
256,192,107661,1,0,0:0:0:0:bass_f4.wav
475,192,107661,1,0,0:0:0:0:perc_2.wav
329,192,107782,1,0,0:0:0:0:bass_f4.wav
36,192,107903,1,0,0:0:0:0:kick.wav
182,192,107903,1,0,0:0:0:0:n2p_8.wav
402,192,107903,1,0,0:0:0:0:perc_3.wav
329,192,108024,1,0,0:0:0:0:bass_f4.wav
109,192,108145,1,0,0:0:0:0:perc_2.wav
256,192,108145,1,0,0:0:0:0:n2p_9.wav
475,192,108145,1,0,0:0:0:0:v59.wav
329,192,108266,1,0,0:0:0:0:put_this_sound_for_fun.wav
182,192,108387,1,0,0:0:0:0:Mix_VEC_FX.wav
402,192,108387,1,0,0:0:0:0:bass_d5.wav
36,192,108508,1,0,0:0:0:0:bass_d5.wav
109,192,108629,1,0,0:0:0:0:bass_d5.wav
475,192,108629,1,0,0:0:0:0:put_this_sound_for_fun.wav
182,192,108750,1,0,0:0:0:0:bass_d5.wav
329,192,108750,1,0,0:0:0:0:put_this_sound_for_fun.wav
402,192,108870,1,0,0:0:0:0:put_this_sound_for_fun.wav
256,192,108991,1,0,0:0:0:0:bass_d5.wav
182,192,109112,1,0,0:0:0:0:bass_d5.wav
36,192,109233,1,0,0:0:0:0:bass_d5.wav
109,192,109354,1,0,0:0:0:0:v60.wav
36,192,109838,1,0,0:0:0:0:put_this_sound_for_fun.wav
256,192,109838,1,0,0:0:0:0:put_this_sound_for_fun.wav
475,192,109838,1,0,0:0:0:0:v61.wav
36,192,110322,1,0,0:0:0:0:lp1.wav
329,192,110322,1,0,0:0:0:0:d1.wav
475,192,110322,1,0,0:0:0:0:d4.wav
182,192,110443,1,0,0:0:0:0:x2.wav
109,192,110564,1,0,0:0:0:0:lp2.wav
256,192,110564,1,0,0:0:0:0:d1.wav
402,192,110564,1,0,0:0:0:0:d4.wav
475,192,110685,1,0,0:0:0:0:x4.wav
36,192,110806,1,0,0:0:0:0:lp3.wav
182,192,110806,1,0,0:0:0:0:lineperc_3.wav
329,192,110806,1,0,0:0:0:0:x5.wav
256,192,110927,1,0,0:0:0:0:d1.wav
402,192,110927,1,0,0:0:0:0:d8.wav
109,192,111048,1,0,0:0:0:0:lp4.wav
329,192,111048,1,0,0:0:0:0:lineperc_4.wav
475,192,111048,1,0,0:0:0:0:x7.wav
182,192,111169,1,0,0:0:0:0:x8.wav
36,192,111290,1,0,0:0:0:0:lp5.wav
329,192,111290,1,0,0:0:0:0:d1.wav
475,192,111290,1,0,0:0:0:0:d4.wav
256,192,111411,1,0,0:0:0:0:x10.wav
182,192,111532,1,0,0:0:0:0:lp6.wav
329,192,111532,1,0,0:0:0:0:d1.wav
475,192,111532,1,0,0:0:0:0:d4.wav
402,192,111653,1,0,0:0:0:0:x12.wav
36,192,111774,1,0,0:0:0:0:lp7.wav
109,192,111774,1,0,0:0:0:0:lineperc_3.wav
475,192,111774,1,0,0:0:0:0:x13.wav
256,192,111895,1,0,0:0:0:0:d9.wav
402,192,111895,1,0,0:0:0:0:d1.wav
182,192,112016,1,0,0:0:0:0:lp8.wav
329,192,112016,1,0,0:0:0:0:lineperc_4.wav
475,192,112016,1,0,0:0:0:0:x15.wav
109,192,112137,1,0,0:0:0:0:x16.wav
36,192,112258,1,0,0:0:0:0:lp9.wav
329,192,112258,1,0,0:0:0:0:d1.wav
475,192,112258,1,0,0:0:0:0:d4.wav
182,192,112379,1,0,0:0:0:0:x18.wav
109,192,112500,1,0,0:0:0:0:lp10.wav
256,192,112500,1,0,0:0:0:0:d1.wav
402,192,112500,1,0,0:0:0:0:d4.wav
329,192,112620,1,0,0:0:0:0:x20.wav
36,192,112741,1,0,0:0:0:0:lp11.wav
182,192,112741,1,0,0:0:0:0:lineperc_3.wav
475,192,112741,1,0,0:0:0:0:x21.wav
256,192,112862,1,0,0:0:0:0:d1.wav
402,192,112862,1,0,0:0:0:0:d8.wav
109,192,112983,1,0,0:0:0:0:lp12.wav
329,192,112983,1,0,0:0:0:0:lineperc_4.wav
475,192,112983,1,0,0:0:0:0:x23.wav
182,192,113104,1,0,0:0:0:0:x24.wav
36,192,113225,1,0,0:0:0:0:lp13.wav
329,192,113225,1,0,0:0:0:0:d1.wav
475,192,113225,1,0,0:0:0:0:d4.wav
402,192,113346,1,0,0:0:0:0:x26.wav
182,192,113467,1,0,0:0:0:0:lp14.wav
329,192,113467,1,0,0:0:0:0:d1.wav
475,192,113467,1,0,0:0:0:0:d4.wav
256,192,113588,1,0,0:0:0:0:x28.wav
36,192,113709,1,0,0:0:0:0:lp15.wav
109,192,113709,1,0,0:0:0:0:lineperc_3.wav
402,192,113709,1,0,0:0:0:0:perc_4.wav
329,192,113830,1,0,0:0:0:0:d2.wav
475,192,113830,1,0,0:0:0:0:d4.wav
182,192,113951,1,0,0:0:0:0:lp16.wav
402,192,113951,1,0,0:0:0:0:d10.wav
109,192,114072,1,0,0:0:0:0:bass_g5.wav
256,192,114072,1,0,0:0:0:0:d11.wav
36,192,114193,1,0,0:0:0:0:lp1.wav
329,192,114193,1,0,0:0:0:0:d1.wav
475,192,114193,1,0,0:0:0:0:d4.wav
182,192,114314,1,0,0:0:0:0:x2.wav
109,192,114435,1,0,0:0:0:0:lp2.wav
256,192,114435,1,0,0:0:0:0:d1.wav
402,192,114435,1,0,0:0:0:0:d4.wav
329,192,114556,1,0,0:0:0:0:x4.wav
36,192,114677,1,0,0:0:0:0:lp3.wav
182,192,114677,1,0,0:0:0:0:lineperc_3.wav
475,192,114677,1,0,0:0:0:0:x5.wav
256,192,114798,1,0,0:0:0:0:d1.wav
402,192,114798,1,0,0:0:0:0:d8.wav
109,192,114919,1,0,0:0:0:0:lp4.wav
329,192,114919,1,0,0:0:0:0:lineperc_4.wav
475,192,114919,1,0,0:0:0:0:x7.wav
182,192,115040,1,0,0:0:0:0:x8.wav
36,192,115161,1,0,0:0:0:0:lp5.wav
329,192,115161,1,0,0:0:0:0:d1.wav
475,192,115161,1,0,0:0:0:0:d4.wav
256,192,115282,1,0,0:0:0:0:x10.wav
182,192,115403,1,0,0:0:0:0:lp6.wav
329,192,115403,1,0,0:0:0:0:d1.wav
475,192,115403,1,0,0:0:0:0:d4.wav
256,192,115524,1,0,0:0:0:0:x12.wav
36,192,115645,1,0,0:0:0:0:lp7.wav
109,192,115645,1,0,0:0:0:0:lineperc_3.wav
329,192,115645,1,0,0:0:0:0:x13.wav
256,192,115766,1,0,0:0:0:0:d9.wav
402,192,115766,1,0,0:0:0:0:d1.wav
182,192,115887,1,0,0:0:0:0:lp8.wav
329,192,115887,1,0,0:0:0:0:lineperc_4.wav
475,192,115887,1,0,0:0:0:0:x15.wav
109,192,116008,1,0,0:0:0:0:x16.wav
36,192,116129,1,0,0:0:0:0:perc_4.wav
329,192,116129,1,0,0:0:0:0:lp9.wav
475,192,116129,1,0,0:0:0:0:kick.wav
109,192,116250,1,0,0:0:0:0:x18.wav
182,192,116370,1,0,0:0:0:0:d1.wav
256,192,116370,1,0,0:0:0:0:x19.wav
402,192,116370,1,0,0:0:0:0:lineperc_2.wav
329,192,116491,1,0,0:0:0:0:x20.wav
36,192,116612,1,0,0:0:0:0:perc_4.wav
475,192,116612,1,0,0:0:0:0:kick.wav
109,192,116733,1,0,0:0:0:0:x22.wav
182,192,116854,1,0,0:0:0:0:lineperc_4.wav
256,192,116854,1,0,0:0:0:0:x23.wav
402,192,116854,1,0,0:0:0:0:lp12.wav
329,192,116975,1,0,0:0:0:0:x24.wav
36,192,117096,1,0,0:0:0:0:perc_4.wav
475,192,117096,1,0,0:0:0:0:kick.wav
256,192,117217,1,0,0:0:0:0:x26.wav
36,192,117338,1,0,0:0:0:0:lineperc_6.wav
329,192,117338,1,0,0:0:0:0:x27.wav
475,192,117338,1,0,0:0:0:0:kick.wav
256,192,117459,1,0,0:0:0:0:x28.wav
182,192,117580,1,0,0:0:0:0:VEH3_FX_054_1.wav
402,192,117580,1,0,0:0:0:0:perc_4.wav
36,192,117701,1,0,0:0:0:0:bass_g4.wav
329,192,117701,1,0,0:0:0:0:d4.wav
475,192,117701,1,0,0:0:0:0:kick.wav
109,192,117822,1,0,0:0:0:0:lineperc_4.wav
256,192,117822,1,0,0:0:0:0:d10.wav
182,192,117943,1,0,0:0:0:0:d11.wav
36,192,118064,1,0,0:0:0:0:s1.wav
256,192,118064,1,0,0:0:0:0:d1.wav
402,192,118064,1,0,0:0:0:0:d4.wav
109,192,118306,1,0,0:0:0:0:s2.wav
256,192,118306,1,0,0:0:0:0:d1.wav
402,192,118306,1,0,0:0:0:0:d4.wav
182,192,118427,1,0,0:0:0:0:imp1.wav
329,192,118427,1,0,0:0:0:0:s3.wav
36,192,118548,1,0,0:0:0:0:kick.wav
256,192,118548,1,0,0:0:0:0:s4.wav
475,192,118548,1,0,0:0:0:0:clap.wav
182,192,118669,1,0,0:0:0:0:d1.wav
329,192,118669,1,0,0:0:0:0:d8.wav
402,192,118669,1,0,0:0:0:0:s5.wav
109,192,118790,1,0,0:0:0:0:s6.wav
475,192,118790,1,0,0:0:0:0:lineperc_4.wav
329,192,118911,1,0,0:0:0:0:s7.wav
36,192,119032,1,0,0:0:0:0:s9.wav
256,192,119032,1,0,0:0:0:0:d1.wav
402,192,119032,1,0,0:0:0:0:d4.wav
36,192,119274,1,0,0:0:0:0:s2.wav
256,192,119274,1,0,0:0:0:0:d1.wav
402,192,119274,1,0,0:0:0:0:d4.wav
182,192,119395,1,0,0:0:0:0:s3.wav
475,192,119395,1,0,0:0:0:0:lineperc_7.wav
109,192,119516,1,0,0:0:0:0:s4.wav
329,192,119516,1,0,0:0:0:0:clap.wav
402,192,119516,1,0,0:0:0:0:kick.wav
36,192,119637,1,0,0:0:0:0:d9.wav
182,192,119637,1,0,0:0:0:0:d1.wav
475,192,119637,1,0,0:0:0:0:s5.wav
256,192,119758,1,0,0:0:0:0:lineperc_4.wav
329,192,119758,1,0,0:0:0:0:s6.wav
475,192,119879,1,0,0:0:0:0:s7.wav
109,192,120000,1,0,0:0:0:0:s9.wav
256,192,120000,1,0,0:0:0:0:d1.wav
402,192,120000,1,0,0:0:0:0:d4.wav
36,192,120241,1,0,0:0:0:0:s2.wav
256,192,120241,1,0,0:0:0:0:d1.wav
402,192,120241,1,0,0:0:0:0:d4.wav
182,192,120362,1,0,0:0:0:0:imp1.wav
329,192,120362,1,0,0:0:0:0:s3.wav
36,192,120483,1,0,0:0:0:0:kick.wav
109,192,120483,1,0,0:0:0:0:s4.wav
475,192,120483,1,0,0:0:0:0:clap.wav
182,192,120604,1,0,0:0:0:0:d1.wav
329,192,120604,1,0,0:0:0:0:d8.wav
402,192,120604,1,0,0:0:0:0:s5.wav
109,192,120725,1,0,0:0:0:0:s6.wav
475,192,120725,1,0,0:0:0:0:lineperc_4.wav
329,192,120846,1,0,0:0:0:0:s7.wav
36,192,120967,1,0,0:0:0:0:s9.wav
256,192,120967,1,0,0:0:0:0:d1.wav
402,192,120967,1,0,0:0:0:0:d4.wav
109,192,121209,1,0,0:0:0:0:s2.wav
256,192,121209,1,0,0:0:0:0:d1.wav
402,192,121209,1,0,0:0:0:0:d4.wav
182,192,121330,1,0,0:0:0:0:s3.wav
329,192,121330,1,0,0:0:0:0:lineperc_7.wav
36,192,121451,1,0,0:0:0:0:kick.wav
256,192,121451,1,0,0:0:0:0:s8.wav
475,192,121451,1,0,0:0:0:0:clap.wav
182,192,121572,1,0,0:0:0:0:d2.wav
402,192,121572,1,0,0:0:0:0:d4.wav
329,192,121693,1,0,0:0:0:0:d10.wav
475,192,121693,1,0,0:0:0:0:lineperc_4.wav
109,192,121814,1,0,0:0:0:0:d11.wav
36,192,121935,1,0,0:0:0:0:s1.wav
256,192,121935,1,0,0:0:0:0:d1.wav
402,192,121935,1,0,0:0:0:0:d4.wav
109,192,122177,1,0,0:0:0:0:s2.wav
256,192,122177,1,0,0:0:0:0:d1.wav
402,192,122177,1,0,0:0:0:0:d4.wav
182,192,122298,1,0,0:0:0:0:s3.wav
329,192,122298,1,0,0:0:0:0:imp1.wav
36,192,122419,1,0,0:0:0:0:kick.wav
256,192,122419,1,0,0:0:0:0:s4.wav
475,192,122419,1,0,0:0:0:0:clap.wav
182,192,122540,1,0,0:0:0:0:d1.wav
329,192,122540,1,0,0:0:0:0:d8.wav
402,192,122540,1,0,0:0:0:0:s5.wav
109,192,122661,1,0,0:0:0:0:s6.wav
475,192,122661,1,0,0:0:0:0:h2.wav
329,192,122782,1,0,0:0:0:0:s7.wav
36,192,122903,1,0,0:0:0:0:s9.wav
256,192,122903,1,0,0:0:0:0:d1.wav
402,192,122903,1,0,0:0:0:0:d4.wav
36,192,123145,1,0,0:0:0:0:s2.wav
256,192,123145,1,0,0:0:0:0:d1.wav
402,192,123145,1,0,0:0:0:0:d4.wav
109,192,123266,1,0,0:0:0:0:s3.wav
475,192,123266,1,0,0:0:0:0:lineperc_7.wav
182,192,123387,1,0,0:0:0:0:kick.wav
256,192,123387,1,0,0:0:0:0:s4.wav
329,192,123387,1,0,0:0:0:0:clap.wav
36,192,123508,1,0,0:0:0:0:d1.wav
109,192,123508,1,0,0:0:0:0:d9.wav
402,192,123508,1,0,0:0:0:0:s5.wav
182,192,123629,1,0,0:0:0:0:lineperc_4.wav
329,192,123629,1,0,0:0:0:0:s6.wav
475,192,123750,1,0,0:0:0:0:s7.wav
36,192,123870,1,0,0:0:0:0:kick.wav
182,192,123951,1,0,0:0:0:0:put_this_sound_for_fun.wav
329,192,124032,1,0,0:0:0:0:put_this_sound_for_fun.wav
109,192,124112,1,0,0:0:0:0:put_this_sound_for_fun.wav
256,192,124193,1,0,0:0:0:0:put_this_sound_for_fun.wav
402,192,124274,1,0,0:0:0:0:put_this_sound_for_fun.wav
36,192,124354,1,0,0:0:0:0:clap.wav
109,192,124435,1,0,0:0:0:0:put_this_sound_for_fun.wav
182,192,124516,1,0,0:0:0:0:put_this_sound_for_fun.wav
256,192,124596,1,0,0:0:0:0:put_this_sound_for_fun.wav
329,192,124677,1,0,0:0:0:0:put_this_sound_for_fun.wav
402,192,124758,1,0,0:0:0:0:put_this_sound_for_fun.wav
475,192,124838,1,0,0:0:0:0:kick.wav
402,192,124919,1,0,0:0:0:0:put_this_sound_for_fun.wav
329,192,125000,1,0,0:0:0:0:put_this_sound_for_fun.wav
256,192,125080,1,0,0:0:0:0:put_this_sound_for_fun.wav
182,192,125161,1,0,0:0:0:0:put_this_sound_for_fun.wav
109,192,125241,1,0,0:0:0:0:put_this_sound_for_fun.wav
475,192,125322,1,0,0:0:0:0:s8.wav
329,192,125403,1,0,0:0:0:0:put_this_sound_for_fun.wav
182,192,125483,1,0,0:0:0:0:put_this_sound_for_fun.wav
402,192,125564,1,0,0:0:0:0:put_this_sound_for_fun.wav
256,192,125645,1,0,0:0:0:0:put_this_sound_for_fun.wav
109,192,125725,1,0,0:0:0:0:put_this_sound_for_fun.wav
36,192,125806,1,0,0:0:0:0:rhode_remain.wav
